Subcategories

Kobi Hagoel - Seam Line (2003)

Posted By: tiburon
Kobi Hagoel - Seam Line (2003)

Kobi Hagoel - Seam Line (2003)
EAC 1.3 | FLAC tracks level 8 | Cue+Log+M3U | Full Scans 300dpi | 340MB + 5% Recovery
MP3 CBR 320 Kbps | 161MB + 5% Recovery
Genre: Ethnic Fusion

"Seam Line" or "Kav HateFer" in Hebrew, is the term used by Israelis to describe the geographical boundary between the Israeli and Palestinian areas. As in life, with all the dynamic complexities of the region, the group "Kav Hatefer" incorporates many eclectic and intertwining styles of music. Established by Kobi Hagoel in 1995, with a fusion of tastes from the Middle East, the Balkans, North Africa, India and Persia, mixed with jazz and rock, the group has since performed all over Israel in clubs, festivals and on Israeli television. The music was written by Kobi Hagoel, Asi Givati and Harel Shachal.
Track List
1 Asiwan (Asi Givati)
2 Salame (Harel Shachal)
3 Jerusalem (Kobi Hagoel)
4 Burja (Asi Givati)
5 Uncle Pepo Uncle J'ako (Kobi Hagoel)
6 Zula (Kobi Hagoel & Gili Liber)
7 Vocaliza (Kobi Hagoel)
8 7/5 (Kobi Hagoel)
9 Asituk (Asi Givati)

musicians
David Otterman - Keyboard (1,3,4,6,9), Bass Guitar (1,5,8), Castanets (2), Junk Percussion (2,7)
Tiran Bubli - Ney (1), Riq (2,3,7,8), Djembe (4), Daf (5), Morrocan Bindir (6), Darbuka (9)
Kobi Hagoel - Darbuka (1,4,6), Riq (1), Bongos (2), Gibberish (3,4,5,6,7,8), Bells (3), Chimes (3), Vox (3,4,5,6,7,8,9), Zarb (3,8), "Remo" Conga Kid (4), Moroccan Bindir (4), Aluminum Foil, (4) Hand Claps (4), Sagat (5), Leg Bells (6,9), Daf (7,9), Effects (9)
Asi Givati - Oud (1,3,6,7,8,9), Acoustic Guitar (2,4,5), Vox (4), Hand Claps (4)
Amit Carmeli - Moroccan Bindir (1), Bass Guitar (2,4,6,7,9), Head Trumpet (3), Vox (4), Hand Claps (4), Oud (5)
Harel Sachal - Saxophone (1,2,3,4,6,7,8,9), Melodica (2,5)
Hadas Goldschmidt Halfon - Violin (3,8), Vocals (3), Saxophone (7)
Gal Navon - Junk Percussion (4)

Produced by Kobi Hagoel


Exact Audio Copy V1.3 from 2. September 2016

EAC extraction logfile from 18. December 2017, 9:41

Kobi Hagoel / Seam Line

Used drive : HL-DT-STDVDRAM GH24NSB0 Adapter: 1 ID: 0

Read mode : Secure
Utilize accurate stream : Yes
Defeat audio cache : Yes
Make use of C2 pointers : No

Read offset correction : 6
Overread into Lead-In and Lead-Out : No
Fill up missing offset samples with silence : Yes
Delete leading and trailing silent blocks : No
Null samples used in CRC calculations : Yes
Used interface : Native Win32 interface for Win NT & 2000
Gap handling : Appended to previous track

Used output format : User Defined Encoder
Selected bitrate : 1024 kBit/s
Quality : High
Add ID3 tag : No
Command line compressor : C:\Program Files (x86)\Exact Audio Copy\FLAC\FLAC.EXE
Additional command line options : -V -8 -T "Genre=%genre%" -T "Artist=%artist%" -T "Title=%title%" -T "Album=%albumtitle%" -T "Date=%year%" -T "Tracknumber=%tracknr%" -T "Comment=%comment%" %source%


TOC of the extracted CD

Track | Start | Length | Start sector | End sector
––––––––––––––––––––––––––––-
1 | 0:00.00 | 4:52.74 | 0 | 21973
2 | 4:52.74 | 5:04.22 | 21974 | 44795
3 | 9:57.21 | 8:11.26 | 44796 | 81646
4 | 18:08.47 | 5:55.43 | 81647 | 108314
5 | 24:04.15 | 5:22.38 | 108315 | 132502
6 | 29:26.53 | 7:33.02 | 132503 | 166479
7 | 36:59.55 | 6:54.44 | 166480 | 197573
8 | 43:54.24 | 3:35.69 | 197574 | 213767
9 | 47:30.18 | 5:20.08 | 213768 | 237775


Track 1

Filename D:\Music\MG rips\Kobi Hagoel - Seam Line - 2003 (Kobi Hagoel) [FLAC]\01 - Asiwan.wav

Pre-gap length 0:00:02.00

Peak level 100.0 %
Extraction speed 1.1 X
Track quality 100.0 %
Test CRC EDEBF077
Copy CRC EDEBF077
Track not present in AccurateRip database
Copy OK

Track 2

Filename D:\Music\MG rips\Kobi Hagoel - Seam Line - 2003 (Kobi Hagoel) [FLAC]\02 - Salame.wav

Pre-gap length 0:00:01.21

Peak level 100.0 %
Extraction speed 1.2 X
Track quality 100.0 %
Test CRC 6584B7F0
Copy CRC 6584B7F0
Track not present in AccurateRip database
Copy OK

Track 3

Filename D:\Music\MG rips\Kobi Hagoel - Seam Line - 2003 (Kobi Hagoel) [FLAC]\03 - Jerusalem.wav

Pre-gap length 0:00:00.27

Peak level 100.0 %
Extraction speed 1.4 X
Track quality 99.9 %
Test CRC BBBF9B2D
Copy CRC BBBF9B2D
Track not present in AccurateRip database
Copy OK

Track 4

Filename D:\Music\MG rips\Kobi Hagoel - Seam Line - 2003 (Kobi Hagoel) [FLAC]\04 - Burja.wav

Pre-gap length 0:00:01.11

Peak level 100.0 %
Extraction speed 1.4 X
Track quality 99.9 %
Test CRC D67611E7
Copy CRC D67611E7
Track not present in AccurateRip database
Copy OK

Track 5

Filename D:\Music\MG rips\Kobi Hagoel - Seam Line - 2003 (Kobi Hagoel) [FLAC]\05 - Uncle Pepo Uncle J'ako.wav

Pre-gap length 0:00:01.44

Peak level 100.0 %
Extraction speed 1.7 X
Track quality 100.0 %
Test CRC E74FE14D
Copy CRC E74FE14D
Track not present in AccurateRip database
Copy OK

Track 6

Filename D:\Music\MG rips\Kobi Hagoel - Seam Line - 2003 (Kobi Hagoel) [FLAC]\06 - Zula.wav

Pre-gap length 0:00:03.26

Peak level 100.0 %
Extraction speed 1.9 X
Track quality 100.0 %
Test CRC F7B40DEC
Copy CRC F7B40DEC
Track not present in AccurateRip database
Copy OK

Track 7

Filename D:\Music\MG rips\Kobi Hagoel - Seam Line - 2003 (Kobi Hagoel) [FLAC]\07 - Vocaliza.wav

Pre-gap length 0:00:00.29

Peak level 100.0 %
Extraction speed 2.0 X
Track quality 100.0 %
Test CRC 6477F13A
Copy CRC 6477F13A
Track not present in AccurateRip database
Copy OK

Track 8

Filename D:\Music\MG rips\Kobi Hagoel - Seam Line - 2003 (Kobi Hagoel) [FLAC]\08 - 7,5.wav

Pre-gap length 0:00:00.64

Peak level 99.9 %
Extraction speed 1.9 X
Track quality 100.0 %
Test CRC 763564E9
Copy CRC 763564E9
Track not present in AccurateRip database
Copy OK

Track 9

Filename D:\Music\MG rips\Kobi Hagoel - Seam Line - 2003 (Kobi Hagoel) [FLAC]\09 - Asituk.wav

Pre-gap length 0:00:00.21

Peak level 100.0 %
Extraction speed 2.1 X
Track quality 100.0 %
Test CRC C94136F7
Copy CRC C94136F7
Track not present in AccurateRip database
Copy OK


None of the tracks are present in the AccurateRip database

No errors occurred

End of status report

==== Log checksum 68898DDDA4F6BE93406F716816D5153C4C29BB8C9F75365A69E54ADA4DD493CD ====

Kobi Hagoel - Seam Line (2003)
Kobi Hagoel - Seam Line (2003)


Thanks to the original ripper