Subcategories

Konrad Hunteler, Camerata of the 18th Century - Vivaldi: Six Concertos for Flute (1996)

Posted By: ArlegZ
Konrad Hunteler, Camerata of the 18th Century - Vivaldi: Six Concertos for Flute (1996)

Konrad Hünteler, Camerata of the 18th Century - Vivaldi: Six Concertos for Flute (1996)
EAC | FLAC | Image (Cue & Log) ~ 215 Mb | Total time: 46:47 | Scans included
Classical | Label: MDG | # MDG 311 0640-2 | Recorded: 1995

This is a reissue of a disc originally released in the 1990s, performed on period instruments. The difference in pitch with modern instrument recordings is notable and gives a darker feeling to the sound than the brightness one has become accustomed to with the modern flute. In this recording, Konrad Hünteler uses an instrument made by Jacob Denner, which was approximately ten years old when these works were composed. The recording is made using only the natural acoustics of the space with no added technological trickery, and as such, it serves to provide an interesting example of what this music may have sounded like at the time Vivaldi composed it.
These concertos have been recorded many times by a range of different performers, but my feeling is that Hünteler’s authentic performance approach provides a scholarly interpretation which offers much insight and thought. The sleeve-notes are informative and well written, and the disc as a whole provides a satisfying educational experience, as well as being highly entertaining.
The recording is well balanced and the darker sonority of the low pitch allows for a strong bass end to the ensemble. The performers achieve an enjoyable range of timbres and colours, and the faster movements (most notably the first movement of Il Gardellino) are allowed to sparkle. This is characterful playing, and I am amazed by the range within the music; I have heard these concertos hundreds of times, played by both students and professionals, and I can honestly say that I have never heard a performance on a modern instrument which shows such range of tone colour, mood and musical interest. I am not an early music afficianado and have no particularly strong feelings either way about whether period or modern instruments should be used. A well informed historically accurate performance is interesting as an academic exercise, and I am generally of the opinion that a modern instrument performance is equally valid in terms of giving the music a continued life. However, I do believe, most passionately, that performances should have something to say, and this particular performance has completely changed my opinion of these concertos, and allowed me to see the musical depth contained within them.
The playing is excellent throughout and highly convincing. The ensemble supports the soloist well and there is an overall sense of unity between the performers. The small forces used mean that the solo line is always allowed space to be clearly heard. The slow movements are expressive, sensitively played and well ornamented, while the allegro movements have sparkle and drive.
(Carla Rees)

Performer:
Konrad Hünteler, flute
Camerata of the 18th Century

Track List:
01. Concerto No.1 RV 433 in F major 'La Tempesta di mare': I. Allegro
02. II. Largo
03. III. Presto
04. Concerto No.2 RV 439 in G minor 'La notte': I. Largo
05. II. Fantasmi
06. III. Il sonno. Largo
07. IV. Allegro
08. Concerto No.3 RV 428 in D major 'Il Gardellino': I. Allegro
09. II. Cantabile
10. III. Allegro
11. Concerto No.4 RV 435 in G major: I. Allegro
12. II. Largo
13. III. Allegro
14. Concerto No.5 RV 434 in F major: I. Allegro non molto
15. II. Largo e cantabile
16. III. Allegro
17. Concerto No.6 RV 437 in G major: I. Allegro
18. II. Largo
19. III. Allegro


Exact Audio Copy V1.3 from 2. September 2016

EAC extraction logfile from 15. November 2017, 16:04

Konrad Hünteler, Camerata of the 18th Century / Vivaldi - Six Concertos for Flute

Used drive : HL-DT-STDVDRAM GH24NS95 Adapter: 1 ID: 0

Read mode : Secure
Utilize accurate stream : Yes
Defeat audio cache : Yes
Make use of C2 pointers : No

Read offset correction : 6
Overread into Lead-In and Lead-Out : No
Fill up missing offset samples with silence : Yes
Delete leading and trailing silent blocks : No
Null samples used in CRC calculations : Yes
Used interface : Native Win32 interface for Win NT & 2000

Used output format : User Defined Encoder
Selected bitrate : 128 kBit/s
Quality : High
Add ID3 tag : No
Command line compressor : C:\Program Files\Exact Audio Copy\Flac\flac.exe
Additional command line options : -V -8 -T "Date=%year%" -T "Genre=%genre%" %source%


TOC of the extracted CD

Track | Start | Length | Start sector | End sector
––––––––––––––––––––––––––––-
1 | 0:00.00 | 2:36.37 | 0 | 11736
2 | 2:36.37 | 1:15.58 | 11737 | 17419
3 | 3:52.20 | 2:08.17 | 17420 | 27036
4 | 6:00.37 | 1:39.00 | 27037 | 34461
5 | 7:39.37 | 2:58.73 | 34462 | 47884
6 | 10:38.35 | 1:27.65 | 47885 | 54474
7 | 12:06.25 | 2:18.60 | 54475 | 64884
8 | 14:25.10 | 3:45.42 | 64885 | 81801
9 | 18:10.52 | 2:55.03 | 81802 | 94929
10 | 21:05.55 | 2:52.07 | 94930 | 107836
11 | 23:57.62 | 2:31.43 | 107837 | 119204
12 | 26:29.30 | 2:01.42 | 119205 | 128321
13 | 28:30.72 | 2:16.70 | 128322 | 138591
14 | 30:47.67 | 2:59.33 | 138592 | 152049
15 | 33:47.25 | 3:16.60 | 152050 | 166809
16 | 37:04.10 | 1:53.27 | 166810 | 175311
17 | 38:57.37 | 3:42.28 | 175312 | 191989
18 | 42:39.65 | 1:50.55 | 191990 | 200294
19 | 44:30.45 | 2:16.37 | 200295 | 210531


Range status and errors

Selected range

Filename C:\Program Files\Exact Audio Copy\Flac\Vivaldi - Six Concertos for Flute.wav

Peak level 83.7 %
Extraction speed 6.7 X
Range quality 99.9 %
Test CRC BEE12C60
Copy CRC BEE12C60
Copy OK

No errors occurred

End of status report

==== Log checksum F9BB8CAFE6E2D8216080D56C93B9ABEACF5EEF6A68C33155CE742B9A96B02BAB ====

Konrad Hunteler, Camerata of the 18th Century - Vivaldi: Six Concertos for Flute (1996)