Kraftwerk - The Catalogue 3D (2017) [8CD Box Set] *PROPER*

Posted By: v3122
Kraftwerk - The Catalogue 3D (2017) [8CD Box Set] *PROPER*

Kraftwerk - The Catalogue 3D (2017) [8CD Box Set]
EAC | Flac(Image) + Cue + Log & MP3 CBR 320Kbps
Parlophone Records, 0190295873424 | ~ 1554 or 678 Mb | Scans -> 464 Mb | Book -> 3.44 Gb
Pop, Rock, Electronic, Electro, Krautrock, Industrial Rock

Kraftwerk - The Catalogue 3D (2017) [8CD Box Set] *PROPER*

Released to coincide with Kraftwerk's forthcoming June 2017 tour - their first UK dates since the breathtaking shows witnessed at the Tate Modern in 2013 - Atlantic Records is proud to announce the release of Kraftwerk 3-D: The Catalogue on May 26th. This is the ground-breaking 3-D Kraftwerk concert brought thrillingly to life developed using high definition 3-D with Dolby Atmos surround sound and presented to the technological and audio standards one would associate and indeed come to expect from the pioneering Germans led by founder Ralf Hütter. For the very first time, every Kraftwerk fan can now experience a "Gesamtkunstwerk - a total work of art" in the comfort of their own home. Kraftwerk 3-D: The Catalogue is released across a number of formats including: Blu-Ray, DVD, Vinyl, CD and Download.
Kraftwerk 3-D: The Catalogue is a 3-D audio/video documentary of the Kraftwerk 3-D multi-media art performances in the leading museums of the world. It features 8 classic Kraftwerk albums in chronological order: Autobahn (1974), Radio-Activity (1975), Trans Europe Express (1977), The Man-Machine (1978), Computer World (1981), Techno Pop (1986), The Mix (1991) & Tour De France (2003) - filmed and recorded between 2012 and 2016 on the band's 3-D World Tour. The locations include MoMA (New York), The Tate Modern Turbine Hall (London), Akasaka Blitz (Tokyo), Opera House (Sydney), Norske Opera (Oslo), Paradiso (Amsterdam), Foundation Louis Vuitton (Paris) and Neue National Galerie (Berlin). These 3-D multi-media performances have been met with universal acclaim from both music critics and art/culture curators, rightfully recognized as complete works of audio-visual art.

~ amazon
Kraftwerk - The Catalogue 3D (2017) [8CD Box Set] *PROPER*


Kraftwerk - The Catalogue 3D (2017) [8CD Box Set]:

Kraftwerk - The Catalogue 3D (2017) [8CD Box Set] *PROPER*

Tracklist CD1 - 1974 Autobahn:

1 Autobahn
02 Kometenmelodie 1
03 Kometenmelodie 2
04 Mitternacht
05 Morgenspaziergang

Exact Audio Copy V1.1 from 23. June 2015

EAC extraction logfile from 22. July 2017, 8:17

Kraftwerk / Autobahn

Used drive : PLEXTOR BD-R PX-B950SA Adapter: 1 ID: 1

Read mode : Secure
Utilize accurate stream : Yes
Defeat audio cache : Yes
Make use of C2 pointers : No

Read offset correction : 6
Overread into Lead-In and Lead-Out : No
Fill up missing offset samples with silence : Yes
Delete leading and trailing silent blocks : No
Null samples used in CRC calculations : Yes
Used interface : Native Win32 interface for Win NT & 2000

Used output format : Internal WAV Routines
Sample format : 44.100 Hz; 16 Bit; Stereo


TOC of the extracted CD

Track | Start | Length | Start sector | End sector
––––––––––––––––––––––––––––-
1 | 0:00.36 | 14:29.36 | 36 | 65246
2 | 14:29.72 | 5:29.32 | 65247 | 89953
3 | 19:59.29 | 3:30.30 | 89954 | 105733
4 | 23:29.59 | 2:12.53 | 105734 | 115686
5 | 25:42.37 | 1:20.13 | 115687 | 121699


Range status and errors

Selected range

Filename C:\Users\Meijin\Desktop\ALLexxess\Kraftwerk\2017 3-D The Catalogue (8CD Box Set Parlophone Records)\1974 Autobahn\Kraftwerk - Autobahn.wav

Peak level 94.6 %
Extraction speed 6.1 X
Range quality 100.0 %
Test CRC 175AF9C4
Copy CRC 175AF9C4
Copy OK

No errors occurred


AccurateRip summary

Track 1 accurately ripped (confidence 14) [F4DA1DAB] (AR v2)
Track 2 accurately ripped (confidence 14) [72A6E71E] (AR v2)
Track 3 accurately ripped (confidence 14) [7D02DE06] (AR v2)
Track 4 accurately ripped (confidence 14) [1D3EA7B4] (AR v2)
Track 5 accurately ripped (confidence 13) [443D5926] (AR v2)

All tracks accurately ripped

End of status report

–– CUETools DB Plugin V2.1.6

[CTDB TOCID: B0mcCIrdG8lUCK4frblBmoqQN_A-] found
Submit result: B0mcCIrdG8lUCK4frblBmoqQN_A- has been confirmed
Track | CTDB Status
1 | ( 56/134) Accurately ripped
2 | ( 58/134) Accurately ripped
3 | ( 58/134) Accurately ripped
4 | ( 58/134) Accurately ripped
5 | ( 58/134) Accurately ripped


==== Log checksum 1E90DBE2B53F423C46CCA270FC4C5EAAF403A2ACB059162FD3765F5A0759259F ====

[CUETools log; Date: 28.07.2017 13:24:19; Version: 2.1.4]
Pregap length 00:00:36.
[CTDB TOCID: B0mcCIrdG8lUCK4frblBmoqQN_A-] found.
Track | CTDB Status
1 | ( 59/141) Accurately ripped
2 | ( 61/141) Accurately ripped
3 | ( 61/141) Accurately ripped
4 | ( 61/141) Accurately ripped
5 | ( 61/141) Accurately ripped
[AccurateRip ID: 00079ab6-002087fb-2b065605] found.
Track [ CRC | V2 ] Status
01 [4957e9e0|f4da1dab] (00+14/41) Accurately ripped
02 [96aac1ea|72a6e71e] (00+14/41) Accurately ripped
03 [72524dda|7d02de06] (00+14/41) Accurately ripped
04 [3ea2feb4|1d3ea7b4] (00+14/41) Accurately ripped
05 [af82e2c2|443d5926] (00+13/40) Accurately ripped

Track Peak [ CRC32 ] [W/O NULL] [ LOG ]
– 94,6 [175AF9C4] [B963C7F3] CRC32
01 94,6 [24352208] [E7E40FFE]
02 86,3 [35817D41] [5DB5BCC0]
03 94,6 [61468F7D] [5C8ACD80]
04 77,6 [EB838139] [7B5C06C7]
05 20,0 [21472017] [D1673D0F]

Kraftwerk - The Catalogue 3D (2017) [8CD Box Set] *PROPER*

Tracklist CD2 - 1975 Radio-Activity:

01 Geiger Counter
02 Radioactivity
03 Radioland
04 Airwaves
05 Intermission
06 News
07 The Voice Of Energy
08 Antenna
09 Radio Stars
10 Uranium
11 Transistor
12 Ohm Sweet Ohm

Exact Audio Copy V1.1 from 23. June 2015

EAC extraction logfile from 22. July 2017, 7:52

Kraftwerk / Radio-Activity

Used drive : PLEXTOR BD-R PX-B950SA Adapter: 1 ID: 1

Read mode : Secure
Utilize accurate stream : Yes
Defeat audio cache : Yes
Make use of C2 pointers : No

Read offset correction : 6
Overread into Lead-In and Lead-Out : No
Fill up missing offset samples with silence : Yes
Delete leading and trailing silent blocks : No
Null samples used in CRC calculations : Yes
Used interface : Native Win32 interface for Win NT & 2000

Used output format : Internal WAV Routines
Sample format : 44.100 Hz; 16 Bit; Stereo


TOC of the extracted CD

Track | Start | Length | Start sector | End sector
––––––––––––––––––––––––––––-
1 | 0:00.37 | 0:32.06 | 37 | 2442
2 | 0:32.43 | 6:16.30 | 2443 | 30672
3 | 6:48.73 | 5:55.09 | 30673 | 57306
4 | 12:44.07 | 6:01.03 | 57307 | 84384
5 | 18:45.10 | 0:25.39 | 84385 | 86298
6 | 19:10.49 | 1:15.68 | 86299 | 91991
7 | 20:26.42 | 0:52.15 | 91992 | 95906
8 | 21:18.57 | 3:36.28 | 95907 | 112134
9 | 24:55.10 | 2:18.73 | 112135 | 122557
10 | 27:14.08 | 1:26.02 | 122558 | 129009
11 | 28:40.10 | 1:14.18 | 129010 | 134577
12 | 29:54.28 | 2:58.09 | 134578 | 147936


Range status and errors

Selected range

Filename C:\Users\Meijin\Desktop\ALLexxess\Kraftwerk\2017 3-D The Catalogue (8CD Box Set Parlophone Records)\1975 Radio-Activity\Kraftwerk - Radio-Activity.wav

Peak level 94.6 %
Extraction speed 6.3 X
Range quality 100.0 %
Test CRC FCDD999A
Copy CRC FCDD999A
Copy OK

No errors occurred


AccurateRip summary

Track 1 accurately ripped (confidence 12) [F1B16C7A] (AR v2)
Track 2 accurately ripped (confidence 12) [4F3EF098] (AR v2)
Track 3 accurately ripped (confidence 12) [D343C6E6] (AR v2)
Track 4 accurately ripped (confidence 12) [683E84B3] (AR v2)
Track 5 accurately ripped (confidence 12) [4CA72A1C] (AR v2)
Track 6 accurately ripped (confidence 12) [491B2FA2] (AR v2)
Track 7 accurately ripped (confidence 12) [00F16C07] (AR v2)
Track 8 accurately ripped (confidence 12) [A9918CE9] (AR v2)
Track 9 accurately ripped (confidence 12) [5A4C9A9A] (AR v2)
Track 10 accurately ripped (confidence 12) [727027D7] (AR v2)
Track 11 accurately ripped (confidence 12) [E883DE53] (AR v2)
Track 12 accurately ripped (confidence 12) [A9316F5A] (AR v2)

All tracks accurately ripped

End of status report

–– CUETools DB Plugin V2.1.6

[CTDB TOCID: RZsV_3huvpcPBWMnHLTeTEM_4SQ-] found
Submit result: RZsV_3huvpcPBWMnHLTeTEM_4SQ- has been confirmed
Track | CTDB Status
1 | (59/59) Accurately ripped
2 | (59/59) Accurately ripped
3 | (59/59) Accurately ripped
4 | (59/59) Accurately ripped
5 | (59/59) Accurately ripped
6 | (59/59) Accurately ripped
7 | (59/59) Accurately ripped
8 | (59/59) Accurately ripped
9 | (59/59) Accurately ripped
10 | (59/59) Accurately ripped
11 | (59/59) Accurately ripped
12 | (59/59) Accurately ripped


==== Log checksum 00473A458D40782ABBD73F6C1FBC9785D046E0CC01A858C21E974399D532EFB6 ====

[CUETools log; Date: 28.07.2017 13:24:29; Version: 2.1.4]
Pregap length 00:00:37.
[CTDB TOCID: RZsV_3huvpcPBWMnHLTeTEM_4SQ-] found.
Track | CTDB Status
1 | (62/62) Accurately ripped
2 | (62/62) Accurately ripped
3 | (62/62) Accurately ripped
4 | (62/62) Accurately ripped
5 | (62/62) Accurately ripped
6 | (62/62) Accurately ripped
7 | (62/62) Accurately ripped
8 | (62/62) Accurately ripped
9 | (62/62) Accurately ripped
10 | (62/62) Accurately ripped
11 | (62/62) Accurately ripped
12 | (62/62) Accurately ripped
[AccurateRip ID: 0010b65d-00969737-9507b40c] found.
Track [ CRC | V2 ] Status
01 [bdf77e6b|f1b16c7a] (00+12/12) Accurately ripped
02 [1c08bc94|4f3ef098] (00+12/12) Accurately ripped
03 [8c46b40e|d343c6e6] (00+12/12) Accurately ripped
04 [3a4ea230|683e84b3] (00+12/12) Accurately ripped
05 [67ebed83|4ca72a1c] (00+12/12) Accurately ripped
06 [6bcc8c9a|491b2fa2] (00+12/12) Accurately ripped
07 [1285a351|00f16c07] (00+12/12) Accurately ripped
08 [06db55bd|a9918ce9] (00+12/12) Accurately ripped
09 [aa764c76|5a4c9a9a] (00+12/12) Accurately ripped
10 [a7230a69|727027d7] (00+12/12) Accurately ripped
11 [6dd3c4cc|e883de53] (00+12/12) Accurately ripped
12 [11e258bf|a9316f5a] (00+12/12) Accurately ripped

Track Peak [ CRC32 ] [W/O NULL] [ LOG ]
– 94,6 [FCDD999A] [981A2F0E] CRC32
01 76,6 [82023C9F] [17D16739]
02 94,6 [357A50F4] [6F5C5A49]
03 94,6 [812C523E] [26F2F079]
04 94,6 [50D45328] [750A06B2]
05 33,1 [57FD7059] [215BCC65]
06 65,2 [3111582E] [83FEDF65]
07 44,9 [C5DD5B67] [50C88008]
08 94,6 [E1876B6A] [50F829FA]
09 56,8 [4CEE3B1A] [13BB6285]
10 67,1 [1C5226E5] [32F93209]
11 63,6 [6CD07072] [EEE2B821]
12 94,6 [4984AFBD] [617C9818]

Kraftwerk - The Catalogue 3D (2017) [8CD Box Set] *PROPER*

Tracklist CD3 - 1977 Trans Europe Express:

01 Trans Europe Express
02 Metal On Metal
03 Abzug
04 Franz Schubert
05 Europa Endless
06 The Hall Of Mirrors
07 Showroom Dummies

Exact Audio Copy V1.1 from 23. June 2015

EAC extraction logfile from 22. July 2017, 7:16

Kraftwerk / Trans Europe Express

Used drive : PLEXTOR BD-R PX-B950SA Adapter: 1 ID: 1

Read mode : Secure
Utilize accurate stream : Yes
Defeat audio cache : Yes
Make use of C2 pointers : No

Read offset correction : 6
Overread into Lead-In and Lead-Out : No
Fill up missing offset samples with silence : Yes
Delete leading and trailing silent blocks : No
Null samples used in CRC calculations : Yes
Used interface : Native Win32 interface for Win NT & 2000

Used output format : Internal WAV Routines
Sample format : 44.100 Hz; 16 Bit; Stereo


TOC of the extracted CD

Track | Start | Length | Start sector | End sector
––––––––––––––––––––––––––––-
1 | 0:00.45 | 3:21.73 | 45 | 15192
2 | 3:22.43 | 2:08.01 | 15193 | 24793
3 | 5:30.44 | 2:25.30 | 24794 | 35698
4 | 7:55.74 | 1:12.11 | 35699 | 41109
5 | 9:08.10 | 5:52.23 | 41110 | 67532
6 | 15:00.33 | 5:22.43 | 67533 | 91725
7 | 20:23.01 | 3:47.13 | 91726 | 108763


Range status and errors

Selected range

Filename C:\Users\Meijin\Desktop\ALLexxess\Kraftwerk\2017 3-D The Catalogue (8CD Box Set Parlophone Records)\1977 Trans Europe Express\Kraftwerk - Trans Europe Express.wav

Peak level 94.6 %
Extraction speed 5.7 X
Range quality 99.9 %
Test CRC E0685D96
Copy CRC E0685D96
Copy OK

No errors occurred


AccurateRip summary

Track 1 accurately ripped (confidence 10) [D372EEBA] (AR v2)
Track 2 accurately ripped (confidence 10) [2F328B80] (AR v2)
Track 3 accurately ripped (confidence 10) [4085BC99] (AR v2)
Track 4 accurately ripped (confidence 10) [175CF1C4] (AR v2)
Track 5 accurately ripped (confidence 10) [8008D895] (AR v2)
Track 6 accurately ripped (confidence 10) [863607B5] (AR v2)
Track 7 accurately ripped (confidence 9) [2BBFB348] (AR v2)

All tracks accurately ripped

End of status report

–– CUETools DB Plugin V2.1.6

[CTDB TOCID: lg3Ht7Oj4eMxH4Q3rHnPFw2vDfw-] found
Submit result: lg3Ht7Oj4eMxH4Q3rHnPFw2vDfw- has been confirmed
Track | CTDB Status
1 | ( 59/131) Accurately ripped
2 | ( 58/131) Accurately ripped
3 | ( 59/131) Accurately ripped
4 | ( 59/131) Accurately ripped
5 | ( 59/131) Accurately ripped
6 | ( 59/131) Accurately ripped
7 | ( 59/131) Accurately ripped


==== Log checksum 24091CA223673AD7678E716294A10D6754F59EF534FDF03338AB46847CCAED0B ====

[CUETools log; Date: 28.07.2017 13:28:01; Version: 2.1.4]
Pregap length 00:00:45.
[CTDB TOCID: lg3Ht7Oj4eMxH4Q3rHnPFw2vDfw-] found.
Track | CTDB Status
1 | ( 62/138) Accurately ripped
2 | ( 61/138) Accurately ripped
3 | ( 62/138) Accurately ripped
4 | ( 62/138) Accurately ripped
5 | ( 62/138) Accurately ripped
6 | ( 62/138) Accurately ripped
7 | ( 62/138) Accurately ripped
[AccurateRip ID: 0005df60-00242bf7-4105aa07] found.
Track [ CRC | V2 ] Status
01 [049d3036|d372eeba] (00+10/29) Accurately ripped
02 [e3ace463|2f328b80] (00+10/29) Accurately ripped
03 [db1712ef|4085bc99] (00+10/29) Accurately ripped
04 [61703148|175cf1c4] (00+10/29) Accurately ripped
05 [e7df3e12|8008d895] (00+10/29) Accurately ripped
06 [21401dc2|863607b5] (00+10/29) Accurately ripped
07 [964afaba|2bbfb348] (00+09/28) Accurately ripped

Track Peak [ CRC32 ] [W/O NULL] [ LOG ]
– 94,6 [E0685D96] [C44AA6EF] CRC32
01 94,6 [E3AA2C23] [78841EE2]
02 94,6 [40F30750] [A074F98C]
03 94,6 [EDF9A75A] [C8582C61]
04 88,5 [714BA77F] [D14D9962]
05 94,6 [12043254] [4D947FA4]
06 94,6 [3AC43335] [830C9B02]
07 94,6 [07A9F1AC] [B85C78B8]

Kraftwerk - The Catalogue 3D (2017) [8CD Box Set] *PROPER*

Tracklist CD4 - 1978 The Man-Machine:

01 The Man-Machine
02 Spacelab
03 The Model
04 Neon Lights
05 The Robots
06 Metropolis

Exact Audio Copy V1.1 from 23. June 2015

EAC extraction logfile from 22. July 2017, 6:55

Kraftwerk / The Man-Machine

Used drive : PLEXTOR BD-R PX-B950SA Adapter: 1 ID: 1

Read mode : Secure
Utilize accurate stream : Yes
Defeat audio cache : Yes
Make use of C2 pointers : No

Read offset correction : 6
Overread into Lead-In and Lead-Out : No
Fill up missing offset samples with silence : Yes
Delete leading and trailing silent blocks : No
Null samples used in CRC calculations : Yes
Used interface : Native Win32 interface for Win NT & 2000

Used output format : Internal WAV Routines
Sample format : 44.100 Hz; 16 Bit; Stereo


TOC of the extracted CD

Track | Start | Length | Start sector | End sector
––––––––––––––––––––––––––––-
1 | 0:00.37 | 5:10.16 | 37 | 23302
2 | 5:10.53 | 5:28.02 | 23303 | 47904
3 | 10:38.55 | 3:39.67 | 47905 | 64396
4 | 14:18.47 | 5:45.03 | 64397 | 90274
5 | 20:03.50 | 7:44.53 | 90275 | 125127
6 | 27:48.28 | 5:46.08 | 125128 | 151085


Range status and errors

Selected range

Filename C:\Users\Meijin\Desktop\ALLexxess\Kraftwerk\2017 3-D The Catalogue (8CD Box Set Parlophone Records)\1978 The Man-Machine\Kraftwerk - The Man-Machine.wav

Peak level 94.6 %
Extraction speed 6.4 X
Range quality 100.0 %
Test CRC B114F2E5
Copy CRC B114F2E5
Copy OK

No errors occurred


AccurateRip summary

Track 1 accurately ripped (confidence 10) [21430B49] (AR v2)
Track 2 accurately ripped (confidence 10) [036181C4] (AR v2)
Track 3 accurately ripped (confidence 10) [CBE04A63] (AR v2)
Track 4 accurately ripped (confidence 10) [1D5BB71B] (AR v2)
Track 5 accurately ripped (confidence 10) [BE87F533] (AR v2)
Track 6 accurately ripped (confidence 9) [0208D104] (AR v2)

All tracks accurately ripped

End of status report

–– CUETools DB Plugin V2.1.6

[CTDB TOCID: e1UOOg1qs7DMVvTc.aWrIRDvH9U-] found
Submit result: e1UOOg1qs7DMVvTc.aWrIRDvH9U- has been confirmed
Track | CTDB Status
1 | ( 59/130) Accurately ripped
2 | ( 59/130) Accurately ripped
3 | ( 59/130) Accurately ripped
4 | ( 59/130) Accurately ripped
5 | ( 59/130) Accurately ripped
6 | ( 59/130) Accurately ripped


==== Log checksum 02C7B5301792CDB852FF6166E72B3B95D03A7C0181BCDFE14275959A8BD63933 ====

[CUETools log; Date: 28.07.2017 13:31:19; Version: 2.1.4]
Pregap length 00:00:37.
[CTDB TOCID: e1UOOg1qs7DMVvTc.aWrIRDvH9U-] found.
Track | CTDB Status
1 | ( 62/137) Accurately ripped
2 | ( 62/137) Accurately ripped
3 | ( 62/137) Accurately ripped
4 | ( 62/137) Accurately ripped
5 | ( 62/137) Accurately ripped
6 | ( 62/137) Accurately ripped
[AccurateRip ID: 0007a973-002950eb-3607de06] found.
Track [ CRC | V2 ] Status
01 [b51ead36|21430b49] (00+10/29) Accurately ripped
02 [2c7c395a|036181c4] (00+10/29) Accurately ripped
03 [8973ea52|cbe04a63] (00+10/29) Accurately ripped
04 [3005eda2|1d5bb71b] (00+10/29) Accurately ripped
05 [beb46126|be87f533] (00+10/29) Accurately ripped
06 [d24fc10f|0208d104] (00+09/28) Accurately ripped

Track Peak [ CRC32 ] [W/O NULL] [ LOG ]
– 94,6 [B114F2E5] [A0F3FCEC] CRC32
01 94,6 [B4682788] [25F42775]
02 94,6 [D6884255] [064D3DA9]
03 94,6 [20D9BC5B] [885585DA]
04 94,6 [0FED2868] [424D51FC]
05 94,6 [36DAE05F] [32881390]
06 94,6 [AD81BEB5] [4BDE6D6E]

Kraftwerk - The Catalogue 3D (2017) [8CD Box Set] *PROPER*

Tracklist CD5 - 1981 Computer World:

01 Numbers
02 Computer World
03 It's More Fun To Compute
04 Home Computer
05 Computer Love
06 Pocket Calculator
07 Dentaku

Exact Audio Copy V1.1 from 23. June 2015

EAC extraction logfile from 21. July 2017, 16:12

Kraftwerk / Computer World

Used drive : PLEXTOR BD-R PX-B950SA Adapter: 1 ID: 1

Read mode : Secure
Utilize accurate stream : Yes
Defeat audio cache : Yes
Make use of C2 pointers : No

Read offset correction : 6
Overread into Lead-In and Lead-Out : No
Fill up missing offset samples with silence : Yes
Delete leading and trailing silent blocks : No
Null samples used in CRC calculations : Yes
Used interface : Native Win32 interface for Win NT & 2000

Used output format : Internal WAV Routines
Sample format : 44.100 Hz; 16 Bit; Stereo


TOC of the extracted CD

Track | Start | Length | Start sector | End sector
––––––––––––––––––––––––––––-
1 | 0:00.37 | 2:59.19 | 37 | 13480
2 | 2:59.56 | 3:21.20 | 13481 | 28575
3 | 6:21.01 | 1:03.04 | 28576 | 33304
4 | 7:24.05 | 5:08.63 | 33305 | 56467
5 | 12:32.68 | 6:33.49 | 56468 | 85991
6 | 19:06.42 | 3:26.60 | 85992 | 101501
7 | 22:33.27 | 3:08.35 | 101502 | 115636


Range status and errors

Selected range

Filename C:\Users\Meijin\Desktop\ALLexxess\Kraftwerk\2017 3-D The Catalogue (8CD Box Set Parlophone Records)\1981 Computer World\Kraftwerk - Computer World.wav

Peak level 94.6 %
Extraction speed 5.8 X
Range quality 99.9 %
Test CRC FFBE9C44
Copy CRC FFBE9C44
Copy OK

No errors occurred


AccurateRip summary

Track 1 accurately ripped (confidence 12) [B8C865B9] (AR v2)
Track 2 accurately ripped (confidence 12) [44C25B38] (AR v2)
Track 3 accurately ripped (confidence 12) [15B4EFD3] (AR v2)
Track 4 accurately ripped (confidence 12) [351CBEFB] (AR v2)
Track 5 accurately ripped (confidence 12) [1FAB3821] (AR v2)
Track 6 accurately ripped (confidence 12) [07B665A4] (AR v2)
Track 7 accurately ripped (confidence 12) [DE7DDE08] (AR v2)

All tracks accurately ripped

End of status report

–– CUETools DB Plugin V2.1.6

[CTDB TOCID: RrU81FPc6ftpuGc3dJRJehjIdGs-] found
Submit result: RrU81FPc6ftpuGc3dJRJehjIdGs- has been confirmed
Track | CTDB Status
1 | (56/56) Accurately ripped
2 | (56/56) Accurately ripped
3 | (56/56) Accurately ripped
4 | (55/56) Accurately ripped
5 | (56/56) Accurately ripped
6 | (56/56) Accurately ripped
7 | (56/56) Accurately ripped


==== Log checksum 4EBAE60077050681F62C012E36BDD962BB8174E783CF10049C9A8F2DE8C4A9A6 ====

[CUETools log; Date: 28.07.2017 13:33:21; Version: 2.1.4]
Pregap length 00:00:37.
[CTDB TOCID: RrU81FPc6ftpuGc3dJRJehjIdGs-] found.
Track | CTDB Status
1 | (60/60) Accurately ripped
2 | (60/60) Accurately ripped
3 | (60/60) Accurately ripped
4 | (59/60) Accurately ripped
5 | (60/60) Accurately ripped
6 | (60/60) Accurately ripped
7 | (60/60) Accurately ripped
[AccurateRip ID: 0006a336-0028e429-54060507] found.
Track [ CRC | V2 ] Status
01 [3c1ab9bd|b8c865b9] (00+12/12) Accurately ripped
02 [a1784584|44c25b38] (00+12/12) Accurately ripped
03 [2e67d071|15b4efd3] (00+12/12) Accurately ripped
04 [a287e406|351cbefb] (00+12/12) Accurately ripped
05 [7270e0ea|1fab3821] (00+12/12) Accurately ripped
06 [8b4c61ba|07b665a4] (00+12/12) Accurately ripped
07 [60890699|de7dde08] (00+12/12) Accurately ripped

Track Peak [ CRC32 ] [W/O NULL] [ LOG ]
– 94,6 [FFBE9C44] [75A54022] CRC32
01 94,6 [C027BB17] [E4212FC9]
02 94,6 [2C269A6C] [C86C9354]
03 94,6 [F874263D] [0478EC40]
04 94,6 [F8A5B45D] [99FCF153]
05 94,6 [F492ACF2] [EFD17BB6]
06 94,6 [ED073A8C] [303FB88A]
07 94,6 [2B23B774] [DBED33F3]

Kraftwerk - The Catalogue 3D (2017) [8CD Box Set] *PROPER*

Tracklist CD6 - 1986 Techno Pop:

01 Electric Cafe
02 The Telephone Call
03 House Phone
04 Sex Object
05 Boing Boom Tschak
06 Techno Pop
07 Music Non Stop

Exact Audio Copy V1.1 from 23. June 2015

EAC extraction logfile from 21. July 2017, 15:37

Kraftwerk / Techno Pop

Used drive : PLEXTOR BD-R PX-B950SA Adapter: 1 ID: 1

Read mode : Secure
Utilize accurate stream : Yes
Defeat audio cache : Yes
Make use of C2 pointers : No

Read offset correction : 6
Overread into Lead-In and Lead-Out : No
Fill up missing offset samples with silence : Yes
Delete leading and trailing silent blocks : No
Null samples used in CRC calculations : Yes
Used interface : Native Win32 interface for Win NT & 2000

Used output format : Internal WAV Routines
Sample format : 44.100 Hz; 16 Bit; Stereo


TOC of the extracted CD

Track | Start | Length | Start sector | End sector
––––––––––––––––––––––––––––-
1 | 0:00.36 | 3:51.06 | 36 | 17366
2 | 3:51.42 | 2:45.10 | 17367 | 29751
3 | 6:36.52 | 2:30.02 | 29752 | 41003
4 | 9:06.54 | 5:30.72 | 41004 | 65825
5 | 14:37.51 | 2:32.73 | 65826 | 77298
6 | 17:10.49 | 2:45.64 | 77299 | 89737
7 | 19:56.38 | 7:44.59 | 89738 | 124596


Range status and errors

Selected range

Filename C:\Users\Meijin\Desktop\ALLexxess\Kraftwerk\2017 3-D The Catalogue (8CD Box Set Parlophone Records)\1986 Techno Pop\Kraftwerk - Techno Pop.wav

Peak level 94.6 %
Extraction speed 5.9 X
Range quality 99.9 %
Test CRC 2460999A
Copy CRC 2460999A
Copy OK

No errors occurred


AccurateRip summary

Track 1 accurately ripped (confidence 12) [91BB882C] (AR v2)
Track 2 accurately ripped (confidence 12) [D5D408F5] (AR v2)
Track 3 accurately ripped (confidence 12) [507F6159] (AR v2)
Track 4 accurately ripped (confidence 12) [A354BA33] (AR v2)
Track 5 accurately ripped (confidence 12) [77987D00] (AR v2)
Track 6 accurately ripped (confidence 12) [265D7C54] (AR v2)
Track 7 accurately ripped (confidence 12) [EFAC6048] (AR v2)

All tracks accurately ripped

End of status report

–– CUETools DB Plugin V2.1.6

[CTDB TOCID: GiuL8keW5v6ZtU6YDRiy12jW4fQ-] found
Submit result: GiuL8keW5v6ZtU6YDRiy12jW4fQ- has been confirmed
Track | CTDB Status
1 | (57/57) Accurately ripped
2 | (57/57) Accurately ripped
3 | (57/57) Accurately ripped
4 | (57/57) Accurately ripped
5 | (57/57) Accurately ripped
6 | (57/57) Accurately ripped
7 | (57/57) Accurately ripped


==== Log checksum 7FB78148E2A605314318F812E4EF686723F792E9090BC9C024B083505848A838 ====

[CUETools log; Date: 28.07.2017 13:34:33; Version: 2.1.4]
Pregap length 00:00:36.
[CTDB TOCID: GiuL8keW5v6ZtU6YDRiy12jW4fQ-] found.
Track | CTDB Status
1 | (61/61) Accurately ripped
2 | (61/61) Accurately ripped
3 | (61/61) Accurately ripped
4 | (61/61) Accurately ripped
5 | (61/61) Accurately ripped
6 | (61/61) Accurately ripped
7 | (61/61) Accurately ripped
[AccurateRip ID: 0006ccb3-002949f4-60067d07] found.
Track [ CRC | V2 ] Status
01 [83e6e699|91bb882c] (00+12/12) Accurately ripped
02 [06ef1b8e|d5d408f5] (00+12/12) Accurately ripped
03 [9bf41ce4|507f6159] (00+12/12) Accurately ripped
04 [74d84ace|a354ba33] (00+12/12) Accurately ripped
05 [00a86f3b|77987d00] (00+12/12) Accurately ripped
06 [d3cffed0|265d7c54] (00+12/12) Accurately ripped
07 [642a9fd1|efac6048] (00+12/12) Accurately ripped

Track Peak [ CRC32 ] [W/O NULL] [ LOG ]
– 94,6 [2460999A] [40D0A21C] CRC32
01 94,6 [4A263C36] [02883881]
02 94,6 [0C709C81] [4D25156E]
03 94,6 [5A1F6A22] [6093011D]
04 94,6 [B55B6C60] [9409FBB9]
05 94,6 [B9B07D74] [B10DB052]
06 94,6 [3AB73CC1] [8742AF84]
07 94,6 [B5520EF4] [965004C3]

Kraftwerk - The Catalogue 3D (2017) [8CD Box Set] *PROPER*

Tracklist CD7 - 1991 The Mix:

01 The Robots
02 Computer Love
03 Pocket Calculator
04 Dentaku
05 Autobahn
06 Geiger Counter
07 Radioactivity
08 Trans Europe Express
09 Metal On Metal
10 Abzug
11 Home Computer
12 Boing Boom Tschak
13 Techno Pop
14 Music Non Stop
15 Planet Of Visions

Exact Audio Copy V1.1 from 23. June 2015

EAC extraction logfile from 21. July 2017, 15:10

Kraftwerk / The Mix

Used drive : PLEXTOR BD-R PX-B950SA Adapter: 1 ID: 1

Read mode : Secure
Utilize accurate stream : Yes
Defeat audio cache : Yes
Make use of C2 pointers : No

Read offset correction : 6
Overread into Lead-In and Lead-Out : No
Fill up missing offset samples with silence : Yes
Delete leading and trailing silent blocks : No
Null samples used in CRC calculations : Yes
Used interface : Native Win32 interface for Win NT & 2000

Used output format : Internal WAV Routines
Sample format : 44.100 Hz; 16 Bit; Stereo


TOC of the extracted CD

Track | Start | Length | Start sector | End sector
––––––––––––––––––––––––––––-
1 | 0:00.37 | 7:44.61 | 37 | 34897
2 | 7:45.23 | 6:34.27 | 34898 | 64474
3 | 14:19.50 | 3:26.59 | 64475 | 79983
4 | 17:46.34 | 3:09.17 | 79984 | 94175
5 | 20:55.51 | 14:27.51 | 94176 | 159251
6 | 35:23.27 | 0:31.26 | 159252 | 161602
7 | 35:54.53 | 6:16.53 | 161603 | 189855
8 | 42:11.31 | 3:21.33 | 189856 | 204963
9 | 45:32.64 | 2:08.00 | 204964 | 214563
10 | 47:40.64 | 2:24.67 | 214564 | 225430
11 | 50:05.56 | 6:11.74 | 225431 | 253329
12 | 56:17.55 | 2:33.13 | 253330 | 264817
13 | 58:50.68 | 2:46.11 | 264818 | 277278
14 | 61:37.04 | 7:45.58 | 277279 | 312211
15 | 69:22.62 | 7:52.29 | 312212 | 347640


Range status and errors

Selected range

Filename C:\Users\Meijin\Desktop\ALLexxess\Kraftwerk\2017 3-D The Catalogue (8CD Box Set Parlophone Records)\1991 The Mix\Kraftwerk - The Mix.wav

Peak level 94.6 %
Extraction speed 8.3 X
Range quality 100.0 %
Test CRC 0A0BD04D
Copy CRC 0A0BD04D
Copy OK

No errors occurred


AccurateRip summary

Track 1 accurately ripped (confidence 9) [27F0D8E8] (AR v2)
Track 2 accurately ripped (confidence 9) [4821B2BB] (AR v2)
Track 3 accurately ripped (confidence 9) [D16E1448] (AR v2)
Track 4 accurately ripped (confidence 9) [C5813AEC] (AR v2)
Track 5 accurately ripped (confidence 9) [685CDB8C] (AR v2)
Track 6 accurately ripped (confidence 9) [BB5B8340] (AR v2)
Track 7 accurately ripped (confidence 9) [CB667961] (AR v2)
Track 8 accurately ripped (confidence 9) [C1EB99C1] (AR v2)
Track 9 accurately ripped (confidence 9) [A0677B71] (AR v2)
Track 10 accurately ripped (confidence 9) [7753EA31] (AR v2)
Track 11 accurately ripped (confidence 9) [A5425664] (AR v2)
Track 12 accurately ripped (confidence 9) [184A0443] (AR v2)
Track 13 accurately ripped (confidence 9) [018E0DD9] (AR v2)
Track 14 accurately ripped (confidence 9) [6490B9F8] (AR v2)
Track 15 accurately ripped (confidence 9) [9E314FCF] (AR v2)

All tracks accurately ripped

End of status report

–– CUETools DB Plugin V2.1.6

[CTDB TOCID: mZ0QnLGy79eg5kHjULev16sNRJw-] found
Submit result: mZ0QnLGy79eg5kHjULev16sNRJw- has been confirmed
Track | CTDB Status
1 | ( 56/126) Accurately ripped
2 | ( 56/126) Accurately ripped
3 | ( 56/126) Accurately ripped
4 | ( 56/126) Accurately ripped
5 | ( 56/126) Accurately ripped
6 | ( 56/126) Accurately ripped
7 | ( 56/126) Accurately ripped
8 | ( 55/126) Accurately ripped
9 | ( 56/126) Accurately ripped
10 | ( 56/126) Accurately ripped
11 | ( 56/126) Accurately ripped
12 | ( 56/126) Accurately ripped
13 | ( 56/126) Accurately ripped
14 | ( 56/126) Accurately ripped
15 | ( 56/126) Accurately ripped


==== Log checksum DFB55D2235F841E8235EED9DFF56A98A3562760E3A7AEACCA16E4664D11AB43F ====

[CUETools log; Date: 28.07.2017 13:36:18; Version: 2.1.4]
Pregap length 00:00:37.
[CTDB TOCID: mZ0QnLGy79eg5kHjULev16sNRJw-] found.
Track | CTDB Status
1 | ( 60/134) Accurately ripped
2 | ( 60/134) Accurately ripped
3 | ( 60/134) Accurately ripped
4 | ( 60/134) Accurately ripped
5 | ( 60/134) Accurately ripped
6 | ( 60/134) Accurately ripped
7 | ( 60/134) Accurately ripped
8 | ( 59/134) Accurately ripped
9 | ( 60/134) Accurately ripped
10 | ( 60/134) Accurately ripped
11 | ( 60/134) Accurately ripped
12 | ( 60/134) Accurately ripped
13 | ( 60/134) Accurately ripped
14 | ( 60/134) Accurately ripped
15 | ( 60/134) Accurately ripped
[AccurateRip ID: 002c03a8-01e44f00-de121b0f] found.
Track [ CRC | V2 ] Status
01 [ae6f57a2|27f0d8e8] (00+09/27) Accurately ripped
02 [5f728f1a|4821b2bb] (00+09/27) Accurately ripped
03 [fe7238fd|d16e1448] (00+09/27) Accurately ripped
04 [607a3a62|c5813aec] (00+09/27) Accurately ripped
05 [df5b1b49|685cdb8c] (00+09/27) Accurately ripped
06 [4f28f3cb|bb5b8340] (00+09/27) Accurately ripped
07 [ba235714|cb667961] (00+09/27) Accurately ripped
08 [aa930feb|c1eb99c1] (00+09/27) Accurately ripped
09 [8366f604|a0677b71] (00+09/27) Accurately ripped
10 [78479621|7753ea31] (00+09/27) Accurately ripped
11 [d025f996|a5425664] (00+09/27) Accurately ripped
12 [3406ac22|184a0443] (00+09/27) Accurately ripped
13 [8bf38672|018e0dd9] (00+09/27) Accurately ripped
14 [22805ef9|6490b9f8] (00+09/27) Accurately ripped
15 [6111f44f|9e314fcf] (00+09/27) Accurately ripped

Track Peak [ CRC32 ] [W/O NULL] [ LOG ]
– 94,6 [0A0BD04D] [3EAB55FD] CRC32
01 94,6 [E30E6466] [CD05D845]
02 94,6 [7EAF19CF] [457AB5FD]
03 94,6 [52CDC752] [BD445668]
04 94,6 [FDC6AA52] [D4C9FBBC]
05 94,6 [1BCE68DE] [609B347D]
06 45,2 [D6256C03] [F5368819]
07 94,6 [BF577435] [BFB6DD82]
08 94,6 [38EE0E17] [8E22893A]
09 94,6 [FAD61EF7] [69B80EBF]
10 94,6 [31308630] [174AE6BB]
11 94,6 [DA0906E7] [A6EE6590]
12 94,6 [D0342A59] [850D31B3]
13 94,6 [3D0670B3] [AAC538A4]
14 94,6 [403ED8B4] [F3818A83]
15 94,6 [B28C0C55] [587BDE61]

Kraftwerk - The Catalogue 3D (2017) [8CD Box Set] *PROPER*

Tracklist CD8 - 2003 Tour De France:

01 Tour De France
02 Prologue
03 Etape 1
04 Chrono
05 Etape 2
06 Vitamin
07 Aero Dynamik
08 Elektro Kardiogramm
09 La Forme
10 Regeneration

Exact Audio Copy V1.1 from 23. June 2015

EAC extraction logfile from 21. July 2017, 6:30

Kraftwerk / Tour De France

Used drive : PLEXTOR BD-R PX-B950SA Adapter: 1 ID: 1

Read mode : Secure
Utilize accurate stream : Yes
Defeat audio cache : Yes
Make use of C2 pointers : No

Read offset correction : 6
Overread into Lead-In and Lead-Out : No
Fill up missing offset samples with silence : Yes
Delete leading and trailing silent blocks : No
Null samples used in CRC calculations : Yes
Used interface : Native Win32 interface for Win NT & 2000

Used output format : Internal WAV Routines
Sample format : 44.100 Hz; 16 Bit; Stereo


TOC of the extracted CD

Track | Start | Length | Start sector | End sector
––––––––––––––––––––––––––––-
1 | 0:00.37 | 4:18.33 | 37 | 19419
2 | 4:18.70 | 0:27.33 | 19420 | 21477
3 | 4:46.28 | 3:46.22 | 21478 | 38449
4 | 8:32.50 | 1:11.73 | 38450 | 43847
5 | 9:44.48 | 5:00.25 | 43848 | 66372
6 | 14:44.73 | 5:55.02 | 66373 | 92999
7 | 20:40.00 | 6:00.66 | 93000 | 120065
8 | 26:40.66 | 4:37.58 | 120066 | 140898
9 | 31:18.49 | 6:19.26 | 140899 | 169349
10 | 37:38.00 | 0:28.47 | 169350 | 171496


Range status and errors

Selected range

Filename C:\Users\Meijin\Desktop\ALLexxess\Kraftwerk\2017 3-D The Catalogue (8CD Box Set Parlophone Records)\2003 Tour De France\Kraftwerk - Tour De France.wav

Peak level 94.6 %
Extraction speed 6.6 X
Range quality 100.0 %
Test CRC 5948AA78
Copy CRC 5948AA78
Copy OK

No errors occurred


AccurateRip summary

Track 1 accurately ripped (confidence 10) [445EC482] (AR v2)
Track 2 accurately ripped (confidence 10) [DE3C6538] (AR v2)
Track 3 accurately ripped (confidence 10) [C53436D0] (AR v2)
Track 4 accurately ripped (confidence 10) [EF36CFF0] (AR v2)
Track 5 accurately ripped (confidence 10) [B3F1EB83] (AR v2)
Track 6 accurately ripped (confidence 10) [D82FDCBA] (AR v2)
Track 7 accurately ripped (confidence 10) [F7252050] (AR v2)
Track 8 accurately ripped (confidence 10) [436643B7] (AR v2)
Track 9 accurately ripped (confidence 10) [42369216] (AR v2)
Track 10 accurately ripped (confidence 9) [C5FCF7D7] (AR v2)

All tracks accurately ripped

End of status report

–– CUETools DB Plugin V2.1.6

[CTDB TOCID: jAIlspaiXO30P5o_2kcnOOAocdw-] found
Submit result: jAIlspaiXO30P5o_2kcnOOAocdw- has been confirmed
Track | CTDB Status
1 | ( 56/126) Accurately ripped
2 | ( 56/126) Accurately ripped
3 | ( 56/126) Accurately ripped
4 | ( 56/126) Accurately ripped
5 | ( 56/126) Accurately ripped
6 | ( 56/126) Accurately ripped
7 | ( 56/126) Accurately ripped
8 | ( 56/126) Accurately ripped
9 | ( 56/126) Accurately ripped
10 | ( 56/126) Accurately ripped


==== Log checksum 000822C56A67423B0A3EA8DA5C03FEE558C1868D6C682F2A7D3C8722DE644834 ====

[CUETools log; Date: 28.07.2017 13:39:58; Version: 2.1.4]
Pregap length 00:00:37.
[CTDB TOCID: jAIlspaiXO30P5o_2kcnOOAocdw-] found.
Track | CTDB Status
1 | ( 60/134) Accurately ripped
2 | ( 60/134) Accurately ripped
3 | ( 60/134) Accurately ripped
4 | ( 60/134) Accurately ripped
5 | ( 60/134) Accurately ripped
6 | ( 60/134) Accurately ripped
7 | ( 60/134) Accurately ripped
8 | ( 60/134) Accurately ripped
9 | ( 60/134) Accurately ripped
10 | ( 60/134) Accurately ripped
[AccurateRip ID: 000d7ec2-006fe91f-7c08ee0a] found.
Track [ CRC | V2 ] Status
01 [a5322d78|445ec482] (00+10/29) Accurately ripped
02 [88657716|de3c6538] (00+10/29) Accurately ripped
03 [544835d6|c53436d0] (00+10/29) Accurately ripped
04 [69535ffe|ef36cff0] (00+10/29) Accurately ripped
05 [e8568c99|b3f1eb83] (00+10/29) Accurately ripped
06 [cb7d71b2|d82fdcba] (00+10/29) Accurately ripped
07 [56f3faaa|f7252050] (00+10/29) Accurately ripped
08 [8c544099|436643b7] (00+10/29) Accurately ripped
09 [22858ac6|42369216] (00+10/29) Accurately ripped
10 [bdd442c7|c5fcf7d7] (00+09/28) Accurately ripped

Track Peak [ CRC32 ] [W/O NULL] [ LOG ]
– 94,6 [5948AA78] [65A0408F] CRC32
01 94,6 [B62D27F0] [FB3CFB21]
02 94,6 [4F0561B2] [850B6BD7]
03 94,6 [1DA3279C] [0A1F8716]
04 94,6 [4C9AE5D2] [9D05F81C]
05 94,6 [E48D265D] [CC2E4F8E]
06 94,6 [CCC1B3F3] [4B661ABB]
07 94,6 [E0EF0B82] [305376EC]
08 94,6 [19E0901E] [BDDE0F5B]
09 94,6 [58C7F309] [43449B98]
10 79,0 [C621998F] [42B9FFDD]

Kraftwerk - The Catalogue 3D (2017) [8CD Box Set] *PROPER*

All thanks go to ALLexxess

Kraftwerk in my Blog

Download Kraftwerk - The Catalogue 3D (2017) [8CD Box Set]: