Subcategories

Kronos Quartet - Music by Sculthorpe, Sallinem, Glass, Nancarrow, Hendrix (1986) Reissue 2011

Posted By: Designol
Kronos Quartet - Music by Sculthorpe, Sallinem, Glass, Nancarrow, Hendrix (1986) Reissue 2011

Kronos Quartet - Music by Sculthorpe, Sallinem, Glass, Nancarrow, Hendrix (1986) Reissue 2011
EAC | WV | Image (Cue&Log) ~ 252 Mb (incl 5%) | Mp3 (CBR320) ~ 177 Mb (incl 5%) | Scans included
Genre: Chamber Music, Minimalism, Avant-Garde | Label: Nonesuch | # 7559-79111-2 | Time: 00:49:11

To say this barrier-breaking string quartet plays modern music is an understatement. All of the five composers showcased on this audacious recording were born in the 20th century. Minimalist Philip Glass is among the best known of the five, whose works cannot possibly be mistaken with anything from the baroque or classical periods. This particular foursome illustrates the grace, beauty, and even power of a string quartet, but goes well beyond. In the words of first violinist and leader David Harrington, "I've always wanted the string quartet to be vital, and energetic, and alive, and cool, and not afraid to kick ass and be absolutely beautiful and ugly if it has to be." The album-ending cover of the Jimi Hendrix classic "Purple Haze" must be heard to be believed.

Review by Mark Allan, Allmusic.com

Kronos Quartet at Allmusic
Kronos Quartet Website
Kronos Quartet at Wiki

David Harrington - violin
John Sherba - violin
Hank Dutt - viola
Joan Jeanrenaud - cello

Tracklist:

Peter Sculthorpe (1929–2014)
01. String Quartet No. 8 - Con Dolore (02:05)
02. String Quartet No. 8 - Risoluto (03:48)
03. String Quartet No. 8 - Con Dolore (03:02)
04. String Quartet No. 8 - Con Precisione (01:49)
05. String Quartet No. 8 - Con Dolore (02:08)

Aulis Sallinem (born April 9, 1935)
06. String Quartet No. 3 (14:16)

Philip Morris Glass (born January 31, 1937)
07. Company I. ♩= 96 (02:22)
08. Company II. ♩= 160 (01:36)
09. Company III. ♩= 90 (01:46)
10. Company IV. ♩= 160 (02:13)

Conlon Nancarrow (1912–1997)
11. String Quartet - Allegro Molto (02:19)
12. String Quartet - Andante Moderato (03:30)
13. String Quartet - Prestissimo (05:17)

Jimi Hendrix (1942-1970)
14. Purple Haze (02:53)


Exact Audio Copy V1.0 beta 3 from 29. August 2011

EAC extraction logfile from 15. April 2013, 17:28

Kronos Quartet / music by Sculthorpe / Sallinem / Glass / Nancarrow / Hendrix

Used drive : ATAPI iHAS324 A Adapter: 0 ID: 1

Read mode : Secure
Utilize accurate stream : Yes
Defeat audio cache : Yes
Make use of C2 pointers : No

Read offset correction : 6
Overread into Lead-In and Lead-Out : No
Fill up missing offset samples with silence : Yes
Delete leading and trailing silent blocks : No
Null samples used in CRC calculations : Yes
Used interface : Native Win32 interface for Win NT & 2000

Used output format : Internal WAV Routines
Sample format : 44.100 Hz; 16 Bit; Stereo


TOC of the extracted CD

Track | Start | Length | Start sector | End sector
––––––––––––––––––––––––––––-
1 | 0:00.00 | 2:05.62 | 0 | 9436
2 | 2:05.62 | 3:48.33 | 9437 | 26569
3 | 5:54.20 | 3:02.70 | 26570 | 40289
4 | 8:57.15 | 1:49.27 | 40290 | 48491
5 | 10:46.42 | 2:08.03 | 48492 | 58094
6 | 12:54.45 | 14:16.15 | 58095 | 122309
7 | 27:10.60 | 2:22.17 | 122310 | 132976
8 | 29:33.02 | 1:36.58 | 132977 | 140234
9 | 31:09.60 | 1:46.57 | 140235 | 148241
10 | 32:56.42 | 2:13.35 | 148242 | 158251
11 | 35:10.02 | 2:19.08 | 158252 | 168684
12 | 37:29.10 | 3:30.55 | 168685 | 184489
13 | 40:59.65 | 5:17.40 | 184490 | 208304
14 | 46:17.30 | 2:53.12 | 208305 | 221291


Range status and errors

Selected range

Filename D:\rips\Kronos Quartet - music by Sculthorpe , Sallinem , Glass , Nancarrow , Hendrix.wav

Peak level 97.7 %
Extraction speed 3.0 X
Range quality 100.0 %
Test CRC 564E1691
Copy CRC 564E1691
Copy OK

No errors occurred


AccurateRip summary

Track 1 cannot be verified as accurate (confidence 8) [8576745D], AccurateRip returned [5D3AFB31] (AR v2)
Track 2 cannot be verified as accurate (confidence 8) [D6BF2D32], AccurateRip returned [726C0E60] (AR v2)
Track 3 cannot be verified as accurate (confidence 8) [0D411F2A], AccurateRip returned [04A5489C] (AR v2)
Track 4 cannot be verified as accurate (confidence 8) [1780FFF6], AccurateRip returned [F741615D] (AR v2)
Track 5 cannot be verified as accurate (confidence 8) [0C568A58], AccurateRip returned [40E5FC3D] (AR v2)
Track 6 cannot be verified as accurate (confidence 8) [3363D47A], AccurateRip returned [9B04CEEA] (AR v2)
Track 7 cannot be verified as accurate (confidence 8) [4D4439B2], AccurateRip returned [708966CD] (AR v2)
Track 8 cannot be verified as accurate (confidence 8) [B67AB9F6], AccurateRip returned [018F1595] (AR v2)
Track 9 cannot be verified as accurate (confidence 8) [6B1B2EC5], AccurateRip returned [13325381] (AR v2)
Track 10 cannot be verified as accurate (confidence 8) [1C018115], AccurateRip returned [F7C5E37D] (AR v2)
Track 11 cannot be verified as accurate (confidence 8) [CBC9C4F0], AccurateRip returned [531CE66D] (AR v2)
Track 12 cannot be verified as accurate (confidence 8) [57F0ECA2], AccurateRip returned [3047E4DD] (AR v2)
Track 13 cannot be verified as accurate (confidence 8) [92B304FB], AccurateRip returned [BC3B7A6A] (AR v2)
Track 14 cannot be verified as accurate (confidence 8) [63581789], AccurateRip returned [98F4ECE8] (AR v2)

No tracks could be verified as accurate
You may have a different pressing from the one(s) in the database

End of status report

–– CUETools DB Plugin V2.1.3

[CTDB TOCID: 38ksOGC6nERwflIGuW5AEUpSfb8-] found, Submit result: 38ksOGC6nERwflIGuW5AEUpSfb8- has been confirmed
[04fb4fa7] (1/5) No match
[9dd4231b] (4/5) Accurately ripped


==== Log checksum 984849616881E0A7786D9636A240A822724AD327076ADA25B518A0F3FEDF00B4 ====

foobar2000 1.2 / Dynamic Range Meter 1.1.1
log date: 2015-08-19 17:02:28

––––––––––––––––––––––––––––––––––––––––
Analyzed: Aulis Sallinem / music by Sculthorpe / Sallinem / Glass / Nancarrow / Hendrix (1)
Conlon Nancarrow / music by Sculthorpe / Sallinem / Glass / Nancarrow / Hendrix (2-4)
Jimi Hendrix / music by Sculthorpe / Sallinem / Glass / Nancarrow / Hendrix (5)
––––––––––––––––––––––––––––––––––––––––

DR Peak RMS Duration Track
––––––––––––––––––––––––––––––––––––––––
DR15 -4.41 dB -26.85 dB 14:16 06-String Quartet No. 3
DR13 -6.10 dB -24.71 dB 2:19 11-String Quartet - Allegro Molto
DR14 -12.71 dB -32.19 dB 3:31 12-String Quartet - Andante Moderato
DR13 -6.09 dB -23.62 dB 5:18 13-String Quartet - Prestissimo
DR12 -5.58 dB -20.01 dB 2:53 14-Purple Haze
––––––––––––––––––––––––––––––––––––––––

Number of tracks: 5
Official DR value: DR14

Samplerate: 44100 Hz
Channels: 2
Bits per sample: 16
Bitrate: 524 kbps
Codec: WavPack
================================================================================

––––––––––––––––––––––––––––––––––––––––
Analyzed: Peter Sculthorpe / music by Sculthorpe / Sallinem / Glass / Nancarrow / Hendrix (1-5)
Philip Glass / music by Sculthorpe / Sallinem / Glass / Nancarrow / Hendrix (6-9)
––––––––––––––––––––––––––––––––––––––––

DR Peak RMS Duration Track
––––––––––––––––––––––––––––––––––––––––
DR16 -5.97 dB -28.32 dB 2:06 01-String Quartet No. 8 - Con Dolore
DR18 -0.20 dB -25.53 dB 3:48 02-String Quartet No. 8 - Risoluto
DR13 -10.80 dB -30.14 dB 3:03 03-String Quartet No. 8 - Con Dolore
DR18 -0.20 dB -23.84 dB 1:49 04-String Quartet No. 8 - Con Precisione
DR15 -6.10 dB -28.05 dB 2:08 05-String Quartet No. 8 - Con Dolore
DR11 -15.34 dB -29.92 dB 2:22 07-Company I.
DR12 -3.04 dB -22.64 dB 1:37 08-Company II.
DR13 -2.90 dB -23.85 dB 1:47 09-Company III.
DR13 -10.50 dB -30.94 dB 2:13 10-Company IV.
––––––––––––––––––––––––––––––––––––––––

Number of tracks: 9
Official DR value: DR14

Samplerate: 44100 Hz
Channels: 2
Bits per sample: 16
Bitrate: 524 kbps
Codec: WavPack
================================================================================

Kronos Quartet - Music by Sculthorpe, Sallinem, Glass, Nancarrow, Hendrix (1986) Reissue 2011

Kronos Quartet - Music by Sculthorpe, Sallinem, Glass, Nancarrow, Hendrix (1986) Reissue 2011

All thanks to original releaser - transgressions




Philip Glass - Kundun: Music From The Original Soundtrack (1997)

Philip Glass - The Thin Blue Line (1989)

Philip Glass - Visitors: Original Film Soundtrack (2013)

Philip Glass - UAKTI - Aguas da Amazonia (1999)


Philip Glass - Music from 'The Hours' (2004) Performed by Michael Riesman

Philip Glass - Les Enfants Terribles (Children Of The Game) (2005) 2CD

Philip Glass - Dances & Sonata; performed by Steffen Schleiermacher (2006)

Philip Glass - The Concerto Project Vol. I: Concerto for Cello and Orchestra & Concerto Fantasy for Two Timpanists and Orchestra (2004)
Julian Lloyd Webber; Evelyn Glennie; Jonathan Haas; The Royal Liverpool Philharmonic Orchestra, conducted by Gerard Schwarz


Philip Glass - The Concerto Project Vol. II: Piano Concerto No. 2 & Concerto for Harpsichord and Orchestra (2006)
Northwest Chamber Orchestra, Ralf Gothóni, conductor; Paul Barnes; R. Carlos Nakai; Jillon Stoppels Dupree


Philip Glass - The Concerto Project Vol. III: Concerto Grosso & Concerto for Saxophone Quartet (2008)
Beethoven Orchester Bonn, Dennis Russell Davies, conductor; Raschèr Saxophone Quartet


Philip Glass - How Now; performed by Steffen Schleiermacher (2010)

Philip Glass - Violin Concerto No.2 'The American Four Seasons' (2010)
London Philharmonic Orchestra, conducted by Marin Alsop; Robert McDuffie, violin


Philip Glass - The Concerto Project Vol. IV (2011) Double Concerto for Violin, Cello and Orchestra & Tirol Concerto for Piano and Orchestra

Philip Glass - From The Philip Glass Recording Archive Volume VI: The Music of Philip Glass and Foday Musa Suso (2011)

Philip Glass - In The Penal Colony (2011) Music Theatre Wales, conducted by Michael Rafferty

Philip Glass - Symphony No.9 (Perfomed Bruckner Orchester Linz, conducted by Dennis Russell Davies) (2012)

Philip Glass - The Passion of Ramakrishna (2012)
Pacific Symphony, conducted by Carl St.Clair; Pacific Chorale, directed by John Alexander



Philip Glass - Voices for Didgeridoo and Organ, Organ Suite (Perfomed Mark Atkins & Michael Riesman) (2013)

Philip Glass - Cello Concerto No.2 'Naqoyqatsi' (2013)
Cincinnati Symphony Orchestra - Dennis Russell Davies - Matt Haimovitz, cello


Philip Glass - Symphony No.3 & Suite from 'The Hours' for Piano and Orchestra (2013)


Philip Glass, John Rutter, Jean Françaix - Harpsichord Concertos (2013)
Christopher D. Lewis, harpsichord; John McMurtery, flute; West Side Chamber Orchestra, conducted by Kevin Mallon



Philip Glass - Symphony No.1 "Low" (from the music of David Bowie and Brian Eno) (2014)
by Sinfonieorchester Basel, conducted by Dennis Russell Davies


Philip Glass - Symphony No.4 "Heroes" (from the music of David Bowie and Brian Eno) (2014)
by Sinfonieorchester Basel, conducted by Dennis Russell Davies



VA - Glass Cuts [Philip Glass: Remixed] (2005)


Aleck Karis - Piano Music of Philip Glass (2000)


Paul Barnes - The American Virtuoso: Philip Glass, Samuel Barber, Joan Tower (2007)


Sally Whitwell - Mad Rush: Piano Music of Philip Glass (2011)


Bruce Brubaker - Glass Cage: Music for piano by Philip Glass and John Cage (2000)

Bruce Brubaker - Time Curve: Music for Piano by Philip Glass and William Duckworth (2009)

Valentina Lisitsa plays Philip Glass: The Hours - Metamorphosis - Mad Rush (2015) 2CD

Tim Fain plays Philip Glass: Partita for Solo Violin (2015)


Kronos Quartet, Kimmo Pohjonen, Samuli Kosminen - UNIKO (2011)