Subcategories

Kyuss - 3 For One Original Albums CD Box Set (2000) REPOSTS

Posted By: uff
Kyuss - 3 For One Original Albums CD Box Set (2000) REPOSTS

Kyuss - 3 For One Original Albums CD Box Set (2000)
Rock | 3cd | EAC Rip | Flac + Cue + Log | covers
Warner 7559625602 | orig. rel: 1992-95 | 1020Mb

Kyuss was an American rock band, formed in Palm Desert, California in 1987 by Josh Homme (guitar), John Garcia (vocals), Brant Bjork (drums) and Chris Cockrell (bass). After releasing an EP under the name Sons of Kyuss in 1990, the band shortened its name to Kyuss and recruited Nick Oliveri. Over the next five years the band released four full-length albums, and one last split EP in 1997 as Kyuss and the newly formed Queens of the Stone Age. This nicely tied up the loose ends of Kyuss and introduced the new band Queens of the Stone Age, which was at one time composed entirely of ex-Kyuss members. ~Wikipedia

––––––––––––––––––––––––––––––––––

Kyuss - 3 For One Original Albums CD Box Set (2000) REPOSTS

Kyuss - Blues for the Red Sun (1992)
DALI 3705-61340-2 | 345Mb

With Josh Homme's guitar tuned down two whole steps to C, and plugged into a bass amp for maximum distortion, stoner metal pioneers Kyuss achieve a major milestone in heavy music with their second album, 1992's Blues for the Red Sun. Producer Chris Goss masterfully captures the band's unique heavy/light formula, which becomes apparent as soon as the gentle but sinister intro melody gives way to the chugging main riff in the opener, "Thumb." This segues immediately into the galloping "Green Machine," which pummels forward inexorably and even features that rarest rock & roll moment: a bass solo. "Thong Song" alternates rumbling guitar explosions with almost complete silence, and "Mondo Generator" plays like an extended acid trip. The slow build of the epic "Freedom Run" and the driving "Allen's Wrench" are also highlights, and though the album is heavy on instrumentals, these actually provide a seamless transition from song to song. ~Allmusic

Track listing
01. Thumb (4:42)
02. Green Machine (3:38)
03. Molten Universe (2:50)
04. 50 Million Year Trip(Downside Up) (5:52)
05. Thong Song (3:47)
06. Apothecaries' Weight (5:21)
07. Caterpillar March (1:56)
08. Freedom Run (7:37)
09. 800 (1:34)
10. Writhe (3:42)
11. Capsized (0:56)
12. Allen's Wrench (2:44)
13. Mondo Generator (6:16)
14. Yeah (0:05)
~ (51:00)


EAC extraction logfile from 20. May 2008, 15:48 for CD
Kyuss / Blues for the Red Sun

Used drive : LITE-ON DVDRW LH-20A1H Adapter: 0 ID: 0
Read mode : Secure with NO C2, accurate stream, disable cache
Read offset correction : 6
Overread into Lead-In and Lead-Out : No

Used output format : Internal WAV Routines
44.100 Hz; 16 Bit; Stereo

Other options :
Fill up missing offset samples with silence : Yes
Delete leading and trailing silent blocks : No
Native Win32 interface for Win NT & 2000


Range status and errors
Selected range
Filename C:\blog\upload\K92BFTRS\Kyuss - Blues for the Red Sun\Kyuss - Blues for the Red Sun.wav

Peak level 97.7 %
Range quality 100.0 %
CRC 6E212CB6
Copy OK

No errors occured

End of status report



[CUETools log; Date: 2014.04.15. 14:36:47; Version: 2.1.4]
[CTDB TOCID: 67EzG96ljlHFdSwCjeC7zV077Qo-] found.
Track | CTDB Status
1 | (14/14) Accurately ripped
2 | (14/14) Accurately ripped
3 | (14/14) Accurately ripped
4 | (14/14) Accurately ripped
5 | (14/14) Accurately ripped
6 | (14/14) Accurately ripped
7 | (14/14) Accurately ripped
8 | (14/14) Accurately ripped
9 | (14/14) Accurately ripped
10 | (14/14) Accurately ripped
11 | (14/14) Accurately ripped
12 | (14/14) Accurately ripped
13 | (14/14) Accurately ripped
14 | (14/14) Accurately ripped
[AccurateRip ID: 001cc3fa-012e77d7-b40bf40e] found.
Track [ CRC | V2 ] Status
01 [e5996c78|b46fb6e1] (16+13/46) Accurately ripped
02 [13cb7d4d|d5aef019] (17+13/47) Accurately ripped
03 [43d3f797|75c0f128] (19+13/49) Accurately ripped
04 [56c61e8a|9c32c69e] (16+13/46) Accurately ripped
05 [fba698f9|4cd04179] (16+13/46) Accurately ripped
06 [7b604b93|64f3a5e1] (17+13/47) Accurately ripped
07 [6d4e252f|5278a5aa] (20+13/50) Accurately ripped
08 [70a90643|fe900546] (18+13/48) Accurately ripped
09 [c9087d6c|9bcc28ab] (19+13/49) Accurately ripped
10 [bc14b58c|3bc1ece8] (20+13/49) Accurately ripped
11 [4dfc9ab3|ee10a4ff] (20+13/50) Accurately ripped
12 [991c9941|53131207] (22+13/52) Accurately ripped
13 [a763c59e|982f4660] (18+12/45) Accurately ripped
14 [b7df8221|49e0b218] (05+06/15) Accurately ripped
Offsetted by -117:
01 [277c7bfd] (13/46) Accurately ripped
02 [9b5e44ab] (13/47) Accurately ripped
03 [3c2c8c82] (13/49) Accurately ripped
04 [0ce384bd] (13/46) Accurately ripped
05 [32642a53] (13/46) Accurately ripped
06 [f9c4b284] (13/47) Accurately ripped
07 [776e3667] (13/50) Accurately ripped
08 [676bbe5f] (13/48) Accurately ripped
09 [3aea1c74] (13/49) Accurately ripped
10 [792a6e33] (12/49) Accurately ripped
11 [2d020629] (13/50) Accurately ripped
12 [809b7716] (13/52) Accurately ripped
13 [7a557683] (12/45) Accurately ripped
14 [fdb48746] (04/15) Accurately ripped

Track Peak [ CRC32 ] [W/O NULL] [ LOG ]
– 97,7 [6E212CB6] [DA121812] CRC32
01 95,0 [842A87AC] [1C7C204D]
02 95,0 [4FB798A8] [2A4F7676]
03 95,0 [16EBED24] [EA8993E2]
04 95,0 [1646320D] [12613F64]
05 95,0 [609AC54E] [29C05049]
06 95,0 [4B30772E] [3311224F]
07 95,8 [92BE76EE] [EC4B8AA6]
08 97,7 [9B387A83] [02FA7E97]
09 92,3 [7C647F9C] [D6B49FDB]
10 89,0 [3166D73D] [E30AD248]
11 73,9 [D239D93C] [9DB78C06]
12 88,9 [FA2DD673] [5E66B69C]
13 76,3 [568AC85F] [8830F517]
14 16,2 [CA37776E] [1AA01F9E]


Kyuss - 3 For One Original Albums CD Box Set (2000) REPOSTS

Kyuss - Welcome to Sky Valley (1994)
Elektra 7559615712 | 335Mb

After creating a classic with their second album, Blues for the Red Sun, desert metal gods Kyuss faced the unenviable task of delivering the goods once again for a new label, Elektra Records. And they almost pulled it off with 1994's stellar Welcome to Sky Valley. The album's 13 songs are divided into three "suites" which fully display the band's impressive creative range, from furious metal to psychedelic grooves, and anything in between. The first and most consistent of these suites starts with the huge guitar riff of "Gardenia" (which resembles molten lava flowing down the side of a volcano), continues into the moody space jam instrumental "Asteroid," and culminates in the strangely titled yet superbly diverse "Supa Scoopa and Mighty Scoop." Other highlights include the solid thrashing of "100 Degrees," the prog rock instrumental "Whitewater," and the rather mellow (by Kyuss standards) "Demon Cleaner." But no song exemplifies the Kyuss sound as well as the aptly titled "Odyssey," which opens suite number three and provides a veritable blueprint of the band's unique combination of ingredients. The track begins with a cryptic melody, explodes into a ferocious riff, glides into a psychedelic bridge, then returns to full-throttle for its conclusion. ~Allmusic

Track listing
01. I. Gardenia - Asteroid - Supa Scoopa and Mighty Scoop (17:46)
02. II. 100° - Space Cadet - Demon Cleaner (14:51)
03. III. Odyssey - Conan Troutman - N.O. - Whitewater (18:19)
04. Lick Doo (Hidden Track) (0:58)
~ (51:54)


EAC extraction logfile from 20. May 2008, 16:10 for CD
Kyuss / Welcome to SkyValley

Used drive : LITE-ON DVDRW LH-20A1H Adapter: 0 ID: 0
Read mode : Secure with NO C2, accurate stream, disable cache
Read offset correction : 6
Overread into Lead-In and Lead-Out : No

Used output format : Internal WAV Routines
44.100 Hz; 16 Bit; Stereo

Other options :
Fill up missing offset samples with silence : Yes
Delete leading and trailing silent blocks : No
Native Win32 interface for Win NT & 2000


Range status and errors
Selected range
Filename C:\blog\upload\K94WTSV\Kyuss - Welcome to Sky Valley\Kyuss - Welcome to SkyValley.wav

Peak level 100.0 %
Range quality 100.0 %
CRC 4FB41F20
Copy OK

No errors occured

End of status report



[CUETools log; Date: 2014.04.15. 14:37:37; Version: 2.1.4]
Pregap length 00:00:32.
[CTDB TOCID: 4C65y4ldJ0AwM3ctGr3tWbG9k2s-] found.
Track | CTDB Status
1 | (3/3) Accurately ripped
2 | (3/3) Accurately ripped
3 | (3/3) Accurately ripped
4 | (3/3) Accurately ripped
[AccurateRip ID: 000a85fa-0028f9bb-390c2a04] found.
Track [ CRC | V2 ] Status
01 [8e2ef0b3|19093e01] (027+014/102) Accurately ripped
02 [9d6dd780|81ea2640] (027+014/102) Accurately ripped
03 [2fca0038|b9a429d6] (028+014/101) Accurately ripped
04 [245312e8|c2ba0845] (034+014/105) Accurately ripped
Offsetted by -1218:
01 [ca2521d7] (038/102) Accurately ripped
02 [904e67b2] (038/102) Accurately ripped
03 [44072770] (037/101) Accurately ripped
04 [53287064] (038/105) Accurately ripped
Offsetted by -664:
01 [e65c0963] (006/102) Accurately ripped
02 [45253758] (006/102) Accurately ripped
03 [f8d360d8] (005/101) Accurately ripped
04 [8e2521b8] (004/105) Accurately ripped

Track Peak [ CRC32 ] [W/O NULL] [ LOG ]
– 100,0 [4FB41F20] [5DEC40D1] CRC32
01 100,0 [90A245C7] [310BC51A]
02 99,2 [F2130BCE] [98ACCA17]
03 100,0 [471F888A] [85F46FE8]
04 94,6 [51AF06F4] [74B35303]


Kyuss - 3 For One Original Albums CD Box Set (2000) REPOSTS

Kyuss - …And the Circus Leaves Town (1995)
Elektra 7559618112 | 340Mb

Kyuss' fourth release is entitled …And the Circus Leaves Town, and apparently it took whatever it was that made their previous release so compelling with it. The band still opts for a bottom-heavy, filling-rattling assault, but they also try to create songs that aren't really there. By containing their thundering ambitions to more bite-size (five- to six-minute) chunks, this record constantly comes up short. Tracks like "Gloria Lewis" and "Phototropic" never seem to get started. There are still some worthy moments. "One Inch Man" is a heavy-boogie stomp with wah-wah guitar work from Josh Homme, and "Catamaran" is interesting. However, this band has proven to have a sound far too big to be contained by conventional song lengths, and it's a waste for them to try. Kyuss' music works best when it's given room to sprawl out and unfold like on the closing "Spaceship Landing," the track on this album that most resembles their work on Welcome to Sky Valley. …And the Circus Leaves Town isn't a bad record. It still bears the band's unique stamp. It's just a bit disappointing. ~Allmusic

Track listing
01. Hurricane (2:42)
02. One Inch Man (3:31)
03. Thee Ol' Boozeroony (2:47)
04. Gloria Lewis (4:02)
05. Phototropic (5:13)
06. El Rodeo (5:36)
07. Jumbo Blimp Jumbo (4:40)
08. Tangy Zizzle (2:39)
09. Size Queen (3:47)
10. Catamaran (3:00)
11. Spaceship Landing (34:04)
~ (72:00)


EAC extraction logfile from 20. May 2008, 16:32 for CD
Kyuss / … And the Circus Leaves Town

Used drive : LITE-ON DVDRW LH-20A1H Adapter: 0 ID: 0
Read mode : Secure with NO C2, accurate stream, disable cache
Read offset correction : 6
Overread into Lead-In and Lead-Out : No

Used output format : Internal WAV Routines
44.100 Hz; 16 Bit; Stereo

Other options :
Fill up missing offset samples with silence : Yes
Delete leading and trailing silent blocks : No
Native Win32 interface for Win NT & 2000


Range status and errors
Selected range
Filename C:\blog\upload\K95ATCLT\Kyuss - …And the Circus Leaves Town\Kyuss - … And the Circus Leaves Town.wav

Peak level 100.0 %
Range quality 100.0 %
CRC 68057DA5
Copy OK

No errors occured

End of status report



[CUETools log; Date: 2014.04.15. 14:38:30; Version: 2.1.4]
Pregap length 00:00:32.
[CTDB TOCID: DsDfOFS2I8phZ9Q23CTc1ZlPJLM-] found.
Track | CTDB Status
1 | (2/2) Accurately ripped
2 | (2/2) Accurately ripped
3 | (2/2) Accurately ripped
4 | (2/2) Accurately ripped
5 | (2/2) Accurately ripped
6 | (2/2) Accurately ripped
7 | (2/2) Accurately ripped
8 | (2/2) Accurately ripped
9 | (2/2) Accurately ripped
10 | (2/2) Accurately ripped
11 | (2/2) Accurately ripped
[AccurateRip ID: 00131110-00ae81c5-9a10e00b] found.
Track [ CRC | V2 ] Status
01 [99d7ae0f|55fd9dae] (58+16/87) Accurately ripped
02 [7a0d0d23|09e4c9a9] (56+17/87) Accurately ripped
03 [44ad41a3|a105f930] (59+17/90) Accurately ripped
04 [3fe6c28d|3cdca6e7] (56+17/87) Accurately ripped
05 [821a29e4|e4aef4f0] (56+17/87) Accurately ripped
06 [7de6ec71|5af9890d] (58+17/88) Accurately ripped
07 [b0598646|bcd7dc0a] (57+17/88) Accurately ripped
08 [8762937e|87165de6] (56+17/87) Accurately ripped
09 [c91581a1|7d5c6473] (57+17/89) Accurately ripped
10 [81bc37aa|ffdf6446] (57+17/88) Accurately ripped
11 [48e302c6|53c4f644] (52+16/81) Accurately ripped
Offsetted by -1657:
01 [8fda8b0f] (09/87) Accurately ripped
02 [56e8a705] (10/87) Accurately ripped
03 [8155b26d] (10/90) Accurately ripped
04 [247ca9e9] (10/87) Accurately ripped
05 [92108191] (10/87) Accurately ripped
06 [3500da4a] (09/88) Accurately ripped
07 [1d346330] (10/88) Accurately ripped
08 [74d0a6a8] (09/87) Accurately ripped
09 [e98b0029] (10/89) Accurately ripped
10 [f816327c] (10/88) Accurately ripped
11 [d9b5f8ef] (09/81) Accurately ripped
Offsetted by 1150:
01 [e4cd955f] (00/87) No match
02 [4d66580f] (00/87) No match (V2 was not tested)
03 [f5d0e3b8] (00/90) No match
04 [cf38de4c] (00/87) No match
05 [752defac] (00/87) No match
06 [5c708e8d] (00/88) No match
07 [a73c24ba] (00/88) No match
08 [c494bbcd] (00/87) No match
09 [2460cc30] (00/89) No match
10 [747e6bec] (00/88) No match
11 [2be828a8] (00/81) No match

Track Peak [ CRC32 ] [W/O NULL] [ LOG ]
– 99,9 [68057DA5] [72481E75] CRC32
01 99,9 [A83FA2F4] [31B517FE]
02 94,4 [031E6E61] [2F4533E9]
03 94,4 [C5713003] [1B185CBA]
04 99,9 [E0B46F9D] [9BB9E47F]
05 94,4 [F006358D] [8F62DA39]
06 94,4 [F9EAED70] [F71A3D28]
07 94,4 [5FC3E947] [7F3A222C]
08 94,4 [FBB2F246] [DE5F391E]
09 99,9 [FDB17BB0] [B51B0C82]
10 94,4 [0406B116] [2A06CA37]
11 94,4 [0936798A] [9516D95E]


Thx to Shub-Niggurath