Subcategories

Louis Armstrong - Satchmo: Louis Armstrong's 20 Golden Greats (1996) {Music World}

Posted By: TestTickles
Louis Armstrong - Satchmo: Louis Armstrong's 20 Golden Greats (1996) {Music World}

Louis Armstrong - Satchmo: Louis Armstrong's 20 Golden Greats (1996) {Music World}
EAC Rip | FLAC with CUE and log | scans | 320 mb
MP3 CBR 320kbps | RAR | 154 mb
Genre: jazz, vocal jazz, big band

Satchmo: Louis Armstrong's 20 Golden Greats is a 1996 compilation CD by American jazz legend Louis Armstrong. This was released by Australian label Music World.

Louis Armstrong - Satchmo: Louis Armstrong's 20 Golden Greats (1996) {Music World}

01. Black And Blue
02. I'm Confessing That I Love You
03. Up The Lazy River
04. You Rascal You
05. Ain't Misbehavin'
06. Sruttin' With Barbecue
07. Dippermouth Blues
08. Muskrat Ramble
09. St. Louis Blues
10. Rockin' Chair 1
11. Back O'Town Blues
12. Basin Street Blues
13. On The Sunny Side Of The Street
14. Do You Know What It Means To Miss New Orleans
15. Gotta Right To Sing The Blues
16. When The Saints Go Marching In
17. Swing That Music
18. Stardust
19. Some Of These Days
20. Jeepers Creepers

Exact Audio Copy V1.0 beta 6 from 9. April 2015

EAC extraction logfile from 30. April 2018, 14:35

Louis Armstrong / Satchmo: Louis Armstrong's 20 Golden Greats

Used drive : TSSTcorpDVD+-RW TS-L633C Adapter: 1 ID: 0

Read mode : Secure
Utilize accurate stream : Yes
Defeat audio cache : Yes
Make use of C2 pointers : No

Read offset correction : 6
Overread into Lead-In and Lead-Out : No
Fill up missing offset samples with silence : Yes
Delete leading and trailing silent blocks : No
Null samples used in CRC calculations : Yes
Used interface : Native Win32 interface for Win NT & 2000
Gap handling : Appended to previous track

Used output format : Internal WAV Routines
Sample format : 44.100 Hz; 16 Bit; Stereo


TOC of the extracted CD

Track | Start | Length | Start sector | End sector
––––––––––––––––––––––––––––-
1 | 0:00.00 | 4:06.25 | 0 | 18474
2 | 4:06.25 | 4:21.52 | 18475 | 38101
3 | 8:28.02 | 3:33.15 | 38102 | 54091
4 | 12:01.17 | 3:42.58 | 54092 | 70799
5 | 15:44.00 | 3:31.00 | 70800 | 86624
6 | 19:15.00 | 1:56.15 | 86625 | 95339
7 | 21:11.15 | 2:10.60 | 95340 | 105149
8 | 23:22.00 | 2:10.00 | 105150 | 114899
9 | 25:32.00 | 2:58.02 | 114900 | 128251
10 | 28:30.02 | 5:06.23 | 128252 | 151224
11 | 33:36.25 | 3:41.50 | 151225 | 167849
12 | 37:18.00 | 4:23.25 | 167850 | 187599
13 | 41:41.25 | 2:58.25 | 187600 | 200974
14 | 44:39.50 | 3:21.25 | 200975 | 216074
15 | 48:01.00 | 3:38.00 | 216075 | 232424
16 | 51:39.00 | 2:43.00 | 232425 | 244649
17 | 54:22.00 | 2:48.25 | 244650 | 257274
18 | 57:10.25 | 3:32.00 | 257275 | 273174
19 | 60:42.25 | 3:12.00 | 273175 | 287574
20 | 63:54.25 | 2:40.00 | 287575 | 299574


Track 1

Filename C:\My Documents\My FLAC\Louis Armstrong - Satchmo, Louis Armstrong's 20 Golden Greats (1996) [FLAC] {Music World}\01 - Black And Blue.wav

Pre-gap length 0:00:02.00

Peak level 96.3 %
Extraction speed 2.2 X
Track quality 99.9 %
Test CRC 5476841F
Copy CRC 5476841F
Accurately ripped (confidence 1) [090B5436] (AR v2)
Copy OK

Track 2

Filename C:\My Documents\My FLAC\Louis Armstrong - Satchmo, Louis Armstrong's 20 Golden Greats (1996) [FLAC] {Music World}\02 - I'm Confessing That I Love You.wav

Pre-gap length 0:00:01.74

Peak level 75.8 %
Extraction speed 3.1 X
Track quality 100.0 %
Test CRC 8B76E2C3
Copy CRC 8B76E2C3
Accurately ripped (confidence 1) [16E79238] (AR v2)
Copy OK

Track 3

Filename C:\My Documents\My FLAC\Louis Armstrong - Satchmo, Louis Armstrong's 20 Golden Greats (1996) [FLAC] {Music World}\03 - Up The Lazy River.wav

Pre-gap length 0:00:00.02

Peak level 69.4 %
Extraction speed 3.2 X
Track quality 100.0 %
Test CRC 3A2EF272
Copy CRC 3A2EF272
Accurately ripped (confidence 1) [B98C5A7F] (AR v2)
Copy OK

Track 4

Filename C:\My Documents\My FLAC\Louis Armstrong - Satchmo, Louis Armstrong's 20 Golden Greats (1996) [FLAC] {Music World}\04 - You Rascal You.wav

Peak level 95.8 %
Extraction speed 2.8 X
Track quality 99.9 %
Test CRC F7418350
Copy CRC F7418350
Accurately ripped (confidence 1) [6FE18162] (AR v2)
Copy OK

Track 5

Filename C:\My Documents\My FLAC\Louis Armstrong - Satchmo, Louis Armstrong's 20 Golden Greats (1996) [FLAC] {Music World}\05 - Ain't Misbehavin'.wav

Pre-gap length 0:00:02.74

Peak level 92.1 %
Extraction speed 3.6 X
Track quality 100.0 %
Test CRC 9FD254DE
Copy CRC 9FD254DE
Accurately ripped (confidence 1) [819B24FE] (AR v2)
Copy OK

Track 6

Filename C:\My Documents\My FLAC\Louis Armstrong - Satchmo, Louis Armstrong's 20 Golden Greats (1996) [FLAC] {Music World}\06 - Sruttin' With Barbecue.wav

Pre-gap length 0:00:03.00

Peak level 80.0 %
Extraction speed 2.4 X
Track quality 99.9 %
Test CRC FBB250DE
Copy CRC FBB250DE
Accurately ripped (confidence 1) [AE306AE9] (AR v2)
Copy OK

Track 7

Filename C:\My Documents\My FLAC\Louis Armstrong - Satchmo, Louis Armstrong's 20 Golden Greats (1996) [FLAC] {Music World}\07 - Dippermouth Blues.wav

Pre-gap length 0:00:00.03

Peak level 92.5 %
Extraction speed 2.6 X
Track quality 99.9 %
Test CRC 431897FC
Copy CRC 431897FC
Accurately ripped (confidence 1) [854D566D] (AR v2)
Copy OK

Track 8

Filename C:\My Documents\My FLAC\Louis Armstrong - Satchmo, Louis Armstrong's 20 Golden Greats (1996) [FLAC] {Music World}\08 - Muskrat Ramble.wav

Pre-gap length 0:00:02.71

Peak level 92.4 %
Extraction speed 3.5 X
Track quality 100.0 %
Test CRC 46041ACE
Copy CRC 46041ACE
Accurately ripped (confidence 1) [E0E8F9ED] (AR v2)
Copy OK

Track 9

Filename C:\My Documents\My FLAC\Louis Armstrong - Satchmo, Louis Armstrong's 20 Golden Greats (1996) [FLAC] {Music World}\09 - St. Louis Blues.wav

Pre-gap length 0:00:03.00

Peak level 93.3 %
Extraction speed 3.9 X
Track quality 100.0 %
Test CRC 58100DE5
Copy CRC 58100DE5
Accurately ripped (confidence 1) [C9C80233] (AR v2)
Copy OK

Track 10

Filename C:\My Documents\My FLAC\Louis Armstrong - Satchmo, Louis Armstrong's 20 Golden Greats (1996) [FLAC] {Music World}\10 - Rockin' Chair 1.wav

Peak level 77.0 %
Extraction speed 4.3 X
Track quality 100.0 %
Test CRC 7EE82E86
Copy CRC 7EE82E86
Accurately ripped (confidence 1) [74DC8ED9] (AR v2)
Copy OK

Track 11

Filename C:\My Documents\My FLAC\Louis Armstrong - Satchmo, Louis Armstrong's 20 Golden Greats (1996) [FLAC] {Music World}\11 - Back O'Town Blues.wav

Pre-gap length 0:00:01.74

Peak level 85.7 %
Extraction speed 4.3 X
Track quality 100.0 %
Test CRC 4DC7DB2C
Copy CRC 4DC7DB2C
Accurately ripped (confidence 1) [0852364A] (AR v2)
Copy OK

Track 12

Filename C:\My Documents\My FLAC\Louis Armstrong - Satchmo, Louis Armstrong's 20 Golden Greats (1996) [FLAC] {Music World}\12 - Basin Street Blues.wav

Pre-gap length 0:00:02.66

Peak level 74.3 %
Extraction speed 4.4 X
Track quality 100.0 %
Test CRC BD418711
Copy CRC BD418711
Accurately ripped (confidence 1) [3314D4A5] (AR v2)
Copy OK

Track 13

Filename C:\My Documents\My FLAC\Louis Armstrong - Satchmo, Louis Armstrong's 20 Golden Greats (1996) [FLAC] {Music World}\13 - On The Sunny Side Of The Street.wav

Pre-gap length 0:00:02.74

Peak level 43.9 %
Extraction speed 4.4 X
Track quality 100.0 %
Test CRC 07F8C908
Copy CRC 07F8C908
Accurately ripped (confidence 1) [7F49293B] (AR v2)
Copy OK

Track 14

Filename C:\My Documents\My FLAC\Louis Armstrong - Satchmo, Louis Armstrong's 20 Golden Greats (1996) [FLAC] {Music World}\14 - Do You Know What It Means To Miss New Orleans.wav

Pre-gap length 0:00:02.73

Peak level 46.1 %
Extraction speed 4.6 X
Track quality 100.0 %
Test CRC 87938772
Copy CRC 87938772
Accurately ripped (confidence 1) [D590EEB6] (AR v2)
Copy OK

Track 15

Filename C:\My Documents\My FLAC\Louis Armstrong - Satchmo, Louis Armstrong's 20 Golden Greats (1996) [FLAC] {Music World}\15 - Gotta Right To Sing The Blues.wav

Pre-gap length 0:00:01.74

Peak level 46.3 %
Extraction speed 4.4 X
Track quality 100.0 %
Test CRC 5011B8D5
Copy CRC 5011B8D5
Accurately ripped (confidence 1) [EAACB0DC] (AR v2)
Copy OK

Track 16

Filename C:\My Documents\My FLAC\Louis Armstrong - Satchmo, Louis Armstrong's 20 Golden Greats (1996) [FLAC] {Music World}\16 - When The Saints Go Marching In.wav

Pre-gap length 0:00:00.72

Peak level 46.5 %
Extraction speed 0.4 X
Track quality 99.9 %
Test CRC 94F39E11
Copy CRC 94F39E11
Accurately ripped (confidence 1) [2DF69D31] (AR v2)
Copy OK

Track 17

Filename C:\My Documents\My FLAC\Louis Armstrong - Satchmo, Louis Armstrong's 20 Golden Greats (1996) [FLAC] {Music World}\17 - Swing That Music.wav

Pre-gap length 0:00:01.74

Peak level 50.9 %
Extraction speed 3.5 X
Track quality 99.9 %
Test CRC 83E88524
Copy CRC 83E88524
Accurately ripped (confidence 1) [FB64A899] (AR v2)
Copy OK

Track 18

Filename C:\My Documents\My FLAC\Louis Armstrong - Satchmo, Louis Armstrong's 20 Golden Greats (1996) [FLAC] {Music World}\18 - Stardust.wav

Pre-gap length 0:00:01.00

Peak level 57.3 %
Extraction speed 5.1 X
Track quality 100.0 %
Test CRC 71EFF557
Copy CRC 71EFF557
Accurately ripped (confidence 1) [BC2B6D0B] (AR v2)
Copy OK

Track 19

Filename C:\My Documents\My FLAC\Louis Armstrong - Satchmo, Louis Armstrong's 20 Golden Greats (1996) [FLAC] {Music World}\19 - Some Of These Days.wav

Pre-gap length 0:00:03.00

Peak level 60.2 %
Extraction speed 5.0 X
Track quality 100.0 %
Test CRC 2B0409E5
Copy CRC 2B0409E5
Accurately ripped (confidence 1) [E986A7AB] (AR v2)
Copy OK

Track 20

Filename C:\My Documents\My FLAC\Louis Armstrong - Satchmo, Louis Armstrong's 20 Golden Greats (1996) [FLAC] {Music World}\20 - Jeepers Creepers.wav

Pre-gap length 0:00:00.70

Peak level 68.4 %
Extraction speed 3.7 X
Track quality 99.9 %
Test CRC FDBFA409
Copy CRC FDBFA409
Accurately ripped (confidence 1) [4AD85CF4] (AR v2)
Copy OK


All tracks accurately ripped

No errors occurred

End of status report

–– CUETools DB Plugin V2.1.6

[CTDB TOCID: mKQfHQ.nt245jq9YjEBt51jlcyI-] found
Submit result: mKQfHQ.nt245jq9YjEBt51jlcyI- has been confirmed
Track | CTDB Status
1 | (1/1) Accurately ripped
2 | (1/1) Accurately ripped
3 | (1/1) Accurately ripped
4 | (1/1) Accurately ripped
5 | (1/1) Accurately ripped
6 | (1/1) Accurately ripped
7 | (1/1) Accurately ripped
8 | (1/1) Accurately ripped
9 | (1/1) Accurately ripped
10 | (1/1) Accurately ripped
11 | (1/1) Accurately ripped
12 | (1/1) Accurately ripped
13 | (1/1) Accurately ripped
14 | (1/1) Accurately ripped
15 | (1/1) Accurately ripped
16 | (1/1) Accurately ripped
17 | (1/1) Accurately ripped
18 | (1/1) Accurately ripped
19 | (1/1) Accurately ripped
20 | (1/1) Accurately ripped


==== Log checksum 7E13CFEF8C5F7F23199684BF459A8D14AE1C36CCA3F95DB9CBDCEBADB3D5E1B2 ====


Louis Armstrong - Satchmo: Louis Armstrong's 20 Golden Greats (1996) {Music World}