Subcategories

Louis Lortie with I Musici de Montreal - Mozart: Piano Concerti Nos. 12 & 14 (1987) {Musical Heritage Society} **[RE-UP]**

Posted By: TestTickles
Louis Lortie with I Musici de Montreal - Mozart: Piano Concerti Nos. 12 & 14 (1987) {Musical Heritage Society} **[RE-UP]**

Louis Lortie with I Musici de Montreal, Yuli Turovsky - Mozart: Piano Concerti Nos. 12 & 14 (1987) {Musical Heritage Society}
EAC Rip | FLAC with CUE and log | scans | 176 mb
MP3 CBR 320kbps | RAR | 111 mb
Genre: classical

Mozart: Piano Concerti Nos. 12 & 14 is a 1987 album by Louis Lortie with I Musici de Montreal, conducted by Yuli Turovsky. This was released by the Musical Heritage Society.

Louis Lortie with I Musici de Montreal - Mozart: Piano Concerti Nos. 12 & 14 (1987) {Musical Heritage Society} **[RE-UP]**

Piano Concerto No. 12 In A Major, K. 414
1. Allegro (10:32)
2. Andante (8:37)
3. Allegretto (6:17)
Piano Concerto No. 14 In E-Flat Major, K. 449
4. Allegro Vivace (9:01)
5. Andantino (7:21)
6. Allegro Ma Non Troppo (6:06)


Louis Lortie, piano
I Musici de Montreal, conducted by Yuli Toruvsky
Theodore Baskin-oboe
Pierre-Vincent Plante-oboe
Jean Gaudreault-horns
Jill Kirwan-horns

Produced by Brian Couzens
Engineered by Ralph Couzens
Assistant Engineer: Philip Couzens
Mastered by Bill Kipper

Recorded in the Church of Ste. Madelieine, Montreal in August 1985

Exact Audio Copy V1.1 from 23. June 2015

EAC extraction logfile from 11. November 2016, 16:35

Louis Lortie with I Musici de Montreal, Yuli Turovsky / Mozart: Piano Concerti Nos. 12 & 14

Used drive : TEAC DVD-ROM DV-28SW Adapter: 1 ID: 0

Read mode : Secure
Utilize accurate stream : Yes
Defeat audio cache : Yes
Make use of C2 pointers : No

Read offset correction : 6
Overread into Lead-In and Lead-Out : No
Fill up missing offset samples with silence : Yes
Delete leading and trailing silent blocks : No
Null samples used in CRC calculations : Yes
Used interface : Native Win32 interface for Win NT & 2000
Gap handling : Appended to previous track

Used output format : Internal WAV Routines
Sample format : 44.100 Hz; 16 Bit; Stereo


TOC of the extracted CD

Track | Start | Length | Start sector | End sector
––––––––––––––––––––––––––––-
1 | 0:00.33 | 10:36.35 | 33 | 47767
2 | 10:36.68 | 8:37.67 | 47768 | 86609
3 | 19:14.60 | 6:25.13 | 86610 | 115497
4 | 25:39.73 | 9:04.55 | 115498 | 156352
5 | 34:44.53 | 7:32.22 | 156353 | 190274
6 | 42:17.00 | 6:05.38 | 190275 | 217687


Track 1

Filename C:\My Documents\My FLAC\Louis Lortie with I Musici de Montreal, Yuli Turovsky - Mozart, Piano Concerti Nos. 12 & 14 (1987) [FLAC] {Musical Heritage Society}\01 - Piano Concerto No. 12 in A Major, K.414 - 1. Allegro.wav

Pre-gap length 0:00:02.33

Peak level 81.5 %
Extraction speed 3.0 X
Track quality 99.9 %
Test CRC CC8536CE
Copy CRC CC8536CE
Accurately ripped (confidence 7) [49C8983D] (AR v2)
Copy OK

Track 2

Filename C:\My Documents\My FLAC\Louis Lortie with I Musici de Montreal, Yuli Turovsky - Mozart, Piano Concerti Nos. 12 & 14 (1987) [FLAC] {Musical Heritage Society}\02 - Piano Concerto No. 12 in A Major, K.414 - 2. Andante.wav

Pre-gap length 0:00:04.35

Peak level 52.4 %
Extraction speed 3.3 X
Track quality 99.9 %
Test CRC A5AD4FFB
Copy CRC A5AD4FFB
Accurately ripped (confidence 7) [4686B553] (AR v2)
Copy OK

Track 3

Filename C:\My Documents\My FLAC\Louis Lortie with I Musici de Montreal, Yuli Turovsky - Mozart, Piano Concerti Nos. 12 & 14 (1987) [FLAC] {Musical Heritage Society}\03 - Piano Concerto No. 12 in A Major, K.414 - 3. Allegretto.wav

Pre-gap length 0:00:02.22

Peak level 81.3 %
Extraction speed 4.1 X
Track quality 100.0 %
Test CRC 751CCE6A
Copy CRC 751CCE6A
Accurately ripped (confidence 7) [F2761DD0] (AR v2)
Copy OK

Track 4

Filename C:\My Documents\My FLAC\Louis Lortie with I Musici de Montreal, Yuli Turovsky - Mozart, Piano Concerti Nos. 12 & 14 (1987) [FLAC] {Musical Heritage Society}\04 - Piano Concerto No. 14in E-flat Major, K.449 - 1. Allegro vivace.wav

Pre-gap length 0:00:07.50

Peak level 98.4 %
Extraction speed 4.5 X
Track quality 100.0 %
Test CRC AE143790
Copy CRC AE143790
Accurately ripped (confidence 7) [86D821A6] (AR v2)
Copy OK

Track 5

Filename C:\My Documents\My FLAC\Louis Lortie with I Musici de Montreal, Yuli Turovsky - Mozart, Piano Concerti Nos. 12 & 14 (1987) [FLAC] {Musical Heritage Society}\05 - Piano Concerto No. 14in E-flat Major, K.449 - 2. Andantino.wav

Pre-gap length 0:00:03.10

Peak level 54.2 %
Extraction speed 4.2 X
Track quality 100.0 %
Test CRC 2CD1309B
Copy CRC 2CD1309B
Accurately ripped (confidence 7) [276732F3] (AR v2)
Copy OK

Track 6

Filename C:\My Documents\My FLAC\Louis Lortie with I Musici de Montreal, Yuli Turovsky - Mozart, Piano Concerti Nos. 12 & 14 (1987) [FLAC] {Musical Heritage Society}\06 - Piano Concerto No. 14in E-flat Major, K.449 - 3. Allegro ma non troppo.wav

Pre-gap length 0:00:01.55

Peak level 97.0 %
Extraction speed 4.1 X
Track quality 100.0 %
Test CRC 6FBF6F63
Copy CRC 6FBF6F63
Accurately ripped (confidence 7) [A7072127] (AR v2)
Copy OK


All tracks accurately ripped

No errors occurred

End of status report

–– CUETools DB Plugin V2.1.6

[CTDB TOCID: i7T_eWY.Ca3a41JTxaKFGrhmgEY-] found
Submit result: i7T_eWY.Ca3a41JTxaKFGrhmgEY- has been confirmed
Track | CTDB Status
1 | (14/14) Accurately ripped
2 | (14/14) Accurately ripped
3 | (14/14) Accurately ripped
4 | (13/14) Accurately ripped
5 | (12/14) Accurately ripped
6 | (12/14) Accurately ripped


==== Log checksum F0C24BBAFAD5278DE3F34D2956EDE3E9B78320150E4935B1F2DE31E42F157D87 ====


Louis Lortie with I Musici de Montreal - Mozart: Piano Concerti Nos. 12 & 14 (1987) {Musical Heritage Society} **[RE-UP]**