VA - Love & Basketball (Soundtrack) (2000)

Posted By: TestTickles
VA - Love & Basketball (Soundtrack) (2000)

VA - Love & Basketball (Soundtrack) (2000)
EAC Rip | FLAC with CUE and log | scans | 402 mb
MP3 CBR 320kbps | RAR | 185 mb
Genre: R&B, soul, hip-hop, rap

Love & Basketball is the 2000 soundtrack to the film directed by Gina Prince-Bythewood. The album features music by Bilal, Me'Shell NdegeOcello, Rufus featuring Chaka Khan, Black Eyed Peas and many more.

VA - Love & Basketball (Soundtrack) (2000)

01. Donell Jones - I'll Go (4:01)
02. Rob Base & DJ E-Z Rock - It Takes Two (5:01)
03. Lucy Pearl - Dance Tonight (3:50)
04. Black Eyed Peas featuring Les Nubians- Complete Beloved (4:20)
05. Guy - I Like (4:49)
06. MC Lyte - Lyte As A Rock (3:32)
07. Angie Stone - Holding Back The Years (6:37)
08. Al Green - Love And Happiness (5:01)
09. Bilal - Soul Sista (4:21)
10. Rufus featuring Chaka Khan - Sweet Thing (3:16)
11. Roger - I Want To Be Your Man (4:09)
12. Me'Shell NdegeOcello - Fool Of Me (3:30)

Mastered by Bernie Grundman

Exact Audio Copy V1.1 from 23. June 2015

EAC extraction logfile from 16. March 2017, 12:46

Various Artists / Love & Basketball (Soundtrack)

Used drive : TEAC DVD-ROM DV-28SW Adapter: 1 ID: 0

Read mode : Secure
Utilize accurate stream : Yes
Defeat audio cache : Yes
Make use of C2 pointers : No

Read offset correction : 6
Overread into Lead-In and Lead-Out : No
Fill up missing offset samples with silence : Yes
Delete leading and trailing silent blocks : No
Null samples used in CRC calculations : Yes
Used interface : Native Win32 interface for Win NT & 2000
Gap handling : Appended to previous track

Used output format : Internal WAV Routines
Sample format : 44.100 Hz; 16 Bit; Stereo


TOC of the extracted CD

Track | Start | Length | Start sector | End sector
––––––––––––––––––––––––––––-
1 | 0:00.32 | 4:01.40 | 32 | 18146
2 | 4:01.72 | 5:01.03 | 18147 | 40724
3 | 9:03.00 | 3:50.55 | 40725 | 58029
4 | 12:53.55 | 4:19.72 | 58030 | 77526
5 | 17:13.52 | 4:48.65 | 77527 | 99191
6 | 22:02.42 | 3:32.23 | 99192 | 115114
7 | 25:34.65 | 6:37.37 | 115115 | 144926
8 | 32:12.27 | 5:01.05 | 144927 | 167506
9 | 37:13.32 | 4:20.70 | 167507 | 187076
10 | 41:34.27 | 3:16.20 | 187077 | 201796
11 | 44:50.47 | 4:09.63 | 201797 | 220534
12 | 49:00.35 | 3:30.45 | 220535 | 236329


Track 1

Filename C:\My Documents\My FLAC\VA - Love & Basketball (Soundtrack) (2000) [FLAC]\01 - Donell Jones - I'll Go.wav

Pre-gap length 0:00:02.32

Peak level 98.9 %
Extraction speed 2.9 X
Track quality 100.0 %
Test CRC 16370CC7
Copy CRC 16370CC7
Accurately ripped (confidence 6) [B80E2522] (AR v2)
Copy OK

Track 2

Filename C:\My Documents\My FLAC\VA - Love & Basketball (Soundtrack) (2000) [FLAC]\02 - Rob Base & DJ E-Z Rock - It Takes Two.wav

Peak level 99.0 %
Extraction speed 3.3 X
Track quality 100.0 %
Test CRC 1D016FB5
Copy CRC 1D016FB5
Accurately ripped (confidence 5) [D0F8B6CE] (AR v2)
Copy OK

Track 3

Filename C:\My Documents\My FLAC\VA - Love & Basketball (Soundtrack) (2000) [FLAC]\03 - Lucy Pearl - Dance Tonight.wav

Pre-gap length 0:00:00.43

Peak level 98.9 %
Extraction speed 2.9 X
Track quality 99.9 %
Test CRC 0AAD0C95
Copy CRC 0AAD0C95
Accurately ripped (confidence 5) [305F7E5C] (AR v2)
Copy OK

Track 4

Filename C:\My Documents\My FLAC\VA - Love & Basketball (Soundtrack) (2000) [FLAC]\04 - Black Eyed Peas featuring Les Nubians - Complete Beloved.wav

Peak level 99.0 %
Extraction speed 3.2 X
Track quality 99.9 %
Test CRC 953822B3
Copy CRC 953822B3
Accurately ripped (confidence 5) [41649560] (AR v2)
Copy OK

Track 5

Filename C:\My Documents\My FLAC\VA - Love & Basketball (Soundtrack) (2000) [FLAC]\05 - Guy - I Like.wav

Pre-gap length 0:00:01.40

Peak level 98.9 %
Extraction speed 4.1 X
Track quality 100.0 %
Test CRC A21181C9
Copy CRC A21181C9
Accurately ripped (confidence 6) [F1CBFFE0] (AR v2)
Copy OK

Track 6

Filename C:\My Documents\My FLAC\VA - Love & Basketball (Soundtrack) (2000) [FLAC]\06 - MC Lyte - Lyte As A Rock.wav

Pre-gap length 0:00:00.32

Peak level 99.9 %
Extraction speed 4.2 X
Track quality 100.0 %
Test CRC 2CF16A19
Copy CRC 2CF16A19
Accurately ripped (confidence 5) [A0F46CD7] (AR v2)
Copy OK

Track 7

Filename C:\My Documents\My FLAC\VA - Love & Basketball (Soundtrack) (2000) [FLAC]\07 - Angie Stone - Holding Back The Years.wav

Pre-gap length 0:00:01.23

Peak level 99.0 %
Extraction speed 4.7 X
Track quality 100.0 %
Test CRC 9C916C5C
Copy CRC 9C916C5C
Accurately ripped (confidence 5) [ACA9B3CF] (AR v2)
Copy OK

Track 8

Filename C:\My Documents\My FLAC\VA - Love & Basketball (Soundtrack) (2000) [FLAC]\08 - Al Green - Love And Happiness.wav

Pre-gap length 0:00:00.70

Peak level 98.9 %
Extraction speed 4.9 X
Track quality 100.0 %
Test CRC 666ED783
Copy CRC 666ED783
Accurately ripped (confidence 6) [45D094BF] (AR v2)
Copy OK

Track 9

Filename C:\My Documents\My FLAC\VA - Love & Basketball (Soundtrack) (2000) [FLAC]\09 - Bilal - Soul Sista.wav

Peak level 98.9 %
Extraction speed 4.2 X
Track quality 99.9 %
Test CRC A4B6F24B
Copy CRC A4B6F24B
Accurately ripped (confidence 6) [A9078CA0] (AR v2)
Copy OK

Track 10

Filename C:\My Documents\My FLAC\VA - Love & Basketball (Soundtrack) (2000) [FLAC]\10 - Rufus featuring Chaka Khan - Sweet Thing.wav

Pre-gap length 0:00:00.30

Peak level 99.9 %
Extraction speed 5.0 X
Track quality 100.0 %
Test CRC FFBF7D08
Copy CRC FFBF7D08
Accurately ripped (confidence 6) [10AA0D64] (AR v2)
Copy OK

Track 11

Filename C:\My Documents\My FLAC\VA - Love & Basketball (Soundtrack) (2000) [FLAC]\11 - Roger - I Want To Be Your Man.wav

Pre-gap length 0:00:00.17

Peak level 98.9 %
Extraction speed 5.4 X
Track quality 100.0 %
Test CRC AD1B80E3
Copy CRC AD1B80E3
Accurately ripped (confidence 6) [9002F770] (AR v2)
Copy OK

Track 12

Filename C:\My Documents\My FLAC\VA - Love & Basketball (Soundtrack) (2000) [FLAC]\12 - Me'Shell NdegéOcello - Fool Of Me.wav

Pre-gap length 0:00:01.00

Peak level 98.9 %
Extraction speed 5.3 X
Track quality 100.0 %
Test CRC B116751F
Copy CRC B116751F
Accurately ripped (confidence 6) [81D3D5DC] (AR v2)
Copy OK


All tracks accurately ripped

No errors occurred

End of status report

–– CUETools DB Plugin V2.1.6

[CTDB TOCID: ACbXf72KaWhN0FGm.6vSeCEQp18-] found
Submit result: ACbXf72KaWhN0FGm.6vSeCEQp18- has been confirmed
Track | CTDB Status
1 | (7/7) Accurately ripped
2 | (7/7) Accurately ripped
3 | (7/7) Accurately ripped
4 | (7/7) Accurately ripped
5 | (7/7) Accurately ripped
6 | (7/7) Accurately ripped
7 | (7/7) Accurately ripped
8 | (7/7) Accurately ripped
9 | (7/7) Accurately ripped
10 | (7/7) Accurately ripped
11 | (7/7) Accurately ripped
12 | (7/7) Accurately ripped


==== Log checksum CF2EEC7F63A7FFFAD13E839FAF4F298B6923341CB368C6DE6D810D560261AD71 ====


VA - Love & Basketball (Soundtrack) (2000)