Subcategories

Lesbian - Power Hôr (2007) **[RE-UP]**

Posted By: TestTickles
Lesbian - Power Hôr  (2007) **[RE-UP]**

Lesbian - Power Hôr (2007)
EAC Rip | FLAC with CUE and log | scans | 439 mb
MP3 CBR 320kbps | RAR | 222 mb
Genre: stoner rock, stoner metal, sludge metal, sludge rock, indie rock, psychedelic rock

Power Hôr is the 2007 album by Seattle stoner rockers Lesbian. Only four songs but three of the tracks are over 10 minutes in length, with one song running close to 25 minutes. They can make radio-friendly hits but don't bother doing it.

Lesbian - Power Hôr  (2007) **[RE-UP]**

1. Black Forest Hamm (8:37)
2. Powerwhorses (16:34)
3. Loadbath (24:51)
4. Irreversible (12:15)

Lesbian - Power Hôr  (2007) **[RE-UP]**


Exact Audio Copy V0.99 prebeta 4 from 23. January 2008

EAC extraction logfile from 22. April 2009, 20:56

Lesbian / Power Hor

Used drive : TSSTcorpDVD+-RW TS-H653B Adapter: 2 ID: 0

Read mode : Secure
Utilize accurate stream : Yes
Defeat audio cache : Yes
Make use of C2 pointers : No

Read offset correction : 6
Overread into Lead-In and Lead-Out : No
Fill up missing offset samples with silence : Yes
Delete leading and trailing silent blocks : No
Null samples used in CRC calculations : Yes
Used interface : Native Win32 interface for Win NT & 2000
Gap handling : Appended to previous track

Used output format : Internal WAV Routines
Sample format : 44.100 Hz; 16 Bit; Stereo


TOC of the extracted CD

Track | Start | Length | Start sector | End sector
––––––––––––––––––––––––––––-
1 | 0:00.00 | 8:37.32 | 0 | 38806
2 | 8:37.32 | 16:34.63 | 38807 | 113419
3 | 25:12.20 | 24:51.15 | 113420 | 225259
4 | 50:03.35 | 12:15.09 | 225260 | 280393


Track 1

Filename C:\FLAC\Lesbian - Power Hor (2007) [FLAC]\01 - Black Forest Hamm.wav

Pre-gap length 0:00:02.00

Peak level 99.3 %
Track quality 100.0 %
Test CRC 9831754F
Copy CRC 9831754F
Accurately ripped (confidence 2) [498A0284]
Copy OK

Track 2

Filename C:\FLAC\Lesbian - Power Hor (2007) [FLAC]\02 - Powerhorses.wav

Peak level 99.3 %
Track quality 99.9 %
Test CRC 66C1872E
Copy CRC 66C1872E
Accurately ripped (confidence 2) [8D6DD842]
Copy OK

Track 3

Filename C:\FLAC\Lesbian - Power Hor (2007) [FLAC]\03 - Loadbath.wav

Peak level 99.2 %
Track quality 100.0 %
Test CRC A3353A92
Copy CRC A3353A92
Accurately ripped (confidence 2) [D7F2071F]
Copy OK

Track 4

Filename C:\FLAC\Lesbian - Power Hor (2007) [FLAC]\04 - Irreversible.wav

Peak level 99.4 %
Track quality 100.0 %
Test CRC 97CE98ED
Copy CRC 97CE98ED
Accurately ripped (confidence 2) [8DD1ABD8]
Copy OK


All tracks accurately ripped

No errors occurred

End of status report


Lesbian - Power Hôr  (2007) **[RE-UP]**