Subcategories

The Bulgarian State Radio & Television Female Vocal Choir - Les Mystere Des Voix Bulgares (1987) **[RE-UP]**

Posted By: TestTickles
The Bulgarian State Radio & Television Female Vocal Choir - Les Mystere Des Voix Bulgares (1987) **[RE-UP]**

The Bulgarian State Radio & Television Female Vocal Choir - Les Mystere Des Voix Bulgares (1987)
EAC Rip | FLAC with CUE and log | scans | 206 mb
MP3 CBR 320kbps | RAR | 84 mb
Genre: world music, vocal

Le Mystère Des Voix Bulgares is the 1987 album by The Bulgarian State Radio & Television Female Vocal Choir. Originally released in 1975, the music was repackaged and reissued twelve years later with greater success than its producers ever realized.

The Bulgarian State Radio & Television Female Vocal Choir - Les Mystere Des Voix Bulgares (1987) **[RE-UP]**

1. Pilentze Pee (Pilentze Sings) (2:31)
2. Svatba (The Wedding) (1:27)
3. Kalimankou Denkou (The Evening Gathering) (5:06)
4. Strati Na Angelaki Doumasche (Haiduk Song) (2:37)
5. Polegnala E Pschenitza (Harvest Song From Thrace) (2:02)
6. Messetschinko Lio Greïlivko (Love Song From The Mountains) (2:31)
7. Breï Yvane (Dancing Song) (1:31)
8. Erghen Diado (Song Of Schopsko) (2:50)
9. Sableyalo Mi Agontze (The Bleating Lamb) (4:31)
10. Prïtourïtze Planinata (Song From The Thracian Plain) (2:45)
11. Mir Stanke Le (Harvest Song From Thrace) (3:10)
12. Schopska Pesen (Diaphonic Chant) (1:27)
13. Polegnala E Todora (Love Song) (3:38)

Exact Audio Copy V1.1 from 23. June 2015

EAC extraction logfile from 11. January 2016, 9:16

The Bulgarian State Radio & Television Female Vocal Choir / Le Mystère Des Voix Bulgares

Used drive : TEAC DVD-ROM DV-28SW Adapter: 1 ID: 0

Read mode : Secure
Utilize accurate stream : Yes
Defeat audio cache : Yes
Make use of C2 pointers : No

Read offset correction : 6
Overread into Lead-In and Lead-Out : No
Fill up missing offset samples with silence : Yes
Delete leading and trailing silent blocks : No
Null samples used in CRC calculations : Yes
Used interface : Native Win32 interface for Win NT & 2000
Gap handling : Left out

Used output format : Internal WAV Routines
Sample format : 44.100 Hz; 16 Bit; Stereo


TOC of the extracted CD

Track | Start | Length | Start sector | End sector
––––––––––––––––––––––––––––-
1 | 0:00.32 | 2:26.28 | 32 | 11009
2 | 2:26.60 | 1:31.12 | 11010 | 17846
3 | 3:57.72 | 5:11.15 | 17847 | 41186
4 | 9:09.12 | 2:41.15 | 41187 | 53276
5 | 11:50.27 | 2:04.30 | 53277 | 62606
6 | 13:54.57 | 2:34.60 | 62607 | 74216
7 | 16:29.42 | 1:34.70 | 74217 | 81336
8 | 18:04.37 | 2:54.00 | 81337 | 94386
9 | 20:58.37 | 4:35.23 | 94387 | 115034
10 | 25:33.60 | 2:50.25 | 115035 | 127809
11 | 28:24.10 | 3:17.02 | 127810 | 142586
12 | 31:41.12 | 1:30.60 | 142587 | 149396
13 | 33:11.72 | 3:37.53 | 149397 | 165724


Track 1

Filename C:\My Documents\My FLAC\The Bulgarian State Radio & Television Female Vocal Choir - Les Mystere Des Voix Bulgares (1987) [FLAC]\01 - Pilentze Pee.wav

Pre-gap length 0:00:02.32

Peak level 78.8 %
Extraction speed 2.5 X
Track quality 100.0 %
Test CRC ED465AF7
Copy CRC ED465AF7
Track not fully ripped for AccurateRip lookup
Copy OK

Track 2

Filename C:\My Documents\My FLAC\The Bulgarian State Radio & Television Female Vocal Choir - Les Mystere Des Voix Bulgares (1987) [FLAC]\02 - Svatba.wav

Pre-gap length 0:00:04.65

Peak level 83.1 %
Extraction speed 2.3 X
Track quality 100.0 %
Test CRC 1363C2BB
Copy CRC 1363C2BB
Track not fully ripped for AccurateRip lookup
Copy OK

Track 3

Filename C:\My Documents\My FLAC\The Bulgarian State Radio & Television Female Vocal Choir - Les Mystere Des Voix Bulgares (1987) [FLAC]\03 - Kalimankou Denkou.wav

Pre-gap length 0:00:03.70

Peak level 82.6 %
Extraction speed 3.2 X
Track quality 100.0 %
Test CRC 5231DBE4
Copy CRC 5231DBE4
Track not fully ripped for AccurateRip lookup
Copy OK

Track 4

Filename C:\My Documents\My FLAC\The Bulgarian State Radio & Television Female Vocal Choir - Les Mystere Des Voix Bulgares (1987) [FLAC]\04 - Strati na Angelaki Doumasche.wav

Pre-gap length 0:00:05.05

Peak level 84.2 %
Extraction speed 3.2 X
Track quality 100.0 %
Test CRC F7102F8D
Copy CRC F7102F8D
Track not fully ripped for AccurateRip lookup
Copy OK

Track 5

Filename C:\My Documents\My FLAC\The Bulgarian State Radio & Television Female Vocal Choir - Les Mystere Des Voix Bulgares (1987) [FLAC]\05 - Polegnala e Pschenitza.wav

Pre-gap length 0:00:04.25

Peak level 74.0 %
Extraction speed 3.2 X
Track quality 100.0 %
Test CRC 50A14F38
Copy CRC 50A14F38
Track not fully ripped for AccurateRip lookup
Copy OK

Track 6

Filename C:\My Documents\My FLAC\The Bulgarian State Radio & Television Female Vocal Choir - Les Mystere Des Voix Bulgares (1987) [FLAC]\06 - Messetschinko lio GreÏlivko.wav

Pre-gap length 0:00:02.60

Peak level 84.5 %
Extraction speed 2.7 X
Track quality 99.9 %
Test CRC 8BAF0A7F
Copy CRC 8BAF0A7F
Track not fully ripped for AccurateRip lookup
Copy OK

Track 7

Filename C:\My Documents\My FLAC\The Bulgarian State Radio & Television Female Vocal Choir - Les Mystere Des Voix Bulgares (1987) [FLAC]\07 - BreÏ Yvane.wav

Pre-gap length 0:00:03.55

Peak level 83.5 %
Extraction speed 3.2 X
Track quality 100.0 %
Test CRC D276C4EB
Copy CRC D276C4EB
Track not fully ripped for AccurateRip lookup
Copy OK

Track 8

Filename C:\My Documents\My FLAC\The Bulgarian State Radio & Television Female Vocal Choir - Les Mystere Des Voix Bulgares (1987) [FLAC]\08 - Erghen Diado.wav

Pre-gap length 0:00:04.07

Peak level 87.0 %
Extraction speed 3.3 X
Track quality 100.0 %
Test CRC 6E9E9356
Copy CRC 6E9E9356
Track not fully ripped for AccurateRip lookup
Copy OK

Track 9

Filename C:\My Documents\My FLAC\The Bulgarian State Radio & Television Female Vocal Choir - Les Mystere Des Voix Bulgares (1987) [FLAC]\09 - Sableyalo mi Agontze.wav

Pre-gap length 0:00:03.45

Peak level 84.3 %
Extraction speed 3.5 X
Track quality 99.9 %
Test CRC A6238E35
Copy CRC A6238E35
Track not fully ripped for AccurateRip lookup
Copy OK

Track 10

Filename C:\My Documents\My FLAC\The Bulgarian State Radio & Television Female Vocal Choir - Les Mystere Des Voix Bulgares (1987) [FLAC]\10 - Prïtourïtze Planinata.wav

Pre-gap length 0:00:04.30

Peak level 86.6 %
Extraction speed 4.1 X
Track quality 100.0 %
Test CRC 20AC11C8
Copy CRC 20AC11C8
Track not fully ripped for AccurateRip lookup
Copy OK

Track 11

Filename C:\My Documents\My FLAC\The Bulgarian State Radio & Television Female Vocal Choir - Les Mystere Des Voix Bulgares (1987) [FLAC]\11 - Mir Stanke le.wav

Pre-gap length 0:00:04.38

Peak level 83.6 %
Extraction speed 4.3 X
Track quality 100.0 %
Test CRC DC92D9A9
Copy CRC DC92D9A9
Track not fully ripped for AccurateRip lookup
Copy OK

Track 12

Filename C:\My Documents\My FLAC\The Bulgarian State Radio & Television Female Vocal Choir - Les Mystere Des Voix Bulgares (1987) [FLAC]\12 - Schopska Pesen.wav

Pre-gap length 0:00:07.07

Peak level 76.4 %
Extraction speed 2.4 X
Track quality 99.8 %
Test CRC CB8B6124
Copy CRC CB8B6124
Track not fully ripped for AccurateRip lookup
Copy OK

Track 13

Filename C:\My Documents\My FLAC\The Bulgarian State Radio & Television Female Vocal Choir - Les Mystere Des Voix Bulgares (1987) [FLAC]\13 - Poleganala e Todora.wav

Pre-gap length 0:00:03.15

Peak level 81.8 %
Extraction speed 4.7 X
Track quality 100.0 %
Test CRC E213B5C0
Copy CRC E213B5C0
Accurately ripped (confidence 23) [8EF54646] (AR v2)
Copy OK


1 track(s) accurately ripped
12 track(s) not fully ripped for AccurateRip lookup

Some tracks could not be verified as accurate

No errors occurred

End of status report

==== Log checksum 477B437522E68A5F30776E178048A6E82CF2FA9CFBB613A83B0C4A0539C4BC91 ====


The Bulgarian State Radio & Television Female Vocal Choir - Les Mystere Des Voix Bulgares (1987) **[RE-UP]**


Check out other titles in my Avaxhome blog