Subcategories

Led Zeppelin - Holiday In Waikiki (1996) {Hawaiian Boogie Recordings} **[RE-UP]**

Posted By: TestTickles
Led Zeppelin - Holiday In Waikiki (1996) {Hawaiian Boogie Recordings} **[RE-UP]**

Led Zeppelin - Holiday In Waikiki (1996) {Hawaiian Boogie Recordings}
EAC Rip | FLAC with CUE and log | scans | 410 mb
MP3 CBR 320kbps | RAR | 171 mb
Genre: hard rock, blues rock, classic rock

Holiday In Waikiki is a bootleg Led Zeppelin album recorded live on 6 September, 1970 at the Honolulu International Center. It is an audience recording and shows the group in Led Zeppelin III glory. The CD was released in 1996 by Hawaiian Boogie Records.

Led Zeppelin - Holiday In Waikiki (1996) {Hawaiian Boogie Recordings} **[RE-UP]**

1. Introduction
2. Immigrant Song
3. Dazed And Confused
4. Heartbreaker
5. Since I've Been Loving You
6. What Is And What Should Never Be
7. Moby Dick
8. Whole Lotta Love
9. Communication Breakdown

Exact Audio Copy V1.1 from 23. June 2015

EAC extraction logfile from 19. January 2016, 9:50

Led Zeppelin / Holiday In Waikiki

Used drive : TEAC DVD-ROM DV-28SW Adapter: 1 ID: 0

Read mode : Secure
Utilize accurate stream : Yes
Defeat audio cache : Yes
Make use of C2 pointers : No

Read offset correction : 6
Overread into Lead-In and Lead-Out : No
Fill up missing offset samples with silence : Yes
Delete leading and trailing silent blocks : No
Null samples used in CRC calculations : Yes
Used interface : Native Win32 interface for Win NT & 2000
Gap handling : Left out

Used output format : Internal WAV Routines
Sample format : 44.100 Hz; 16 Bit; Stereo


TOC of the extracted CD

Track | Start | Length | Start sector | End sector
––––––––––––––––––––––––––––-
1 | 0:00.00 | 1:00.70 | 0 | 4569
2 | 1:00.70 | 3:11.50 | 4570 | 18944
3 | 4:12.45 | 16:06.25 | 18945 | 91419
4 | 20:18.70 | 6:51.62 | 91420 | 122306
5 | 27:10.57 | 7:51.55 | 122307 | 157686
6 | 35:02.37 | 5:08.35 | 157687 | 180821
7 | 40:10.72 | 12:40.03 | 180822 | 237824
8 | 52:51.00 | 15:08.15 | 237825 | 305939
9 | 67:59.15 | 5:47.22 | 305940 | 331986


Track 1

Filename C:\My Documents\My FLAC\Led Zeppelin - Holiday In Waikiki (1996) [FLAC] {Hawaiian Boogie}\01 - Introduction.wav

Pre-gap length 0:00:02.00

Peak level 88.3 %
Extraction speed 1.9 X
Track quality 100.0 %
Test CRC 1B39E662
Copy CRC 1B39E662
Track not fully ripped for AccurateRip lookup
Copy OK

Track 2

Filename C:\My Documents\My FLAC\Led Zeppelin - Holiday In Waikiki (1996) [FLAC] {Hawaiian Boogie}\02 - Immigrant Song.wav

Pre-gap length 0:00:00.03

Peak level 86.4 %
Extraction speed 2.8 X
Track quality 100.0 %
Test CRC B90F2D79
Copy CRC B90F2D79
Track not fully ripped for AccurateRip lookup
Copy OK

Track 3

Filename C:\My Documents\My FLAC\Led Zeppelin - Holiday In Waikiki (1996) [FLAC] {Hawaiian Boogie}\03 - Dazed And Confused.wav

Pre-gap length 0:00:00.03

Peak level 96.6 %
Extraction speed 3.8 X
Track quality 100.0 %
Test CRC 7571A98D
Copy CRC 7571A98D
Track not fully ripped for AccurateRip lookup
Copy OK

Track 4

Filename C:\My Documents\My FLAC\Led Zeppelin - Holiday In Waikiki (1996) [FLAC] {Hawaiian Boogie}\04 - Heartbreaker.wav

Pre-gap length 0:00:00.03

Peak level 90.8 %
Extraction speed 4.3 X
Track quality 100.0 %
Test CRC 351B0258
Copy CRC 351B0258
Track not fully ripped for AccurateRip lookup
Copy OK

Track 5

Filename C:\My Documents\My FLAC\Led Zeppelin - Holiday In Waikiki (1996) [FLAC] {Hawaiian Boogie}\05 - Since I've Been Loving You.wav

Pre-gap length 0:00:00.02

Peak level 89.5 %
Extraction speed 4.7 X
Track quality 100.0 %
Test CRC A788D9BE
Copy CRC A788D9BE
Track not fully ripped for AccurateRip lookup
Copy OK

Track 6

Filename C:\My Documents\My FLAC\Led Zeppelin - Holiday In Waikiki (1996) [FLAC] {Hawaiian Boogie}\06 - What Is And What Should Never Be.wav

Pre-gap length 0:00:00.02

Peak level 96.8 %
Extraction speed 4.2 X
Track quality 99.9 %
Test CRC 993E86B5
Copy CRC 993E86B5
Track not fully ripped for AccurateRip lookup
Copy OK

Track 7

Filename C:\My Documents\My FLAC\Led Zeppelin - Holiday In Waikiki (1996) [FLAC] {Hawaiian Boogie}\07 - Moby Dick.wav

Pre-gap length 0:00:00.02

Peak level 96.8 %
Extraction speed 5.5 X
Track quality 100.0 %
Test CRC 961BA054
Copy CRC 961BA054
Track not fully ripped for AccurateRip lookup
Copy OK

Track 8

Filename C:\My Documents\My FLAC\Led Zeppelin - Holiday In Waikiki (1996) [FLAC] {Hawaiian Boogie}\08 - Whole Lotta Love.wav

Pre-gap length 0:00:00.03

Peak level 96.7 %
Extraction speed 6.1 X
Track quality 100.0 %
Test CRC CA3CE3CE
Copy CRC CA3CE3CE
Track not fully ripped for AccurateRip lookup
Copy OK

Track 9

Filename C:\My Documents\My FLAC\Led Zeppelin - Holiday In Waikiki (1996) [FLAC] {Hawaiian Boogie}\09 - Communication Breakdown.wav

Pre-gap length 0:00:00.03

Peak level 94.8 %
Extraction speed 5.2 X
Track quality 99.9 %
Test CRC E1A31046
Copy CRC E1A31046
Cannot be verified as accurate (confidence 1) [C2C9409C], AccurateRip returned [9BE072D6] (AR v2)
Copy OK


1 track(s) could not be verified as accurate
8 track(s) not fully ripped for AccurateRip lookup

No tracks could be verified as accurate

No errors occurred

End of status report

==== Log checksum FA76FB39B1049B0FBCA7E033A823FEA99A7E73FCC27EA059123ACD8E6529C347 ====


Led Zeppelin - Holiday In Waikiki (1996) {Hawaiian Boogie Recordings} **[RE-UP]**