Subcategories

Led Zeppelin - White Summer (1989) {The Swingin' Pig} **[RE-UP]**

Posted By: TestTickles
Led Zeppelin - White Summer (1989) {The Swingin' Pig} **[RE-UP]**

Led Zeppelin - White Summer (1989) {The Swingin' Pig}
EAC Rip | FLAC with CUE and log | scans | 312 mb
MP3 CBR 320kbps | RAR | 120 mb
Genre: hard rock, blues rock, classic rock

White Summer is a 1989 bootleg CD by Led Zeppelin. This is a soundboard recording done live in London at the Playhouse Theater on 27 June, 1969. It was broadcast on the BBC In Concert programme. These have been released in a legitimate manner but this is a chance to hear it as it has been sold in bootleg form. The CD was released on the Swingin' Pig label in 1989, made in Germany.

Led Zeppelin - White Summer (1989) {The Swingin' Pig} **[RE-UP]**

1. Communication Breakdown (3:13)
2. I Can't Quit You Baby (6:25)
3. Dazed And Confused (11:22)
4. White Summer (8:21)
5. You Shook Me (10:25)
6. How Many More Times (12:57)

Exact Audio Copy V1.1 from 23. June 2015

EAC extraction logfile from 19. January 2016, 11:34

Led Zeppelin / White Summer

Used drive : TEAC DVD-ROM DV-28SW Adapter: 1 ID: 0

Read mode : Secure
Utilize accurate stream : Yes
Defeat audio cache : Yes
Make use of C2 pointers : No

Read offset correction : 6
Overread into Lead-In and Lead-Out : No
Fill up missing offset samples with silence : Yes
Delete leading and trailing silent blocks : No
Null samples used in CRC calculations : Yes
Used interface : Native Win32 interface for Win NT & 2000
Gap handling : Left out

Used output format : Internal WAV Routines
Sample format : 44.100 Hz; 16 Bit; Stereo


TOC of the extracted CD

Track | Start | Length | Start sector | End sector
––––––––––––––––––––––––––––-
1 | 0:00.00 | 3:13.00 | 0 | 14474
2 | 3:13.00 | 6:25.55 | 14475 | 43404
3 | 9:38.55 | 11:22.25 | 43405 | 94579
4 | 21:01.05 | 8:21.55 | 94580 | 132209
5 | 29:22.60 | 10:25.50 | 132210 | 179134
6 | 39:48.35 | 12:57.50 | 179135 | 237459


Track 1

Filename C:\My Documents\My FLAC\Led Zeppelin - White Summer (1989) [FLAC] {Swingin' Pig}\01 - Communication Breakdown.wav

Pre-gap length 0:00:02.00

Peak level 79.0 %
Extraction speed 2.7 X
Track quality 100.0 %
Test CRC 08DDB701
Copy CRC 08DDB701
Accurately ripped (confidence 6) [691710E7] (AR v2)
Copy OK

Track 2

Filename C:\My Documents\My FLAC\Led Zeppelin - White Summer (1989) [FLAC] {Swingin' Pig}\02 - I Can't Quit You Baby.wav

Peak level 77.8 %
Extraction speed 3.3 X
Track quality 100.0 %
Test CRC C2C8316E
Copy CRC C2C8316E
Track not fully ripped for AccurateRip lookup
Copy OK

Track 3

Filename C:\My Documents\My FLAC\Led Zeppelin - White Summer (1989) [FLAC] {Swingin' Pig}\03 - Dazed & Confused.wav

Pre-gap length 0:00:01.50

Peak level 78.9 %
Extraction speed 4.1 X
Track quality 100.0 %
Test CRC CB8E8321
Copy CRC CB8E8321
Track not fully ripped for AccurateRip lookup
Copy OK

Track 4

Filename C:\My Documents\My FLAC\Led Zeppelin - White Summer (1989) [FLAC] {Swingin' Pig}\04 - White Summer.wav

Pre-gap length 0:00:01.53

Peak level 81.6 %
Extraction speed 4.7 X
Track quality 100.0 %
Test CRC 394A14C4
Copy CRC 394A14C4
Track not fully ripped for AccurateRip lookup
Copy OK

Track 5

Filename C:\My Documents\My FLAC\Led Zeppelin - White Summer (1989) [FLAC] {Swingin' Pig}\05 - You Shook Me.wav

Pre-gap length 0:00:03.50

Peak level 82.3 %
Extraction speed 5.2 X
Track quality 100.0 %
Test CRC CA5F3810
Copy CRC CA5F3810
Accurately ripped (confidence 6) [2A245E56] (AR v2)
Copy OK

Track 6

Filename C:\My Documents\My FLAC\Led Zeppelin - White Summer (1989) [FLAC] {Swingin' Pig}\06 - How Many More Times.wav

Peak level 79.1 %
Extraction speed 5.8 X
Track quality 100.0 %
Test CRC 733931D6
Copy CRC 733931D6
Accurately ripped (confidence 6) [FB4EB4C9] (AR v2)
Copy OK


3 track(s) accurately ripped
3 track(s) not fully ripped for AccurateRip lookup

Some tracks could not be verified as accurate

No errors occurred

End of status report

==== Log checksum 5F282D6819C93D673662331AF723A5EE5991639AE5566AA660746382B8682EC5 ====


Led Zeppelin - White Summer (1989) {The Swingin' Pig} **[RE-UP]**