Subcategories

Led Zeppelin - Houses Of The Holy (1973) {West German Target} **[RE-UP]**

Posted By: TestTickles
Led Zeppelin - Houses Of The Holy (1973) {West German Target} **[RE-UP]**

Led Zeppelin - Houses Of The Holy (1973) {West German Target}
EAC Rip | FLAC with CUE and log | scans | 264 mb
MP3 CBR 320kbps | RAR | 106 mb
Genre: hard rock, blues rock, reggae, classic rock

Houses Of The Holy is the fifth album by Led Zeppelin released in 1973. This is the first digital version of this album released around 1988, the "West German Target". It is unremastered, a flat transfer of the existing master tape at the time. You can hear a portion of one of the tape flaws at the very beginning of "Dancing Days". With that exception, this sounds very good and some consider this better than what Atlantic did with different remasterings over the years.

Led Zeppelin - Houses Of The Holy (1973) {West German Target} **[RE-UP]**

1. The Song Remains The Same
2. The Rain Song
3. Over The Hills And Far Away
4. The Crunge Song
5. Dancing Days
6. D'yer Mak'er
7. No Quarter
8. The Ocean

EAC extraction logfile from 24. March 2006, 7:20 for CD
Led Zeppelin / Houses Of The Holy

Used drive : LITE-ON DVDRW SOHW-1633S Adapter: 0 ID: 0
Read mode : Secure with NO C2, accurate stream, disable cache
Read offset correction : 12
Overread into Lead-In and Lead-Out : No

Used output format : Internal WAV Routines
44.100 Hz; 16 Bit; Stereo

Other options :
Fill up missing offset samples with silence : Yes
Delete leading and trailing silent blocks : No
Installed external ASPI interface


Track 1
Filename D:\FLAC\Led Zeppelin - Houses Of The Holy (1973) [FLAC] (West German Target)\01 - The Song Remains The Same.wav

Pre-gap length 0:00:02.44

Peak level 82.6 %
Track quality 100.0 %
Test CRC 08E9B53B
Copy CRC 08E9B53B
Copy OK

Track 2
Filename D:\FLAC\Led Zeppelin - Houses Of The Holy (1973) [FLAC] (West German Target)\02 - The Rain Song.wav

Pre-gap length 0:00:00.04

Peak level 89.1 %
Track quality 100.0 %
Test CRC 493E60F7
Copy CRC 493E60F7
Copy OK

Track 3
Filename D:\FLAC\Led Zeppelin - Houses Of The Holy (1973) [FLAC] (West German Target)\03 - Over The Hills And Far Away.wav

Pre-gap length 0:00:00.02

Peak level 89.1 %
Track quality 100.0 %
Test CRC D978F954
Copy CRC D978F954
Copy OK

Track 4
Filename D:\FLAC\Led Zeppelin - Houses Of The Holy (1973) [FLAC] (West German Target)\04 - The Crunge.wav

Pre-gap length 0:00:00.06

Peak level 90.8 %
Track quality 100.0 %
Test CRC 6101C36A
Copy CRC 6101C36A
Copy OK

Track 5
Filename D:\FLAC\Led Zeppelin - Houses Of The Holy (1973) [FLAC] (West German Target)\05 - Dancing Days.wav

Pre-gap length 0:00:00.50

Peak level 92.7 %
Track quality 100.0 %
Test CRC 6D7F5F53
Copy CRC 6D7F5F53
Copy OK

Track 6
Filename D:\FLAC\Led Zeppelin - Houses Of The Holy (1973) [FLAC] (West German Target)\06 - D'yer Mak'er.wav

Pre-gap length 0:00:00.90

Peak level 89.4 %
Track quality 99.9 %
Test CRC CC3CD3CB
Copy CRC CC3CD3CB
Copy OK

Track 7
Filename D:\FLAC\Led Zeppelin - Houses Of The Holy (1973) [FLAC] (West German Target)\07 - No Quarter.wav

Pre-gap length 0:00:01.10

Peak level 89.9 %
Track quality 100.0 %
Test CRC E728EDAD
Copy CRC E728EDAD
Copy OK

Track 8
Filename D:\FLAC\Led Zeppelin - Houses Of The Holy (1973) [FLAC] (West German Target)\08 - The Ocean.wav

Pre-gap length 0:00:00.04

Peak level 90.9 %
Track quality 100.0 %
Test CRC 4072FAA7
Copy CRC 4072FAA7
Copy OK

No errors occured


End of status report


Led Zeppelin - Houses Of The Holy (1973) {West German Target} **[RE-UP]**