Subcategories

L.A. Guns - Hellraisers Ball: Caught In The Act (2008)

Posted By: popsakov
L.A. Guns - Hellraisers Ball: Caught In The Act (2008)

L.A. Guns - Hellraisers Ball: Caught In The Act (2008)
EAC Rip | FLAC (Img) + Cue + Log ~ 507 Mb | MP3 CBR320 ~ 164 Mb
Full Scans ~ 105 Mb | RAR 5% Recovery
Hard Rock, Glam | Secret Records Limited #CRIDE 91

Hellraisers Ball: Caught in the Act is a live music album by the L.A. Guns, released in 2008. It is the only album to feature Keri Kelli (lead guitar) and Brent Muscat (guitar). Recorded Live at Penningtons, Bradford 8th April 2003.

L.A. Guns are an American hard rock band from Los Angeles, California, formed in 1983. The band currently consists of Tracii Guns (lead guitar), Phil Lewis (lead vocals), Ace Von Johnson on (rhythm guitar, backing vocals), Johnny Martin (bass guitar, backing vocals) and Scot Coogan (drums). The first incarnation of the group was formed by Tracii Guns and Rob Gardner in 1983 and merged with fellow Los Angeles group the defunct Hollywood Rose to form Guns N' Roses in March 1985. Later that year, the group was reformed by Guns and singer Paul Black, who added new members Mick Cripps, Robert Stoddard, and Nickey Alexander. Black would soon be replaced by former Girl singer Phil Lewis while former Faster Pussycat bassist Kelly Nickels was added to the group. Later, Alexander would be replaced by former W.A.S.P. drummer Steve Riley with this being known as the "classic lineup" of L.A. Guns. They achieved moderate chart success in the late 1980s and early 1990s. However, the group went through numerous lineup changes (with Riley being the most consistent member) and failed to regain mainstream attention.

The "classic lineup" of the group would reunite in 1999 and began recording new material. However, the group continued to change lineups and Guns eventually left to form the hard rock supergroup Brides of Destruction with Nikki Sixx of Mötley Crüe in 2002. L.A. Guns continued without Guns, bringing in guitarist Stacey Blades, however, following his decision to put Brides of Destruction on hiatus in 2006, Guns formed The Tracii Guns Band. The group's lineup consisted of former L.A. Guns members Black, Alexander as well as Jeremy Guns (though the lineup would eventually change), with the group eventually changing their name to L.A. Guns. Both groups continued to record and tour under the L.A. Guns moniker until 2012, when the Tracii Guns-led version of the group disbanded.

To date, L.A. Guns have released twelve studio albums – L.A. Guns (1988); Cocked & Loaded (1989); Hollywood Vampires (1991); Vicious Circle (1994); American Hardcore (1996); Shrinking Violet (1999); Man in the Moon (2001); Waking the Dead (2002); Tales from the Strip (2005); Hollywood Forever (2012); The Missing Peace (2017); and The Devil You Know (2019); two extended plays – Cuts (1992); Wasted (1998) as well as a number of live and compilation albums.

~ Wiki

***************

L.A. Guns - Hellraisers Ball: Caught In The Act (2008)

Track List:

01. Over The Edge [5:26]
02. Kiss My Love Goodbye [4:29]
03. Never Enough [4:22]
04. Sex Action [4:33]
05. Revolution [4:10]
06. Long Time Dead [9:11]
07. Beautiful [4:54]
08. Hellraisers Ball [4:09]
09. Don't Look At Me That Way [4:55]
10. One More Reason [5:00]
11. Electric Gypsy [5:25]
12. The Ballad Of Jayne [5:42]
13. Rip And Tear [5:50]

Exact Audio Copy V1.0 beta 3 from 29. August 2011

EAC extraction logfile from 14. August 2019, 1:50

L.A. Guns / Hellraisers Ball Caught In The Act

Used drive : PIONEER BD-RW BDR-TD03 Adapter: 0 ID: 1

Read mode : Secure
Utilize accurate stream : Yes
Defeat audio cache : Yes
Make use of C2 pointers : No

Read offset correction : 667
Overread into Lead-In and Lead-Out : No
Fill up missing offset samples with silence : Yes
Delete leading and trailing silent blocks : No
Null samples used in CRC calculations : Yes
Used interface : Native Win32 interface for Win NT & 2000

Used output format : User Defined Encoder
Selected bitrate : 768 kBit/s
Quality : High
Add ID3 tag : No
Command line compressor : C:\Program Files (x86)\Exact Audio Copy\FLAC\FLAC.EXE
Additional command line options : -V -8 -T "Date=%year%" -T "Genre=%genre%" %source%


TOC of the extracted CD

Track | Start | Length | Start sector | End sector
––––––––––––––––––––––––––––-
1 | 0:00.00 | 5:25.42 | 0 | 24416
2 | 5:25.42 | 4:28.47 | 24417 | 44563
3 | 9:54.14 | 4:22.36 | 44564 | 64249
4 | 14:16.50 | 4:33.04 | 64250 | 84728
5 | 18:49.54 | 4:09.51 | 84729 | 103454
6 | 22:59.30 | 9:11.29 | 103455 | 144808
7 | 32:10.59 | 4:53.68 | 144809 | 166851
8 | 37:04.52 | 4:08.56 | 166852 | 185507
9 | 41:13.33 | 4:54.40 | 185508 | 207597
10 | 46:07.73 | 4:59.69 | 207598 | 230091
11 | 51:07.67 | 5:25.19 | 230092 | 254485
12 | 56:33.11 | 5:41.52 | 254486 | 280112
13 | 62:14.63 | 5:50.33 | 280113 | 306395


Range status and errors

Selected range

Filename C:\Users\Deris\Desktop\LAGUN08\L.A. Guns - Hellraisers Ball Caught In The Act.wav

Peak level 96.7 %
Extraction speed 4.9 X
Range quality 99.9 %
Test CRC 99DD3D26
Copy CRC 99DD3D26
Copy OK

No errors occurred


AccurateRip summary

Track 1 not present in database
Track 2 not present in database
Track 3 not present in database
Track 4 not present in database
Track 5 not present in database
Track 6 not present in database
Track 7 not present in database
Track 8 not present in database
Track 9 not present in database
Track 10 not present in database
Track 11 not present in database
Track 12 not present in database
Track 13 not present in database

None of the tracks are present in the AccurateRip database

End of status report

–– CUETools DB Plugin V2.1.3

[CTDB TOCID: KQkG7Rc1qGr72dpf9C2lw.wWuiA-] disk not present in database, Submit result: KQkG7Rc1qGr72dpf9C2lw.wWuiA- has been uploaded


==== Log checksum B2F2C3606D7FBCCDFD7F9B24968DD1D0644B6B2E3B082C56E04E61763E5C7162 ====

L.A. Guns - Hellraisers Ball: Caught In The Act (2008)

See also:
L.A. Guns - The Devil You Know (2019)

All thanks go to Boris1

>>> My Blog <<<

DOWNLOAD: