Subcategories

L.A. Guns - L.A. Guns (1988) Japanese Edition

Posted By: Designol
L.A. Guns - L.A. Guns (1988) Japanese Edition

L.A. Guns - L.A. Guns (1988) Japanese Edition
EAC | FLAC | Image (Cue&Log) ~ 286 Mb (incl 5%) | Mp3 (CBR320) ~ 99 Mb (incl 5%) | Scans ~ 153 Mb
Genre: Hard Rock, Glam Metal | Label: Vertigo/Nippon | # PHCR-4130 | Time: 00:40:42

Even amidst the already seedy underbelly of the late-'80s L.A. glam metal scene, L.A. Guns were the undisputed bottom-feeders. A ragged collection of outcasts from various other bands (guitarist Tracii Guns was the original "guns" in Guns n' Roses, drummer Steven Riley had recently vacated the stool with shock-kings W.A.S.P., and British vocalist Phil Lewis had done time with London glamsters Girl), they elevated the unrepentant sleaziness and undeniable tackiness of their environment to a new VD-encrusted low. The union of such an unsavory cast of characters could only result in a wildly over-the-top rock & roll album, and while it may not have been as successful as their latest efforts, this eponymous debut rocked with a bile and fury not seen since Mötley Crüe's Shout at the Devil. Sh*t-kicking anthems like "No Mercy," "Sex Action," "One More Reason," and the marvelous "Bitch Is Back" slap the listener silly while still making room for slightly more commercial but equally hot offerings such as "Electric Gypsy" and "Down in the City." And despite clashing terribly with its surroundings, "One Way Ticket" is a surprisingly effective power ballad. Fun, fun, fun.

Review by Eduardo Rivadavia, Allmusic.com

L.A. Guns - L.A. Guns (1988) Japanese Edition



Tracklist:

01. No Mercy (02:47)
02. Sex Action (03:41)
03. One More Reason (03:07)
04. Electric Gypsy (03:25)
05. Nothing To Lose (04:10)
06. Bitch Is Back (02:52)
07. Cry No More (01:18)
08. One Way Ticket (04:19)
09. Hollywood Tease (02:52)
10. Shoot For Thrills (04:29)
11. Down In The City (03:55)
12. Winters Fool (03:40)


Exact Audio Copy V1.1 from 23. June 2015

EAC extraction logfile from 12. March 2016, 16:11

L.A. Guns / L.A. Guns

Used drive : TSSTcorpCDDVDW SH-S202H Adapter: 1 ID: 0

Read mode : Secure
Utilize accurate stream : Yes
Defeat audio cache : Yes
Make use of C2 pointers : No

Read offset correction : 6
Overread into Lead-In and Lead-Out : No
Fill up missing offset samples with silence : Yes
Delete leading and trailing silent blocks : No
Null samples used in CRC calculations : Yes
Used interface : Native Win32 interface for Win NT & 2000

Used output format : User Defined Encoder
Selected bitrate : 768 kBit/s
Quality : High
Add ID3 tag : No
Command line compressor : C:\Program Files\Exact Audio Copy\FLAC\FLAC.EXE
Additional command line options : -6 -V -T "ARTIST=%artist%" -T "TITLE=%title%" -T "ALBUM=%albumtitle%" -T "DATE=%year%" -T "TRACKNUMBER=%tracknr%" -T "GENRE=%genre%" -T "COMMENT=%comment%" -T "BAND=%albuminterpret%" -T "ALBUMARTIST=%albuminterpret%" -T "COMPOSER=%composer%" %haslyrics%–tag-from-file=LYRICS="%lyricsfile%"%haslyrics% -T "DISCNUMBER=%cdnumber%" -T "TOTALDISCS=%totalcds%" -T "TOTALTRACKS=%numtracks%" %hascover%–picture="%coverfile%"%hascover% %source% -o %dest%


TOC of the extracted CD

Track | Start | Length | Start sector | End sector
––––––––––––––––––––––––––––-
1 | 0:00.37 | 2:47.40 | 37 | 12601
2 | 2:48.02 | 3:41.08 | 12602 | 29184
3 | 6:29.10 | 3:07.17 | 29185 | 43226
4 | 9:36.27 | 3:25.38 | 43227 | 58639
5 | 13:01.65 | 4:11.00 | 58640 | 77464
6 | 17:12.65 | 2:52.62 | 77465 | 90426
7 | 20:05.52 | 1:18.60 | 90427 | 96336
8 | 21:24.37 | 4:19.70 | 96337 | 115831
9 | 25:44.32 | 2:52.28 | 115832 | 128759
10 | 28:36.60 | 4:29.05 | 128760 | 148939
11 | 33:05.65 | 3:55.72 | 148940 | 166636
12 | 37:01.62 | 3:40.23 | 166637 | 183159


Range status and errors

Selected range

Filename K:\shteeren\L.A. Guns - L.A. Guns.wav

Peak level 100.0 %
Extraction speed 2.9 X
Range quality 100.0 %
Test CRC 86583396
Copy CRC 86583396
Copy OK

No errors occurred


AccurateRip summary

Track 1 accurately ripped (confidence 4) [837CF1A9] (AR v2)
Track 2 accurately ripped (confidence 4) [A458856B] (AR v2)
Track 3 accurately ripped (confidence 4) [B446C7D3] (AR v2)
Track 4 accurately ripped (confidence 4) [936F64EB] (AR v2)
Track 5 accurately ripped (confidence 4) [1B99D5ED] (AR v2)
Track 6 accurately ripped (confidence 4) [974705B4] (AR v2)
Track 7 accurately ripped (confidence 4) [F3B91695] (AR v2)
Track 8 accurately ripped (confidence 4) [BA14B23A] (AR v2)
Track 9 accurately ripped (confidence 4) [7AF9B7EA] (AR v2)
Track 10 accurately ripped (confidence 4) [1BE27FBD] (AR v2)
Track 11 accurately ripped (confidence 4) [FCC3DDB4] (AR v2)
Track 12 accurately ripped (confidence 5) [8C997498] (AR v2)

All tracks accurately ripped

End of status report

–– CUETools DB Plugin V2.1.6

[CTDB TOCID: SimdcxfYrvS2oQ1TusuSlvpkIqg-] found
Submit result: SimdcxfYrvS2oQ1TusuSlvpkIqg- has been confirmed
Track | CTDB Status
1 | (7/7) Accurately ripped
2 | (7/7) Accurately ripped
3 | (7/7) Accurately ripped
4 | (7/7) Accurately ripped
5 | (7/7) Accurately ripped
6 | (7/7) Accurately ripped
7 | (7/7) Accurately ripped
8 | (7/7) Accurately ripped
9 | (7/7) Accurately ripped
10 | (7/7) Accurately ripped
11 | (7/7) Accurately ripped
12 | (7/7) Accurately ripped

foobar2000 1.2 / Dynamic Range Meter 1.1.1
log date: 2016-06-20 15:26:35

––––––––––––––––––––––––––––––––––––––––
Analyzed: L.A. Guns / L.A. Guns
––––––––––––––––––––––––––––––––––––––––

DR Peak RMS Duration Track
––––––––––––––––––––––––––––––––––––––––
DR13 -0.01 dB -14.73 dB 2:48 01-No Mercy
DR13 -0.01 dB -14.67 dB 3:41 02-Sex Action
DR13 -0.12 dB -15.44 dB 3:07 03-One More Reason
DR13 -0.13 dB -15.80 dB 3:26 04-Electric Gypsy
DR13 -0.02 dB -16.46 dB 4:11 05-Nothing To Lose
DR13 -0.68 dB -15.33 dB 2:53 06-Bitch Is Back
DR11 -11.25 dB -25.01 dB 1:19 07-Cry No More
DR12 0.00 dB -16.94 dB 4:20 08-One Way Ticket
DR13 -0.52 dB -15.59 dB 2:52 09-Hollywood Tease
DR14 -0.61 dB -16.45 dB 4:29 10-Shoot For Thrills
DR14 -0.95 dB -17.30 dB 3:56 11-Down In The City
DR14 -1.80 dB -17.01 dB 3:40 12-Winters Fool
––––––––––––––––––––––––––––––––––––––––

Number of tracks: 12
Official DR value: DR13

Samplerate: 44100 Hz
Channels: 2
Bits per sample: 16
Bitrate: 933 kbps
Codec: FLAC
================================================================================

L.A. Guns - L.A. Guns (1988) Japanese Edition

L.A. Guns - L.A. Guns (1988) Japanese Edition

All thanks to original releaser - shteeren

More interesting music in My Blog