Subcategories

La Tempestad, Olalla Aleman, Xavier Sabata - Sopranos y Castrati en el Londres de Farinelli 'Caro dardo' (2008)

Posted By: ArlegZ
La Tempestad, Olalla Aleman, Xavier Sabata - Sopranos y Castrati en el Londres de Farinelli 'Caro dardo' (2008)

La Tempestad, Olalla Alemán, Xavier Sabata - Sopranos y Castrati en el Londres de Farinelli 'Caro dardo' (2008)
EAC | FLAC | Image (Cue & Log) ~ 315 Mb | Total time: 57:57 | Scans included
Classical | Label: Musica Antigua Aranjuez | # MAA 006 | Recorded: 2007

La Tempestad se ha presentado al público en Festivales como los de Aranjuez, Cádiz, Sevilla, Marbella, Murcia, Santillana del Mar, Valladolid, Almería, Daroca, Zaragoza, etc. Sus miembros, formados en importantes conservatorios europeos (Toulouse, Viena, Amsterdam, La Haya), han formado parte de Al Ayre Español, La Real Cámara, El Concierto Español, Amsterdam Baroque Orchestra, Orchestra of the XVIII Century, European Union Baroque Orchestra, La Stravaganza, Orquesta Barroca de Sevilla, etc., con quienes han actuado por España, Europa, Israel y China.
“Este es el ambiente y la realidad musical que ha querido reflejar en esta nueva grabación el grupo La Tempestad con una selección de arias y duetos de obras de Domenico Scarlatti, Niccola Porpora, Francisco Maria Veracini y Georg F. Haendel. Dos de las voces españolas más importantes en este repertorio barroco -Olalla Alemán y Xavier Sabata- protagonizan este recital en el que La Tempestad intercala igualmente un bello concierto de Thomas Arne que pone en evidencia la excelencia interpretativa de un grupo absolutamente imprescindible”
(Revista Variaciones)

Performer:
Olalla Alemán, Soprano
Xavier Sabata, Contratenor
Silvia Márquez, Clave
La Tempestad

Track List:
Domenico Scarlatti (1685-1757)
01. Narcissus: Dio d'amor (duetto)
02. Narcissus: Caro dardo
Thomas Roseingrave (1680-1766)
03. Narcissus: Rivolgo il passo altrove (duetto)
Niccola Porpora (1686-1766)
04. Polifemo: Senti il fato
Johann Adolf Hasse (1685-1757)
05. Artaxerxes: Pallido il sole
Thomas Arne (1685-1757)
06. Concierto para clave No. 5 en sol menor: I. Largo
07. II. Allegro con spirito
08. III. Adagio
09. IV. Vivace
Francesco Maria Veracini (1690-1768)
10. Adriano: Prendi o cara (duetto)
Georg Friedrich Haendel (1685-1759)
11. Rodelinda: Ombre, piante
12. Rodelinda: Io t'abbraccio (duetto)
13. Rodelinda: Vivi tiranno
14. Faramondo: Vado e vivo (duetto)


Exact Audio Copy V1.3 from 2. September 2016

EAC extraction logfile from 25. January 2018, 22:11

La Tempestad, Olalla Aleman, Xavier Sabata / Sopranos y Castrati en el Londres de Farinelli 'Caro dardo'

Used drive : HL-DT-STDVDRAM GH24NS95 Adapter: 1 ID: 0

Read mode : Secure
Utilize accurate stream : Yes
Defeat audio cache : Yes
Make use of C2 pointers : No

Read offset correction : 6
Overread into Lead-In and Lead-Out : No
Fill up missing offset samples with silence : Yes
Delete leading and trailing silent blocks : No
Null samples used in CRC calculations : Yes
Used interface : Native Win32 interface for Win NT & 2000

Used output format : User Defined Encoder
Selected bitrate : 128 kBit/s
Quality : High
Add ID3 tag : No
Command line compressor : C:\Program Files\Exact Audio Copy\Flac\flac.exe
Additional command line options : -V -8 -T "Date=%year%" -T "Genre=%genre%" %source%


TOC of the extracted CD

Track | Start | Length | Start sector | End sector
––––––––––––––––––––––––––––-
1 | 0:00.00 | 3:31.47 | 0 | 15871
2 | 3:31.47 | 2:04.56 | 15872 | 25227
3 | 5:36.28 | 2:11.38 | 25228 | 35090
4 | 7:47.66 | 8:28.14 | 35091 | 73204
5 | 16:16.05 | 4:05.20 | 73205 | 91599
6 | 20:21.25 | 2:07.11 | 91600 | 101135
7 | 22:28.36 | 4:12.58 | 101136 | 120093
8 | 26:41.19 | 1:29.57 | 120094 | 126825
9 | 28:11.01 | 5:05.55 | 126826 | 149755
10 | 33:16.56 | 4:04.51 | 149756 | 168106
11 | 37:21.32 | 5:31.55 | 168107 | 192986
12 | 42:53.12 | 6:44.50 | 192987 | 223336
13 | 49:37.62 | 2:21.01 | 223337 | 233912
14 | 51:58.63 | 5:56.41 | 233913 | 260653


Range status and errors

Selected range

Filename C:\Program Files\Exact Audio Copy\Flac\Sopranos y Castrati en el Londres de Farinelli 'Caro dardo'.wav

Peak level 98.6 %
Extraction speed 7.2 X
Range quality 99.9 %
Test CRC 6FAFC83D
Copy CRC 6FAFC83D
Copy OK

No errors occurred

End of status report

==== Log checksum E7B623CA9E2873D87F55B647E526656902586508EEAE29CB61F65C09B1C5F984 ====

La Tempestad, Olalla Aleman, Xavier Sabata - Sopranos y Castrati en el Londres de Farinelli 'Caro dardo' (2008)