Subcategories

Chamber Orchestra of Europe - Lachrymae - Music for Strings: Purcell, Britten, Part, Vaughan Williams, Walton, Tippett (2012)

Posted By: Designol
Chamber Orchestra of Europe - Lachrymae - Music for Strings: Purcell, Britten, Part, Vaughan Williams, Walton, Tippett (2012)

Lachrymae - Music for Strings: Purcell, Britten, Pärt, Vaughan Williams, Walton, Tippett (2012)
Chamber Orchestra of Europe; Nicolas Bône (viola)
Douglas Boyd, William Conway, Richard Egarr (conductors)

EAC | FLAC | Image (Cue&Log) ~ 288 Mb | Mp3 (CBR320) ~ 175 Mb | Scans included
Genre: Classical | Label: Apex | # 2564 66070-5 | Time: 01:12:00

This CD is one of two Warner Classics recordings taped live during a series of concerts presented by the world renowned Chamber Orchestra of Europe during Easter Week 2003. The title for the concert series, presented in London, was Passions and Diversions as the works relate to different aspects of reflection and inspiration. In this program, Britten and Stokowski interpret works by Purcell in their own idioms; Britten draws on his English musical roots to inspire an original work, Lachrymae and Britten himself is the source of inspiration in Pärt’s Cantus. In the case of the Vaughan Williams, Tippett and Walton works, the inspirations are other composers and literature. The Chamber Orchestra of Europe has been described in The Financial Times as “the best orchestra in Europe.” The COE was founded in 1981 and has a membership of 50 musicians from 15 countries who perform together mainly in continental Europe and occasionally in the US and Japan. Since its inception, it has appeared with the world’s leading conductors and soloists, and its recordings have consistently won the highest praise and international prizes, including three Gramophone “Record of the Year” awards.

A compilation of works sharing the theme of lamentation, this CD offers a captivating selection for those wishing to wallow in melancholia. Recorded live from St John’s Smith Square, the Chamber Orchestra of Europe gives top quality performances of some wonderful pieces.… if, that is, one can ignore the compulsive sniffer whose heavy sighs pervade the disc…

Purcell commences the proceedings with the Chacony in G minor, arranged by Benjamin Britten. Richard Egarr conducts a dynamic and sensitive performance, characterful, well paced and with good intonation.

Britten's Lachrymae, from which the disc takes its title, is a set of variations on the opening part of Dowland’s song If my complaints could passions move. Conducted by William Conway, and with Nicolas Bone as viola soloist, it is here played in its later version, the piano part rearranged by Britten for strings. This is where the sniffer really comes into his own - the sobs of the score are compounded by his deep intakes of breath, amplifying the sense of disconsolation and depression in the listener! If one can ignore these rather infuriating interruptions, the piece is admirably performed – it is suitably chilling with good contrasts, especially when the earthy pizzicato is played off against the ethereal string sound. Britten’s prolific use of pizzicato throughout encapsulates a sense of falling tears, true to the title, and this is here effectively intimated.

This followed by Arvo Pärt's gorgeous Cantus In Memoriam Benjamin Britten, which is aptly throbbing and vibrant, concluding with the bell beautifully resonant but discreet. Richard Egarr conducts a strong and rather touching rendition.

Arrangements such as the ensuing Stokowski’s version of Dido's Lament (from Purcell’s Dido and Aeneas – “When I am laid in earth”) have become rather unfashionable recently, but this is rather good version albeit possibly slightly too lengthy. The playing, conducted this time by Douglas Boyd, as for the rest of the tracks, is moving and spirited; tender without being over-emotional.

Vaughan Williams’ Fantasia on a theme of Thomas Tallis next. Howells and Gurney were ecstatic at the first performance of this in Gloucester in 1910 and it is easy to see why. This is the classic RVW sound, with reverberant modal harmonies and a soaring melody. Unfortunately, this piece is also marred by our friend the heavy sniffer. It is otherwise a luscious and resonant interpretation. The Chamber Orchestra of Europe avoid the trap of taking it too slow but play at a good pace, and capture the open shimmering string sound effectively.

Walton features with two pieces - the Passacaglia: The Death of Falstaff from Henry V and Touch Her Soft Lips and Part, from the same work. These are slightly laboured performances of both works and not enhanced by the ponderous inhalations of Mr Snuffles, yet the intonation is good and rich.

The disc concludes with Tippett's Fantasia concertante on a Theme Of Corelli, a fiendishly difficult work, which the Chamber Orchestra of Europe seem to have mastered with ease and accomplishment giving a dashing and proficient delivery to conclude the disc.

These pieces work well together, as does the idea of collating similar threnodies. One hopes that the fact that all these lachrymosal pieces, bar the Part, are English is not meant to be a reflection upon the character of the British (!), but it is good to have a disc bringing together such a delightful selection of works to show off the world-class standard of British composition. However, it would have been even better had the compilation included some unknown or lesser-known English music rather than just including the well-known works. I would certainly recommend this to anyone of lugubrious disposition or to those interested in exploring the exciting world of English music.

Review by Em Marshall, MusicWeb-International.com

Chamber Orchestra of Europe at Allmusic
Chamber Orchestra of Europe Website
Chamber Orchestra of Europe at Wiki

Nicolas Bône, viola (2);
Chamber Orchestra of Europe
Conductors:
Richard Egarr (1, 4)
Douglas Boyd (5-8)
William Conway (2-3)

Recorded live, Mar. 24 and 31, 2003, St. John's Smith Square, London

Tracklist:

Henry Purcell (1659-1695)
01. Chacony in G minor (arr. Britten) - 06:42

Benjamin Britten (1913-1976)
02. Lachrymae, op. 48a - 14:49

Arvo Pärt (b. 1935)
03. Cantus in Memorium Benjamin Britten - 06:09

Henry Purcell
04. "When I am laid in earth" [Dido's Lament] (from "Dido and Aeneas", arr. Stokowski) - 04:18

Ralph Vaughan Williams (1872-1958)
05. Fantasia on a Theme by Thomas Tallis - 16:16

William Walton (1902-1983) - from "Incidental Music to Henry V"
06. Passacaglia: "The Death of Falstaff" - 03:05
07. "Touch her soft lips and part" - 01:56

Michael Tippett (1905-1998)
08. Fantasia Concertante on a Theme of Corelli - 18:46


Exact Audio Copy V1.3 from 2. September 2016

Отчёт EAC об извлечении, выполненном 22. февраля 2018, 18:57

Nicolas Bône & Chamber Orchestra of Europe (conducted by Douglas Boyd, William Conway, Richard Egarr) / Lachrymae - Music for Strings: Purcell / Britten / Pärt / Vaughan Williams / Walton / Tippett

Дисковод: PIONEER DVD-RW DVR-215D Adapter: 1 ID: 3

Режим чтения : Достоверность
Использование точного потока : Да
Отключение кэша аудио : Да
Использование указателей C2 : Нет

Коррекция смещения при чтении : 48
Способность читать области Lead-in и Lead-out : Нет
Заполнение пропущенных сэмплов тишиной : Да
Удаление блоков с тишиной в начале и конце : Нет
При вычислениях CRC использовались нулевые сэмплы : Да
Интерфейс : Встроенный Win32-интерфейс для Win NT/2000

Выходной формат : Пользовательский кодировщик
Выбранный битрейт : 128 kBit/s
Качество : Высокий
Добавление ID3-тега : Нет
Утилита сжатия : C:\Program Files\Exact Audio Copy\Flac\flac.exe
Дополнительные параметры : -V -8 -T "Date=%year%" -T "Genre=%genre%" %source%


TOC извлечённого CD

Трек | Старт | Длительность | Начальный сектор | Конечный сектор
––––––––––––––––––––––––––––––––––-
1 | 0:00.00 | 6:41.53 | 0 | 30127
2 | 6:41.53 | 14:49.04 | 30128 | 96806
3 | 21:30.57 | 6:08.63 | 96807 | 124469
4 | 27:39.45 | 4:17.48 | 124470 | 143792
5 | 31:57.18 | 16:16.03 | 143793 | 216995
6 | 48:13.21 | 3:04.40 | 216996 | 230835
7 | 51:17.61 | 1:55.68 | 230836 | 239528
8 | 53:13.54 | 18:46.04 | 239529 | 323982


Характеристики диапазона извлечения и сообщения об ошибках

Выбранный диапазон

Имя файла C:\Lachrymae - Music for Strings (Purcell, Britten, Part, Vaughan Williams, Walton, Tippett).wav

Пиковый уровень 100.0 %
Скорость извлечения 7.7 X
Качество диапазона 100.0 %
CRC теста 8C8F879F
CRC копии 8C8F879F
Копирование… OK

Ошибок не произошло


AccurateRip: сводка

Трек 1 : извлечено точно (доверие 1) [57DC612F] (AR v2)
Трек 2 : извлечено точно (доверие 1) [38E2DBB6] (AR v2)
Трек 3 : извлечено точно (доверие 1) [3CD7F49C] (AR v2)
Трек 4 : извлечено точно (доверие 1) [5D070C4F] (AR v2)
Трек 5 : извлечено точно (доверие 1) [28EF6A96] (AR v2)
Трек 6 : извлечено точно (доверие 1) [BFA7EA98] (AR v2)
Трек 7 : извлечено точно (доверие 1) [301B43EC] (AR v2)
Трек 8 : извлечено точно (доверие 1) [92076308] (AR v2)

Все треки извлечены точно

Конец отчёта

–– CUETools DB Plugin V2.1.6

[CTDB TOCID: n9euDG._VgJW2t0L0C6SabNIYKw-] found
Submit result: n9euDG._VgJW2t0L0C6SabNIYKw- has been confirmed
Track | CTDB Status
1 | (7/7) Accurately ripped
2 | (7/7) Accurately ripped
3 | (7/7) Accurately ripped
4 | (7/7) Accurately ripped
5 | (7/7) Accurately ripped
6 | (7/7) Accurately ripped
7 | (7/7) Accurately ripped
8 | (7/7) Accurately ripped


==== Контрольная сумма отчёта 8822C4A185C226849E207A12F78ED01E6F865510A3FE2B03BFB11A9CFB13A941 ====

foobar2000 1.2 / Dynamic Range Meter 1.1.1
log date: 2018-03-23 18:28:00

––––––––––––––––––––––––––––––––––––––––
Analyzed: Chamber Orchestra of Europe (conducted by Douglas Boyd) / Lachrymae - Music for Strings: Purcell / Britten / Part / Vaughan Williams / …
––––––––––––––––––––––––––––––––––––––––

DR Peak RMS Duration Track
––––––––––––––––––––––––––––––––––––––––
DR15 -5.19 dB -25.65 dB 16:16 05-Ralph Vaughan Williams - Fantasia on a theme by Thomas Tallis
DR12 -11.25 dB -30.30 dB 3:05 06-William Walton - Passacaglia: Death of Falstaff (from 'Henry V')
DR12 -13.65 dB -31.33 dB 1:56 07-William Walton - Touch her soft lips and part (from 'Henry V')
DR19 0.00 dB -23.66 dB 18:46 08-Michael Tippett - Fantasia concertante on a Theme of Corelli
––––––––––––––––––––––––––––––––––––––––

Number of tracks: 4
Official DR value: DR14

Samplerate: 44100 Hz
Channels: 2
Bits per sample: 16
Bitrate: 539 kbps
Codec: FLAC
================================================================================

––––––––––––––––––––––––––––––––––––––––
Statistics for: 04-Henry Purcell - Dido's Lament (When I am laid in earth) (from 'Dido and Aenea…
Number of samples: 11361924
Duration: 4:18
––––––––––––––––––––––––––––––––––––––––

Left Right

Peak Value: -7.14 dB –- -7.33 dB
Avg RMS: -26.39 dB –- -25.83 dB
DR channel: 12.83 dB –- 11.60 dB
––––––––––––––––––––––––––––––––––––––––

Official DR Value: DR12

Samplerate: 44100 Hz
Channels: 2
Bits per sample: 16
Bitrate: 539 kbps
Codec: FLAC
================================================================================
––––––––––––––––––––––––––––––––––––––––
Analyzed: Chamber Orchestra of Europe (conducted by William Conway) / Lachrymae - Music for Strings: Purcell / Britten / Part / Vaughan Williams / …
––––––––––––––––––––––––––––––––––––––––

DR Peak RMS Duration Track
––––––––––––––––––––––––––––––––––––––––
DR13 -3.32 dB -22.52 dB 6:42 01-Henry Purcell - Chacony in G minor, arr. Britten
DR12 -6.42 dB -22.81 dB 6:09 03-Arvo Part - Cantus in Memoriam Benjamin Britten
––––––––––––––––––––––––––––––––––––––––

Number of tracks: 2
Official DR value: DR12

Samplerate: 44100 Hz
Channels: 2
Bits per sample: 16
Bitrate: 539 kbps
Codec: FLAC
================================================================================

––––––––––––––––––––––––––––––––––––––––
Statistics for: 02-Benjamin Britten - Lacrymae, op. 48a (version for viola and strings)
Number of samples: 39207252
Duration: 14:49
––––––––––––––––––––––––––––––––––––––––

Left Right

Peak Value: -3.06 dB –- -4.73 dB
Avg RMS: -28.22 dB –- -26.77 dB
DR channel: 17.85 dB –- 15.82 dB
––––––––––––––––––––––––––––––––––––––––

Official DR Value: DR17

Samplerate: 44100 Hz
Channels: 2
Bits per sample: 16
Bitrate: 539 kbps
Codec: FLAC
================================================================================

Chamber Orchestra of Europe - Lachrymae - Music for Strings: Purcell, Britten, Part, Vaughan Williams, Walton, Tippett (2012)

All thanks to original releaser - rocker593

More interesting music in My Blog