Lamb (Barbara Mauritz) - Bring Out The Sun (1971) [Reissue 2009]

Posted By: gribovar
Lamb (Barbara Mauritz) - Bring Out The Sun (1971) [Reissue 2009]

Lamb (Barbara Mauritz) - Bring Out The Sun (1971) [Reissue 2009]
EAC Rip | FLAC (tracks+.cue+log) - 189 MB | MP3 CBR 320 kbps (LAME 3.93) - 80 MB | Covers - 23 MB
Genre: Rock, Folk, Jazz | RAR 3% Rec. | Label: Collector's Choice (CCM-2081)

Whether it was the intention of Barbara Mauritz or someone on the business side of her affairs, Bring Out the Sun leaves the impression that she was being groomed for a solo career. The impression is hardly subtle or accidental: the album is co-billed to Barbara Mauritz and Lamb, and although Lamb co-founder Bob Swanson is still aboard as guitarist and (on half of the tracks) as a sole or collaborating composer, there are some songs on which he doesn't play at all. Lamb's second album, Cross Between, had a much higher proportion of gospel-oriented material than their debut, and Bring Out the Sun continues the move to contemporary gospel-rock of sorts, particularly on side one. As a consequence, it's by a considerable margin the most mainstream of Lamb's albums, and also by a considerable margin the least interesting. That hardly means that it's bad: Mauritz is quite a soulful singer, and the way she handles gospel-slanted stuff is reminiscent of the way another idiosyncratic vocalist, Annisette of Savage Rose, performed gospel-rock on some of the early-'70s Savage Rose albums (though Annisette was considerably quirkier). But the gospel-soul-ragtime-slanted tunes have a simpler, more upbeat tone that isn't nearly as intriguing as Lamb's more ambitious recordings, although one, "River of Boulevard," became Mauritz's best-known composition when it was covered by the Pointer Sisters on their self-titled Top 20 album in 1973. Yet side two gets considerably more interesting, "Salty" allowing Mauritz her furthest stretch into jazz torch singing territory. And, oddly, "The Vine" and "Live to Your Heart" end the album on its most adventurous note. Both songs sound much like they'd been recorded during the sessions for Lamb's first two LPs, as they revert to the slightly disturbing minor-keyed jazz-folk singer/songwriting, classical-tinged arrangements, and dream imagery-laden lyrics characteristic of the band's earlier work. And even on side one, the brief Mauritz solo instrumental piano piece "The Wish" makes a nice quasi-classical break on this uneven but worthwhile capper to Lamb's career.
Tracklist:
01. Old Fashioned Remedy
02. The Wish
03. Rap With Rhyme
04. River Boulevard
05. How Am I Gonna Manage
06. Visions of Blackbirds
07. Salty
08. The Vine
09. Live to Your Heart

Total time: 34:17

Exact Audio Copy V1.0 beta 1 from 15. November 2010

EAC extraction logfile from 6. March 2011, 15:34

Lamb / Bring Out The Sun

Used drive : _NEC DVD+RW ND-1100A Adapter: 1 ID: 1

Read mode : Secure
Utilize accurate stream : Yes
Defeat audio cache : Yes
Make use of C2 pointers : No

Read offset correction : 48
Overread into Lead-In and Lead-Out : No
Fill up missing offset samples with silence : Yes
Delete leading and trailing silent blocks : No
Null samples used in CRC calculations : Yes
Used interface : Native Win32 interface for Win NT & 2000
Gap handling : Appended to previous track

Used output format : User Defined Encoder
Selected bitrate : 1024 kBit/s
Quality : High
Add ID3 tag : No
Command line compressor : C:\Program Files\Exact Audio Copy\FLAC\FLAC.EXE
Additional command line options : -8 -V -T "ARTIST=%a" -T "TITLE=%t" -T "ALBUM=%g" -T "DATE=%y" -T "TRACKNUMBER=%n" -T "GENRE=%m" -T "COMMENT=%e" %j–picture="%i"%j %s -o %d


TOC of the extracted CD

Track | Start | Length | Start sector | End sector
––––––––––––––––––––––––––––-
1 | 0:00.00 | 4:23.20 | 0 | 19744
2 | 4:23.20 | 1:54.55 | 19745 | 28349
3 | 6:18.00 | 4:33.14 | 28350 | 48838
4 | 10:51.14 | 3:09.45 | 48839 | 63058
5 | 14:00.59 | 3:24.44 | 63059 | 78402
6 | 17:25.28 | 1:51.00 | 78403 | 86727
7 | 19:16.28 | 8:22.30 | 86728 | 124407
8 | 27:38.58 | 3:04.48 | 124408 | 138255
9 | 30:43.31 | 3:34.31 | 138256 | 154336


Track 1

Filename F:\Share2\Lamb\Bring Out The Sun\01. Old Fashioned Remedy.wav

Pre-gap length 0:00:02.00

Peak level 80.9 %
Extraction speed 3.7 X
Track quality 100.0 %
Test CRC 2657B255
Copy CRC 2657B255
Accurately ripped (confidence 1) [87339565]
Copy OK

Track 2

Filename F:\Share2\Lamb\Bring Out The Sun\02. The Wish.wav

Peak level 43.8 %
Extraction speed 2.9 X
Track quality 100.0 %
Test CRC 8C1BACDE
Copy CRC 8C1BACDE
Accurately ripped (confidence 1) [CEB1375A]
Copy OK

Track 3

Filename F:\Share2\Lamb\Bring Out The Sun\03. Rap With Rhyme.wav

Peak level 79.1 %
Extraction speed 3.4 X
Track quality 100.0 %
Test CRC 354639C7
Copy CRC 354639C7
Accurately ripped (confidence 1) [98A28A7D]
Copy OK

Track 4

Filename F:\Share2\Lamb\Bring Out The Sun\04. River Boulevard.wav

Peak level 99.9 %
Extraction speed 2.7 X
Track quality 99.9 %
Test CRC E859C06D
Copy CRC E859C06D
Accurately ripped (confidence 1) [C04A5A08]
Copy OK

Track 5

Filename F:\Share2\Lamb\Bring Out The Sun\05. How Am I Gonna Manage.wav

Peak level 88.6 %
Extraction speed 3.3 X
Track quality 100.0 %
Test CRC 04DCC2EF
Copy CRC 04DCC2EF
Accurately ripped (confidence 1) [754A6359]
Copy OK

Track 6

Filename F:\Share2\Lamb\Bring Out The Sun\06. Visions of Blackbirds.wav

Pre-gap length 0:00:02.00

Peak level 64.3 %
Extraction speed 2.9 X
Track quality 100.0 %
Test CRC 96A7324C
Copy CRC 96A7324C
Accurately ripped (confidence 1) [F35C53E0]
Copy OK

Track 7

Filename F:\Share2\Lamb\Bring Out The Sun\07. Salty.wav

Peak level 99.9 %
Extraction speed 3.4 X
Track quality 99.9 %
Test CRC 40F73330
Copy CRC 40F73330
Accurately ripped (confidence 1) [DC95DAAA]
Copy OK

Track 8

Filename F:\Share2\Lamb\Bring Out The Sun\08. The Vine.wav

Peak level 58.6 %
Extraction speed 2.7 X
Track quality 99.9 %
Test CRC 1A4F20CE
Copy CRC 1A4F20CE
Accurately ripped (confidence 1) [7ADC59EF]
Copy OK

Track 9

Filename F:\Share2\Lamb\Bring Out The Sun\09. Live to Your Heart.wav

Peak level 81.3 %
Extraction speed 3.4 X
Track quality 100.0 %
Test CRC 856082F1
Copy CRC 856082F1
Accurately ripped (confidence 1) [16026E5D]
Copy OK


All tracks accurately ripped

No errors occurred

End of status report

==== Log checksum 1F5AA60217E4FD5C3DF121A791D41D9167B9D48F220FE6AB91250A41AE45496B ====

[CUETools log; Date: 08.10.2017 21:33:44; Version: 2.1.4]
[CTDB TOCID: tIwiLfWZzRU26idNpPYnz8sdD08-] found.
Track | CTDB Status
1 | (2/2) Accurately ripped
2 | (2/2) Accurately ripped
3 | (2/2) Accurately ripped
4 | (2/2) Accurately ripped
5 | (2/2) Accurately ripped
6 | (2/2) Accurately ripped
7 | (2/2) Accurately ripped
8 | (2/2) Accurately ripped
9 | (2/2) Accurately ripped
[AccurateRip ID: 000b52ed-0053db5c-70080909] found.
Track [ CRC | V2 ] Status
01 [87339565|a38f83f8] (3+0/3) Accurately ripped
02 [ceb1375a|89f83f4b] (3+0/3) Accurately ripped
03 [98a28a7d|05cf2d55] (3+0/3) Accurately ripped
04 [c04a5a08|60b44915] (3+0/3) Accurately ripped
05 [754a6359|67e30bcf] (3+0/3) Accurately ripped
06 [f35c53e0|cee0a9d4] (3+0/3) Accurately ripped
07 [dc95daaa|4d94ed5c] (3+0/3) Accurately ripped
08 [7adc59ef|94e250b7] (3+0/3) Accurately ripped
09 [16026e5d|f7f82ce4] (3+0/3) Accurately ripped

Track Peak [ CRC32 ] [W/O NULL] [ LOG ]
– 99,9 [D5BE99F8] [41E41C39]
01 80,8 [2657B255] [8ECF0677] CRC32
02 43,8 [8C1BACDE] [1439CD0F] CRC32
03 79,1 [354639C7] [DB840B9F] CRC32
04 99,9 [E859C06D] [BE91B9E1] CRC32
05 88,6 [04DCC2EF] [13883BA8] CRC32
06 64,3 [96A7324C] [40B9E848] CRC32
07 99,9 [40F73330] [064588DA] CRC32
08 58,6 [1A4F20CE] [3C7B25C6] CRC32
09 81,3 [856082F1] [A4EDD41B] CRC32

Thanks to indiffer

See also:
Lamb - A Sign Of Change (1970) [Reissue 2009]
Lamb - Cross Between (1971) [Reissue 2009]