Latin Quarter - Swimming Against The Stream (1989)

Posted By: popsakov
Latin Quarter - Swimming Against The Stream (1989)

Latin Quarter - Swimming Against The Stream (1989)
EAC Rip | FLAC (Img) + Cue + Log ~ 307 Mb | MP3 CBR320 ~ 111 Mb
Scans (JPG, 600 dpi) ~ 58 Mb | RAR 5% Recovery
Pop Rock, Indie Rock | RCA / BMG Records #PD 74037

For its third outing, Latin Quarter served up more surprises for its fans. Trimmed down to a quartet (half the band it used to be?), the band was more musically focused on this album than ever before. Choosing to keep the world rhythms to a minimum, the album's backbeat was clearly lush acoustic pop with a few touches added for flourish and flavor. Without completely altering their approach, the bandmembers were able to simplify their sound without giving up their identity. In doing so, they finally created what could be considered the "Latin Quarter" sound. Steve Skaith (vocals and guitar) served up some his best melodies to date, while lyricist Mike Jones proved to be as thought-provoking as ever, challenging the listener with each song. "Blameless," "Dominion," "Race Me Down," "Wounded in Action," and the title track are some of the best songs that they had recorded thus far, although the general public at large ignored both what they had to say and how they said it. After all, lyrically intelligent, politically charged pop confused many people. Regardless of the lack of sales, this was perhaps Latin Quarter's finest album to date, and will someday be regarded as a classic.
~ Steve "Spaz" Schnee, All Music
Latin Quarter - Swimming Against The Stream (1989)


***************

Latin Quarter - Swimming Against The Stream (1989)

Latin Quarter - Swimming Against The Stream (1989)

Track List:

01. Swimming Against The Stream [4:27]
02. Blameless [3:55]
03. Wounded In Action [4:15]
04. Model Son [4:10]
05. After Maralinga [5:33]
06. Dominion [4:55]
07. Close This Account [3:20]
08. Something Isn't Happening [3:35]
09. Race Me Down [4:13]
10. It Makes My Heart Stop Speaking [3:54]
11. A Slow Waltz For Chile [3:58]

Personnel:
Yona Dunsford - Vocals and Keyboards
Greg Harewood - The Bass Guitar
Mike Jones - Lyrics
Steve Skaith - Vocals
Richard Wright - Guitars

Additional Musicians:
Paulinho Da Costa: Percussion
Denny Fongheiser: Drums
Judy Gameral: Concertina & Hammer Dulcimer
David Lindley: Violin, Mandolin, Banfo, Hawaian Guitar
Tony Waerea: Didgeridoo
Steve Sidelynck: Additional percussion on "Dominion"
Jerk Bondy: Drums & Synth programming on "Dominion"
Jane McCord: Military snare drum on "After Maralinga" along with Greg and Richard
Additional Vocals: David Kershenbaum, Greg, Richard, and Mike

Exact Audio Copy V0.99 prebeta 5 from 4. May 2009

Отчёт EAC об извлечении, выполненном 23. сентября 2011, 20:24

Latin Quarter / Swimming Against The Stream

Дисковод: PIONEER DVD-RW DVR-215D Adapter: 1 ID: 1

Режим чтения : Достоверность
Использование точного потока : Да
Отключение кэша аудио : Да
Использование указателей C2 : Нет

Коррекция смещения при чтении : 48
Способность читать области Lead-in и Lead-out : Нет
Заполнение пропущенных сэмплов тишиной : Да
Удаление блоков с тишиной в начале и конце : Нет
При вычислениях CRC использовались нулевые сэмплы : Да
Интерфейс : Встроенный Win32-интерфейс для Win NT/2000

Выходной формат : Пользовательский кодировщик
Выбранный битрейт : 1024 kBit/s
Качество : Высокий
Добавление ID3-тэга : Нет
Утилита сжатия : H:\Program Files\Exact Audio Copy\FLAC\FLAC.EXE
Дополнительные параметры : -6 -V -T "ARTIST=%a" -T "TITLE=%t" -T "ALBUM=%g" -T "DATE=%y" -T "TRACKNUMBER=%n" -T "GENRE=%m" -T "COMMENT=%e" %s -o %d


TOC извлечённого CD

Трек | Старт | Длительность | Начальный сектор | Конечный сектор
––––––––––––––––––––––––––––––––––-
1 | 0:00.00 | 4:27.17 | 0 | 20041
2 | 4:27.17 | 3:54.63 | 20042 | 37654
3 | 8:22.05 | 4:14.62 | 37655 | 56766
4 | 12:36.67 | 4:10.10 | 56767 | 75526
5 | 16:47.02 | 5:32.73 | 75527 | 100499
6 | 22:20.00 | 4:55.32 | 100500 | 122656
7 | 27:15.32 | 3:19.73 | 122657 | 137654
8 | 30:35.30 | 3:35.07 | 137655 | 153786
9 | 34:10.37 | 4:12.63 | 153787 | 172749
10 | 38:23.25 | 3:54.17 | 172750 | 190316
11 | 42:17.42 | 3:58.35 | 190317 | 208201


Характеристики диапазона извлечения и сообщения об ошибках

Выбранный диапазон

Имя файла L:\Audio Lossless\Latin Quarter. 1988 Swimming Against The Stream\Latin Quarter - Swimming Against The Stream.wav

Пиковый уровень 99.8 %
Качество диапазона 99.9 %
CRC теста 4D99C076
CRC копии 4D99C076
Копирование… OK

Ошибок не произошло


AccurateRip: сводка

Трек 1 точное извлечение (доверие 39) [7900BB0C]
Трек 2 точное извлечение (доверие 40) [56B15022]
Трек 3 точное извлечение (доверие 42) [ACACF7E2]
Трек 4 точное извлечение (доверие 41) [D409F494]
Трек 5 точное извлечение (доверие 41) [5FDFD619]
Трек 6 точное извлечение (доверие 41) [442356B8]
Трек 7 точное извлечение (доверие 42) [2EEC3C61]
Трек 8 точное извлечение (доверие 41) [AA28183E]
Трек 9 точное извлечение (доверие 40) [F9CB4915]
Трек 10 точное извлечение (доверие 42) [0C4BE906]
Трек 11 точное извлечение (доверие 39) [D6FDF0C4]

Все треки извлечены точно

Конец отчёта

foobar2000 1.2.6 / Dynamic Range Meter 1.1.1
log date: 2017-06-29 01:15:25

––––––––––––––––––––––––––––––––––––––––
Analyzed: Latin Quarter / Swimming Against The Stream
––––––––––––––––––––––––––––––––––––––––

DR Peak RMS Duration Track
––––––––––––––––––––––––––––––––––––––––
DR13 -0.02 dB -14.94 dB 4:27 01-Swimming Against The Stream
DR11 -1.58 dB -14.42 dB 3:55 02-Blameless
DR13 -1.80 dB -18.01 dB 4:15 03-Wounded In Action
DR12 -0.37 dB -14.86 dB 4:10 04-Model Son
DR14 -0.35 dB -16.43 dB 5:33 05-After Maralinga
DR13 -0.45 dB -15.63 dB 4:55 06-Dominion
DR13 -0.40 dB -14.33 dB 3:20 07-Close This Account
DR12 -0.63 dB -14.93 dB 3:35 08-Something Isn't Happening
DR11 -1.53 dB -15.60 dB 4:13 09-Race Me Down
DR13 -0.59 dB -16.46 dB 3:54 10-It Makes My Heart Stop Speaking
DR13 -1.75 dB -18.38 dB 3:58 11-A Slow Waltz For Chile
––––––––––––––––––––––––––––––––––––––––

Number of tracks: 11
Official DR value: DR13

Samplerate: 44100 Hz
Channels: 2
Bits per sample: 16
Bitrate: 885 kbps
Codec: FLAC
================================================================================

[CUETools log; Date: 20.06.2017 2:20:25; Version: 2.1.5]
[CTDB TOCID: X3Xdlxr5tj9PeI7IS9KzzoQEMW4-] found.
Track | CTDB Status
1 | (114/116) Accurately ripped
2 | (114/116) Accurately ripped
3 | (114/116) Accurately ripped
4 | (115/116) Accurately ripped
5 | (114/116) Accurately ripped
6 | (113/116) Accurately ripped
7 | (112/116) Accurately ripped
8 | (111/116) Accurately ripped
9 | (111/116) Accurately ripped
10 | (111/116) Accurately ripped
11 | (110/116) Accurately ripped
[AccurateRip ID: 001377d3-00a836d6-8e0ad80b] found.
Track [ CRC | V2 ] Status
01 [7900bb0c|aeed6117] (043+064/107) Accurately ripped
02 [56b15022|63cdcc3e] (044+065/109) Accurately ripped
03 [acacf7e2|284d206c] (046+065/111) Accurately ripped
04 [d409f494|d04d1900] (045+064/109) Accurately ripped
05 [5fdfd619|5916958a] (045+063/108) Accurately ripped
06 [442356b8|2a4f58bd] (045+064/109) Accurately ripped
07 [2eec3c61|9931c3f9] (046+065/111) Accurately ripped
08 [aa28183e|f2b3ec05] (045+064/109) Accurately ripped
09 [f9cb4915|8d44139e] (044+063/107) Accurately ripped
10 [0c4be906|6fc9b25a] (046+064/110) Accurately ripped
11 [d6fdf0c4|542a2811] (043+065/108) Accurately ripped

Track Peak [ CRC32 ] [W/O NULL] [ LOG ]
– 99,8 [4D99C076] [907B41CA] CRC32
01 99,8 [284D7647] [924C2058]
02 83,3 [FA88154E] [2D635FFB]
03 81,2 [4A98CFFB] [5CF151AC]
04 95,8 [FD4DC53F] [268E362C]
05 96,0 [4AAE5B7D] [8AAC22B1]
06 94,9 [ED8D72C9] [C34F291A]
07 95,5 [E5300119] [CF4D608C]
08 92,9 [881FCCF0] [3145A02D]
09 83,8 [1468DB7A] [6E0A51F4]
10 93,4 [AA1B7542] [B32D8D53]
11 81,7 [BEC45284] [FE14BC21]

Latin Quarter - Swimming Against The Stream (1989)

See also:
Latin Quarter - Mick And Caroline (1987)

All thanks go to Mawrix

>>> My Blog <<<

Download from icerbox.com: