Subcategories

Latte Miele - Aquile E Scoiattoli (1976) {2011, Remastered, Japanese SHM-CD}

Posted By: popsakov
Latte Miele - Aquile E Scoiattoli (1976) {2011, Remastered, Japanese SHM-CD}

Latte Miele - Aquile E Scoiattoli (1976) {2011, Remastered, Japanese SHM-CD}
EAC Rip | FLAC (Img) + Cue + Log ~ 324 Mb | MP3 CBR320 ~ 134 Mb
Full Scans (JPG, 600 dpi) ~ 40 Mb | RAR 5% Recovery
Progressive Rock | Belle Antique #BELLE 111868

Latte e Miele is an Italian progressive rock musical group. The group formed in 1971 in Genoa. In 1972 they realized their most famous work, the concept album Passio secundum Mattheum, with part of music inspired by Johann Sebastian Bach and recitatives from the Gospel of Matthew. After having opened the concerts of Van der Graaf Generator, in 1973 they released another concept album, Papillon, and disbanded in 1974.

The group reformed in 1976, with only Alfio Vitanza from the original line-up, and with the name of the group spelled as "LatteMiele". After the album Aquile e scoiattoli, best known for its 23-minutes-suite "Pavana", they gradually abandoned the progressive style and approached pop-rock. After disbanding in the early 1980s, the original line-up reunited in 2008.
~ Wiki

***************

Latte Miele - Aquile E Scoiattoli (1976) {2011, Remastered, Japanese SHM-CD}

Latte Miele - Aquile E Scoiattoli (1976) {2011, Remastered, Japanese SHM-CD}

Latte Miele - Aquile E Scoiattoli (1976) {2011, Remastered, Japanese SHM-CD}

Track List:

01. Aquile E Scoiattoli [3:39]
02. Vacche Sacre - Falso Menestrello [5:14]
03. Menestrello [5:15]
04. Opera 21 [5:06]
05. Pavana [23:52]
06. Un Mattino [4:30]
07. Un Silenzio Diviso In Due [4:03]
08. Per Poter Vivere [4:09]

Personnel:
Bass, Electric Guitar, Acoustic Guitar, Slide Guitar, Vocals – Massimo Gori
Drums, Percussion, Twelve-string Guitar, Vocals – Alfio Vitanza
Electric Piano [Fender Piano], Performer [Solina, Eminent], Guitar, Vocals – Mimmo Damiani
Organ [Hammond], Synthesizer [Moog], Clavinet, Piano, Vocals – Luciano Poltini

Exact Audio Copy V1.1 from 23. June 2015

Отчёт EAC об извлечении, выполненном 8. сентября 2017, 18:11

Latte Miele / Aquile E Scoiattoli

Дисковод: ASUS DRW-24B3ST Adapter: 0 ID: 0

Режим чтения : Достоверность
Использование точного потока : Да
Отключение кэша аудио : Да
Использование указателей C2 : Нет

Коррекция смещения при чтении : 6
Способность читать области Lead-in и Lead-out : Нет
Заполнение пропущенных сэмплов тишиной : Да
Удаление блоков с тишиной в начале и конце : Нет
При вычислениях CRC использовались нулевые сэмплы : Да
Интерфейс : Установленный внешний ASPI-интерфейс

Выходной формат : Пользовательский кодировщик
Выбранный битрейт : 1024 kBit/s
Качество : Высокий
Добавление ID3-тега : Нет
Утилита сжатия : C:\Program Files (x86)\Exact Audio Copy\Flac\flac.exe
Дополнительные параметры : -V -8 -T "Date=%year%" -T "Genre=%genre%" %source%


TOC извлечённого CD

Трек | Старт | Длительность | Начальный сектор | Конечный сектор
––––––––––––––––––––––––––––––––––-
1 | 0:00.00 | 3:39.09 | 0 | 16433
2 | 3:39.09 | 5:14.08 | 16434 | 39991
3 | 8:53.17 | 5:15.32 | 39992 | 63648
4 | 14:08.49 | 5:06.24 | 63649 | 86622
5 | 19:14.73 | 23:51.63 | 86623 | 194010
6 | 43:06.61 | 4:30.04 | 194011 | 214264
7 | 47:36.65 | 4:02.56 | 214265 | 232470
8 | 51:39.46 | 4:09.08 | 232471 | 251153


Характеристики диапазона извлечения и сообщения об ошибках

Выбранный диапазон

Имя файла E:\Torrents\Latte Miele - 1976 - Aquile E Scoiattoli\Latte Miele - Aquile E Scoiattoli.wav

Пиковый уровень 99.9 %
Скорость извлечения 7.6 X
Качество диапазона 99.9 %
CRC теста 38793092
CRC копии 38793092
Копирование… OK

Ошибок не произошло


AccurateRip: сводка

Трек 1 : извлечено точно (доверие 2) [CD39D868] (AR v2)
Трек 2 : извлечено точно (доверие 2) [867D73BE] (AR v2)
Трек 3 : извлечено точно (доверие 2) [AF4F413B] (AR v2)
Трек 4 : извлечено точно (доверие 2) [E8DB3102] (AR v2)
Трек 5 : извлечено точно (доверие 2) [CF0AA1FC] (AR v2)
Трек 6 : извлечено точно (доверие 2) [042C31FD] (AR v2)
Трек 7 : извлечено точно (доверие 2) [0FE696F6] (AR v2)
Трек 8 : извлечено точно (доверие 2) [650E7DEF] (AR v2)

Все треки извлечены точно

Конец отчёта

==== Контрольная сумма отчёта 3555F7C0145091B9ED6CEAEB3A366D02416DD71CDD233C57AFBF014699705597 ====

foobar2000 1.2.6 / Dynamic Range Meter 1.1.1
log date: 2017-09-08 20:24:57

––––––––––––––––––––––––––––––––––––––––
Analyzed: Latte Miele / Aquile E Scoiattoli
––––––––––––––––––––––––––––––––––––––––

DR Peak RMS Duration Track
––––––––––––––––––––––––––––––––––––––––
DR10 -0.27 dB -13.33 dB 3:39 01-Aquile E Scoiattoli
DR10 0.00 dB -12.67 dB 5:14 02-Vacche Sacre - Falso Menestrello
DR11 0.00 dB -15.32 dB 5:15 03-Menestrello
DR11 0.00 dB -13.88 dB 5:06 04-Opera 21
DR10 -0.09 dB -14.14 dB 23:52 05-Pavana
DR8 -0.35 dB -12.60 dB 4:30 06-Un Mattino
DR12 -0.02 dB -15.23 dB 4:03 07-Un Silenzio Diviso In Due
DR9 -0.18 dB -11.30 dB 4:09 08-Per Poter Vivere
––––––––––––––––––––––––––––––––––––––––

Number of tracks: 8
Official DR value: DR10

Samplerate: 44100 Hz
Channels: 2
Bits per sample: 16
Bitrate: 774 kbps
Codec: FLAC
================================================================================

[CUETools log; Date: 08.09.2017 20:25:02; Version: 2.1.5]
[CTDB TOCID: _2SXppZIOJnvxICj6_Cbgw5TgSw-] found.
Track | CTDB Status
1 | (4/4) Accurately ripped
2 | (4/4) Accurately ripped
3 | (4/4) Accurately ripped
4 | (4/4) Accurately ripped
5 | (4/4) Accurately ripped
6 | (4/4) Accurately ripped
7 | (4/4) Accurately ripped
8 | (4/4) Accurately ripped
[AccurateRip ID: 0010c367-007457b7-610d1408] found.
Track [ CRC | V2 ] Status
01 [60b3e1a4|cd39d868] (0+2/2) Accurately ripped
02 [f10ac3b2|867d73be] (0+2/2) Accurately ripped
03 [b16fcad6|af4f413b] (0+2/2) Accurately ripped
04 [dbeb73ba|e8db3102] (0+2/2) Accurately ripped
05 [c0590f34|cf0aa1fc] (0+2/2) Accurately ripped
06 [7a2ae359|042c31fd] (0+2/2) Accurately ripped
07 [7013e2ad|0fe696f6] (0+2/2) Accurately ripped
08 [0650c8e2|650e7def] (0+2/2) Accurately ripped

Track Peak [ CRC32 ] [W/O NULL] [ LOG ]
– 99,9 [38793092] [A31FB56F] CRC32
01 96,9 [261B36B5] [320ACDFA]
02 99,9 [9EB4314D] [15E868C9]
03 99,9 [0BE70221] [23A38DE1]
04 99,9 [4AF02C31] [C85EF104]
05 99,0 [6DC0B70F] [66BB9FBE]
06 95,9 [1F027861] [F23DDA4F]
07 99,7 [DAE97069] [EC9DA666]
08 97,9 [FC395AA3] [C11A4CC0]

Latte Miele - Aquile E Scoiattoli (1976) {2011, Remastered, Japanese SHM-CD}

All thanks go to Копысов

>>> My Blog <<<

Download from icerbox.com: