Subcategories

Latvian Radio Choir, Sigvards Kļava - Arvo Pärt: Da pacem Domine (2016)

Posted By: tirexiss
Latvian Radio Choir, Sigvards Kļava - Arvo Pärt: Da pacem Domine (2016)

Latvian Radio Choir, Sigvards Kļava - Arvo Pärt: Da pacem Domine (2016)
EAC | FLAC (image+.cue, log) | Covers Included | 72:38 | 262 MB
Genre: Classical, Choral | Label: Ondine | Catalog: ODE 1286-2

Estonian composer Arvo Part's timeless music has touched listeners for decades. He is one of the most performed living composers. This new release features eight choral pieces which were written between 1988 and 2012. These works feature some of Part's finest vocal writing, especially in the three-movement Triodion and the seven-movement Sieben Magnificat-Antiphonen. Part is famous for his tintinnabuli style, which he took on after distancing himself from his earlier writing which utilized neo-classicism, serialism, and polystylism. Of his style, Part once wrote, "I could compare my music to white light which contains all colors. Only a prism can divide the colors and make them appear; this prism could be the spirit of the listener." The Latvian Radio Choir's prior releases for Ondone have garnered them critical acclaim. Their recording of Rachmaninov's All-Night Vigil received the Record of the Month, Editor's Choice, and was a nominee for the Gramophone Awards in 2013.

Latvian Radio Choir, Sigvards Kļava - Arvo Pärt: Da pacem Domine (2016)

Track List:

Arvo Pärt (1935)

[1]-[5] Triodion (1998)
[6]–[12] Sieben Magnificat-Antiphonen (1988/91)
[13] Nunc dimittis (2001)
[14] Dopo la vittoria (1996/98)
[15] Virgencita (2012)
[16] The Woman with the Alabaster Box (1997)
[17] Tribute to Caesar (1997)
[18] Da pacem Domine (2006)

Performers:
Latvian Radio Choir
Sigvards Kļava, conductor

Exact Audio Copy V1.1 from 23. June 2015

EAC extraction logfile from 14. December 2016, 21:46

Latvian Radio Choir, Sigvards Klava / Pärt - Da pacem Domine

Used drive : HL-DT-STDVDRAM GU70N Adapter: 1 ID: 0

Read mode : Secure
Utilize accurate stream : Yes
Defeat audio cache : Yes
Make use of C2 pointers : No

Read offset correction : 48
Overread into Lead-In and Lead-Out : No
Fill up missing offset samples with silence : Yes
Delete leading and trailing silent blocks : No
Null samples used in CRC calculations : Yes
Used interface : Native Win32 interface for Win NT & 2000

Used output format : User Defined Encoder
Selected bitrate : 128 kBit/s
Quality : High
Add ID3 tag : No
Command line compressor : C:\Program Files (x86)\Exact Audio Copy\Flac\flac.exe
Additional command line options : -V -8 -T "Date=%year%" -T "Genre=%genre%" %source%


TOC of the extracted CD

Track | Start | Length | Start sector | End sector
––––––––––––––––––––––––––––-
1 | 0:00.00 | 0:27.38 | 0 | 2062
2 | 0:27.38 | 4:10.52 | 2063 | 20864
3 | 4:38.15 | 5:26.48 | 20865 | 45362
4 | 10:04.63 | 4:59.07 | 45363 | 67794
5 | 15:03.70 | 1:08.15 | 67795 | 72909
6 | 16:12.10 | 1:33.02 | 72910 | 79886
7 | 17:45.12 | 2:33.73 | 79887 | 91434
8 | 20:19.10 | 1:04.48 | 91435 | 96282
9 | 21:23.58 | 2:25.02 | 96283 | 107159
10 | 23:48.60 | 2:00.23 | 107160 | 116182
11 | 25:49.08 | 1:22.22 | 116183 | 122354
12 | 27:11.30 | 3:23.61 | 122355 | 137640
13 | 30:35.16 | 7:55.53 | 137641 | 173318
14 | 38:30.69 | 9:30.34 | 173319 | 216102
15 | 48:01.28 | 8:21.67 | 216103 | 253744
16 | 56:23.20 | 6:07.59 | 253745 | 281328
17 | 62:31.04 | 5:41.07 | 281329 | 306910
18 | 68:12.11 | 4:24.67 | 306911 | 326777


Range status and errors

Selected range

Filename C:\temp\Part - Da pacem Domine - Latvian Radio Choir, Klava\Part - Da pacem Domine.wav

Peak level 94.4 %
Extraction speed 2.2 X
Range quality 100.0 %
Test CRC 9D889853
Copy CRC 9D889853
Copy OK

No errors occurred


AccurateRip summary

Track 1 not present in database
Track 2 not present in database
Track 3 not present in database
Track 4 not present in database
Track 5 not present in database
Track 6 not present in database
Track 7 not present in database
Track 8 not present in database
Track 9 not present in database
Track 10 not present in database
Track 11 not present in database
Track 12 not present in database
Track 13 not present in database
Track 14 not present in database
Track 15 not present in database
Track 16 not present in database
Track 17 not present in database
Track 18 not present in database

None of the tracks are present in the AccurateRip database

End of status report

==== Log checksum 153DBC744F9CAD1C2C6A63905FD4241B11EBEC8AEB3CA85D84E388ACF4BEC66C ====

[CUETools log; Date: 16.09.2017 9:38:55; Version: 2.1.5]
[CTDB TOCID: gIj7fHkdZzaC1fJL5ADbqIcUn8Q-] found.
Track | CTDB Status
1 | (8/8) Accurately ripped
2 | (8/8) Accurately ripped
3 | (8/8) Accurately ripped
4 | (8/8) Accurately ripped
5 | (7/8) Accurately ripped
6 | (8/8) Accurately ripped
7 | (8/8) Accurately ripped
8 | (8/8) Accurately ripped
9 | (8/8) Accurately ripped
10 | (8/8) Accurately ripped
11 | (8/8) Accurately ripped
12 | (7/8) Accurately ripped
13 | (8/8) Accurately ripped
14 | (8/8) Accurately ripped
15 | (8/8) Accurately ripped
16 | (8/8) Accurately ripped
17 | (7/8) Accurately ripped
18 | (8/8) Accurately ripped
[AccurateRip ID: 00266c6d-02168eb3-f0110512] found.
Track [ CRC | V2 ] Status
01 [96c04f08|9945f55a] (0+3/3) Accurately ripped
02 [60eb7d91|f4edc522] (0+3/3) Accurately ripped
03 [383ac94b|bb956c06] (0+3/3) Accurately ripped
04 [7b65d208|c535daf2] (0+3/3) Accurately ripped
05 [1c4cfee5|0963ce68] (0+3/3) Accurately ripped
06 [3c4dec1d|8ebc6d6a] (0+3/3) Accurately ripped
07 [45acc97b|deac0b0b] (0+3/3) Accurately ripped
08 [ba57c9da|33b4ed18] (0+3/3) Accurately ripped
09 [01c23dbf|57ae79ce] (0+3/3) Accurately ripped
10 [cc461f00|3f02f6e6] (0+3/3) Accurately ripped
11 [e23ad42b|8279049f] (0+3/3) Accurately ripped
12 [ee827544|f6d879e5] (0+3/3) Accurately ripped
13 [bcf6a0e6|ae4d3022] (0+3/3) Accurately ripped
14 [c749a39e|a001390b] (0+3/3) Accurately ripped
15 [f4e218c3|9874d140] (0+3/3) Accurately ripped
16 [912c6859|1da5b364] (0+3/3) Accurately ripped
17 [a8dc59b8|adb82ce1] (0+3/3) Accurately ripped
18 [7763c85d|cdad9964] (0+3/3) Accurately ripped

Track Peak [ CRC32 ] [W/O NULL] [ LOG ]
– 94,4 [9D889853] [79A571AD] CRC32
01 5,3 [0EA6A591] [CAC0DE02]
02 84,7 [B0373254] [E325B08E]
03 65,4 [E7E801EA] [93A2A859]
04 88,9 [F51CDE43] [3720A163]
05 4,7 [18BFDAC0] [F5980CDA]
06 16,7 [70BC8CA3] [04B3C2EE]
07 15,1 [65DE3ECE] [DAEE5075]
08 58,8 [73D31B3E] [0C79EBDE]
09 94,4 [157FA241] [7CF111ED]
10 29,8 [28714A4F] [0B04943F]
11 53,9 [EAB73764] [EF89CD08]
12 93,2 [20B571DE] [EFB19927]
13 93,1 [D147FB5C] [3C8C11FF]
14 93,5 [05FB28AB] [E51B2265]
15 92,3 [CFECECE1] [C298DBE3]
16 77,8 [4ECB9665] [F2D97C9C]
17 92,5 [6D1A78A9] [1D16E843]
18 71,5 [6C620508] [94DC535E]

Thanks to the Original ripper A-Z!

Download: