Subcategories

Lee Morgan - The Sidewinder (1964) [Analogue Productions, 2010] (Repost)

Posted By: gribovar
Lee Morgan - The Sidewinder (1964) [Analogue Productions, 2010] (Repost)

Lee Morgan - The Sidewinder (1964) [Analogue Productions, 2010]
EAC Rip | FLAC (tracks+.cue+log) - 311 MB | MP3 CBR 320 kbps (LAME 3.93) - 121 MB | Covers - 19 MB
Genre: Jazz | RAR 3% Rec. | Label: Analogue Productions (CBNJ 84157 SA)

Carried by its almost impossibly infectious eponymous opening track, The Sidewinder helped foreshadow the sounds of boogaloo and soul-jazz with its healthy R&B influence and Latin tinge. While the rest of the album retreats to a more conventional hard bop sound, Morgan's compositions are forward-thinking and universally solid. Only 25 at the time of its release, Morgan was accomplished (and perhaps cocky) enough to speak of mentoring the great Joe Henderson, who at 26 was just beginning to play dates with Blue Note after getting out of the military. Henderson makes a major contribution to the album, especially on "Totem Pole," where his solos showed off his singular style, threatening to upstage Morgan, who is also fairly impressive here. Barry Harris, Bob Cranshaw, and Billy Higgins are all in good form throughout the album as well, and the group works together seamlessly to create an album that crackles with energy while maintaining a stylish flow.
Tracklist:
01. The Sidewinder
02. Totem Pole
03. Gary's Notebook
04. Boy, What A Night
05. Hocus Pocus
06. Totem Pole (Alternate Take)

Total time: 51:34

Exact Audio Copy V1.0 beta 1 from 15. November 2010

EAC extraction logfile from 27. June 2011, 13:24

Lee Morgan / The Sidewinder

Used drive : MATSHITAUJ-842D Adapter: 0 ID: 0

Read mode : Secure
Utilize accurate stream : Yes
Defeat audio cache : Yes
Make use of C2 pointers : No

Read offset correction : 102
Overread into Lead-In and Lead-Out : No
Fill up missing offset samples with silence : Yes
Delete leading and trailing silent blocks : No
Null samples used in CRC calculations : Yes
Used interface : Native Win32 interface for Win NT & 2000
Gap handling : Appended to previous track

Used output format : User Defined Encoder
Selected bitrate : 128 kBit/s
Quality : High
Add ID3 tag : No
Command line compressor : C:\Program Files\FLAC\flac.exe
Additional command line options : -8 -V -T "ARTIST=%a" -T "TITLE=%t" -T "ALBUM=%g" -T "DATE=%y" -T "TRACKNUMBER=%n" -T "TOTALTRACKS=%x" -T "GENRE=%m" -T "ALBUM ARTIST=%v" -T "ALBUMARTIST=%v" -T "COMMENT=L2Bits, EAC V1.0 beta 1, Secure Mode, Test & Copy, Acc


TOC of the extracted CD

Track | Start | Length | Start sector | End sector
––––––––––––––––––––––––––––-
1 | 0:00.00 | 10:32.70 | 0 | 47469
2 | 10:32.70 | 10:21.48 | 47470 | 94092
3 | 20:54.43 | 6:09.23 | 94093 | 121790
4 | 27:03.66 | 7:36.33 | 121791 | 156023
5 | 34:40.24 | 6:46.53 | 156024 | 186526
6 | 41:27.02 | 10:07.30 | 186527 | 232081


Track 1

Filename D:\Bezz Rip\01 - The Sidewinder - The Sidewinder.wav

Pre-gap length 0:00:02.00

Peak level 91.9 %
Extraction speed 1.2 X
Track quality 99.9 %
Test CRC 649E2144
Copy CRC 649E2144
Track not present in AccurateRip database
Copy OK

Track 2

Filename D:\Bezz Rip\02 - The Sidewinder - Totem Pole.wav

Pre-gap length 0:00:03.67

Peak level 96.3 %
Extraction speed 1.8 X
Track quality 100.0 %
Test CRC 6ED7D320
Copy CRC 6ED7D320
Track not present in AccurateRip database
Copy OK

Track 3

Filename D:\Bezz Rip\03 - The Sidewinder - Gary's Notebook.wav

Pre-gap length 0:00:04.01

Peak level 97.4 %
Extraction speed 1.8 X
Track quality 100.0 %
Test CRC 9DE3AB65
Copy CRC 9DE3AB65
Track not present in AccurateRip database
Copy OK

Track 4

Filename D:\Bezz Rip\04 - The Sidewinder - Boy, What A Night.wav

Pre-gap length 0:00:00.33

Peak level 86.6 %
Extraction speed 1.9 X
Track quality 100.0 %
Test CRC 92801E14
Copy CRC 92801E14
Track not present in AccurateRip database
Copy OK

Track 5

Filename D:\Bezz Rip\05 - The Sidewinder - Hocus Pocus.wav

Pre-gap length 0:00:00.33

Peak level 88.5 %
Extraction speed 2.0 X
Track quality 100.0 %
Test CRC E3503DB3
Copy CRC E3503DB3
Track not present in AccurateRip database
Copy OK

Track 6

Filename D:\Bezz Rip\06 - The Sidewinder - Totem Pole (Alternate Take).wav

Pre-gap length 0:00:21.28

Peak level 84.3 %
Extraction speed 2.1 X
Track quality 100.0 %
Test CRC 07D8BD4D
Copy CRC 07D8BD4D
Track not present in AccurateRip database
Copy OK


None of the tracks are present in the AccurateRip database

No errors occurred

End of status report

==== Log checksum C634E78A9D4176252AF5EC8FA347EEF7CEADD8544EA51C00CA78760D14CB0D8D ====

[CUETools log; Date: 13.06.2019 3:09:41; Version: 2.1.4]
[CTDB TOCID: 1.OCoxc72VqhgKyGs_uBum8xzcA-] found.
Track | CTDB Status
1 | (19/20) Accurately ripped
2 | (19/20) Accurately ripped
3 | (19/20) Accurately ripped
4 | (19/20) Accurately ripped
5 | (19/20) Accurately ripped
6 | (19/20) Accurately ripped
[AccurateRip ID: 000cc963-0042f590-4e0c1606] found.
Track [ CRC | V2 ] Status
01 [0a835a34|3e4f2ea7] (03+25/28) Accurately ripped
02 [97957a3a|3f75bc09] (03+23/26) Accurately ripped
03 [e7fbe9e2|3c6acdf4] (03+23/26) Accurately ripped
04 [e32cf43b|6026e9de] (03+23/26) Accurately ripped
05 [11f2467d|bc0fd187] (03+23/26) Accurately ripped
06 [e2b007be|7884a02d] (03+23/26) Accurately ripped

Track Peak [ CRC32 ] [W/O NULL] [ LOG ]
– 97,4 [B4861FB4] [4A6EBE7A]
01 91,9 [649E2144] [5494005C] CRC32
02 96,3 [6ED7D320] [7A1E3C23] CRC32
03 97,4 [9DE3AB65] [92729574] CRC32
04 86,6 [92801E14] [8663AC4D] CRC32
05 88,5 [E3503DB3] [BDEFBC44] CRC32
06 84,3 [07D8BD4D] [68DD2B64] CRC32

Thanks to Bezz

See also:
Hank Mobley - Hank Mobley With Donald Byrd and Lee Morgan (1957) [Reissue 1995]
Lee Morgan - The Cooker (1958) [Reissue 2006]
Lee Morgan - Tom Cat (1980) [XRCD24, Reissue 2010]
Lee Morgan - Music For Lovers [Recorded 1957-1967] (2006)