Subcategories

Lee Ritenour - Rit 2 (1982)

Posted By: tiburon
Lee Ritenour - Rit 2 (1982)

Lee Ritenour - Rit 2 (1982)
EAC 1.0b1 | FLAC tracks level 8 | Cue+Log+M3U | Full Scans 600dpi | 247MB + 5% Recovery
Genre: Smooth Jazz, Jazz Funk, Fusion
Lee Ritenour - Rit 2 (1982)

Rit 2 album by Lee Ritenour was released Jan 25, 2005 on the Collectables label. As a producer and musical arranger, Lee Ritenour has proven to be a tasteful genius, and it never shows more strongly than on here.
Track List
01. Cross My Heart 3:46
02. Promises Promises 4:06
03. Dreamwalkin' 4:11
04. Keep It Alive 4:51
05. A Fantasy 3:09
06. Tied Up 4:55
07. Voices 4:22
08. On The Boardwalk 4:13
09. Road Runner 3:45
10. Malibu 2:46

musicians
Lee Ritenour - acoustic & electric guitar, keyboards, bass synthesizer, OBX drums
Eric Tagg - vocals, keyboards
Harvey Mason - drums, percussion
Nathan East - bass
Don Grusin - keyboards, synthesizer
Alex Acuna - drums
Paulinho Da Costa - percussion
Abraham Laboriel - bass
Carlos Vega - drums
John Robinson - drums
Jeff Porcaro - drums
Greg Philinganes - keyboards
Tom Scott - tenor saxophone
Gary Grant - trumpet
Larry Hall - trumpet, flugelhorn
Jerry Hey - trumpet, flugelhorn
Bill Reichenbach - trombone
Lou McCreary - trombone
Charles Loper - trombone
Gary Herbig - flute
Larry Williams - flute
Bill Champlin - vocals, background vocals
John Farrar - vocals
Richard Page - vocals
Steve George - vocals
Greg Mathieson - Fender Rhodes piano
Michael Boddicker - synthesizer

Produced bu Harvey Mason and Lee Ritenour


Exact Audio Copy V1.0 beta 1 from 15. November 2010

EAC extraction logfile from 23. October 2012, 22:23

Lee Ritenour / Rit/2

Used drive : ATAPI iHAS424 Y Adapter: 0 ID: 3

Read mode : Secure
Utilize accurate stream : Yes
Defeat audio cache : Yes
Make use of C2 pointers : No

Read offset correction : 48
Overread into Lead-In and Lead-Out : No
Fill up missing offset samples with silence : Yes
Delete leading and trailing silent blocks : No
Null samples used in CRC calculations : Yes
Used interface : Native Win32 interface for Win NT & 2000
Gap handling : Appended to previous track

Used output format : User Defined Encoder
Selected bitrate : 768 kBit/s
Quality : High
Add ID3 tag : No
Command line compressor : C:\Program Files\Exact Audio Copy\Flac\flac.exe
Additional command line options : -8 -V -T "ARTIST=%a" -T "TITLE=%t" -T "ALBUM=%g" -T "DATE=%y" -T "TRACKNUMBER=%n" -T "TOTALTRACKS=%x" -T "GENRE=%m" -T "ALBUMARTIST=%v" -T "ALBUM ARTIST=%v" -T "COMMENT=EAC Secure Mode, Test & Copy, AccurateRip, FLAC -8" %s


TOC of the extracted CD

Track | Start | Length | Start sector | End sector
––––––––––––––––––––––––––––-
1 | 0:00.00 | 3:46.48 | 0 | 16997
2 | 3:46.48 | 4:06.26 | 16998 | 35473
3 | 7:52.74 | 4:11.52 | 35474 | 54350
4 | 12:04.51 | 4:51.63 | 54351 | 76238
5 | 16:56.39 | 3:09.54 | 76239 | 90467
6 | 20:06.18 | 4:55.15 | 90468 | 112607
7 | 25:01.33 | 4:22.06 | 112608 | 132263
8 | 29:23.39 | 4:13.39 | 132264 | 151277
9 | 33:37.03 | 3:45.70 | 151278 | 168222
10 | 37:22.73 | 2:46.43 | 168223 | 180715


Track 1

Filename G:\Uploads\Lee Ritenour - Rit 2 (1982) [FLAC] {2005 Collectables}\01 - Cross My Heart.wav

Pre-gap length 0:00:02.00

Peak level 100.0 %
Extraction speed 2.0 X
Track quality 99.9 %
Test CRC D137FACA
Copy CRC D137FACA
Accurately ripped (confidence 7) [8808EF54]
Copy OK

Track 2

Filename G:\Uploads\Lee Ritenour - Rit 2 (1982) [FLAC] {2005 Collectables}\02 - Promises Promises.wav

Pre-gap length 0:00:02.00

Peak level 100.0 %
Extraction speed 2.6 X
Track quality 100.0 %
Test CRC 890E0EBD
Copy CRC 890E0EBD
Accurately ripped (confidence 7) [D4316DFF]
Copy OK

Track 3

Filename G:\Uploads\Lee Ritenour - Rit 2 (1982) [FLAC] {2005 Collectables}\03 - Dreamwalkin'.wav

Pre-gap length 0:00:02.00

Peak level 99.9 %
Extraction speed 2.5 X
Track quality 99.9 %
Test CRC 7F2DAD80
Copy CRC 7F2DAD80
Accurately ripped (confidence 7) [F2777DB9]
Copy OK

Track 4

Filename G:\Uploads\Lee Ritenour - Rit 2 (1982) [FLAC] {2005 Collectables}\04 - Keep It Alive.wav

Pre-gap length 0:00:02.00

Peak level 100.0 %
Extraction speed 3.2 X
Track quality 100.0 %
Test CRC C5E09381
Copy CRC C5E09381
Accurately ripped (confidence 7) [7558F380]
Copy OK

Track 5

Filename G:\Uploads\Lee Ritenour - Rit 2 (1982) [FLAC] {2005 Collectables}\05 - A Fantasy.wav

Pre-gap length 0:00:02.00

Peak level 99.9 %
Extraction speed 3.2 X
Track quality 100.0 %
Test CRC 8BBA03D7
Copy CRC 8BBA03D7
Accurately ripped (confidence 6) [946CBE1A]
Copy OK

Track 6

Filename G:\Uploads\Lee Ritenour - Rit 2 (1982) [FLAC] {2005 Collectables}\06 - Tied Up.wav

Pre-gap length 0:00:02.00

Peak level 100.0 %
Extraction speed 3.2 X
Track quality 99.9 %
Test CRC 300E3351
Copy CRC 300E3351
Accurately ripped (confidence 6) [8468DE5D]
Copy OK

Track 7

Filename G:\Uploads\Lee Ritenour - Rit 2 (1982) [FLAC] {2005 Collectables}\07 - Voices.wav

Pre-gap length 0:00:02.00

Peak level 100.0 %
Extraction speed 2.6 X
Track quality 99.9 %
Test CRC 32022C45
Copy CRC 32022C45
Accurately ripped (confidence 6) [9F54FBC3]
Copy OK

Track 8

Filename G:\Uploads\Lee Ritenour - Rit 2 (1982) [FLAC] {2005 Collectables}\08 - On The Boardwalk.wav

Pre-gap length 0:00:02.00

Peak level 100.0 %
Extraction speed 3.9 X
Track quality 100.0 %
Test CRC 3D59333B
Copy CRC 3D59333B
Accurately ripped (confidence 6) [FF8F1804]
Copy OK

Track 9

Filename G:\Uploads\Lee Ritenour - Rit 2 (1982) [FLAC] {2005 Collectables}\09 - Road Runner.wav

Pre-gap length 0:00:02.00

Peak level 100.0 %
Extraction speed 4.0 X
Track quality 100.0 %
Test CRC A8B9BB13
Copy CRC A8B9BB13
Accurately ripped (confidence 6) [C8FE0BE6]
Copy OK

Track 10

Filename G:\Uploads\Lee Ritenour - Rit 2 (1982) [FLAC] {2005 Collectables}\10 - Malibu.wav

Pre-gap length 0:00:02.00

Peak level 100.0 %
Extraction speed 3.9 X
Track quality 100.0 %
Test CRC FC9FE68E
Copy CRC FC9FE68E
Accurately ripped (confidence 6) [E9B5E7CF]
Copy OK


All tracks accurately ripped

No errors occurred

End of status report

==== Log checksum 63AEFA1EAAFBC6AC82FDE82B872A78C2ADC88BC115A31CA6859E7FBECBF02224 ====


––––––––––––––––––––––––––––––––––––––––
Analyzed: Lee Ritenour / Rit/2
––––––––––––––––––––––––––––––––––––––––

DR Peak RMS Duration Track
––––––––––––––––––––––––––––––––––––––––
DR12 0.00 dB -14.05 dB 3:47 01-Cross My Heart
DR13 0.00 dB -14.93 dB 4:06 02-Promises Promises
DR13 -0.01 dB -16.54 dB 4:12 03-Dreamwalkin'
DR14 0.00 dB -16.18 dB 4:52 04-Keep It Alive
DR13 0.00 dB -15.75 dB 3:10 05-A Fantasy
DR12 0.00 dB -13.52 dB 4:55 06-Tied Up
DR12 0.00 dB -15.18 dB 4:22 07-Voices
DR15 0.00 dB -16.54 dB 4:14 08-On The Boardwalk
DR13 0.00 dB -14.69 dB 3:46 09-Road Runner
DR16 0.00 dB -19.52 dB 2:47 10-Malibu
––––––––––––––––––––––––––––––––––––––––

Number of tracks: 10
Official DR value: DR13

Samplerate: 44100 Hz
Channels: 2
Bits per sample: 16
Bitrate: 632 kbps
Codec: FLAC
================================================================================

Lee Ritenour - Rit 2 (1982)
Lee Ritenour - Rit 2 (1982)
Lee Ritenour - Rit 2 (1982)


Rip by albundy