Subcategories

John Lennon - Lennon Legend: The Very Best Of John Lennon (1997) [CD & DVD]

Posted By: v3122
Advances in Chemical Physics: Volume 157: Science's Great Challenges Proceedings of the 240 Conference

John Lennon - Lennon Legend: The Very Best Of John Lennon (1997)
EAC | Flac(Image) + Cue + Log & MP3 CBR 320Kbps
Parlophone, 7243 8 21954 2 9 | ~ 475 or 187 Mb | Scans(jpg) -> 81 Mb
DVD-9: PAL 4:3 (720x576) VBR | LPCM 2 ch / AC3 & DTS 6 ch -> 6.91 Gb
Classic Rock / Pop Rock

Lennon Legend was released in the fall of 1997 in England to replace the deleted John Lennon Collection, and the 20-track collection is remarkably similar to its predecessor, replicating a full 16 tracks and deleting the relatively nonessential "I'm Losing You," "Dear Yoko," and "Move Over Ms. L" in favor of "Borrowed Time," "Mother," "Nobody Told Me," and "Working Class Hero." Even if the disc isn't sequenced in strict chronological order, the end result is the strongest single-disc Lennon collection yet. It might not offer everything of worth that Lennon recorded – the Plastic Ono Band and Imagine albums remain essentials, and there are great-to-good songs scattered among his later solo records – but it does function as an excellent sampler and introduction to his solo career.

by Stephen Thomas Erlewine, allmusic
John Lennon - Lennon Legend: The Very Best Of John Lennon (1997):

Advances in Chemical Physics: Volume 157: Science's Great Challenges Proceedings of the 240 Conference

Tracklist CD:

01. Imagine 3:04
02. Yoko Ono / Instant Karma! 3:21
03. Mother (single edit) 3:56
04. Jealous Guy 4:16
05. Power To The People 3:20
06. Plastic Ono Band, the / Cold Turkey 5:01
07. Love 3:24
08. Mind Games 4:14
09. Whatever Gets You Thru The Night 3:21
10. #9 Dream 4:48
11. Stand By Me 3:28
12. (Just Like) Starting Over 3:57
13. Woman 3:29
14. Beautiful Boy (Darling Boy) 4:02
15. Watching The Wheels 3:33
16. Nobody Told Me 3:35
17. Borrowed Time 4:32
18. Working Class Hero 3:51
19. Yoko Ono / Happy Xmas (War Is Over) 3:35
20. Plastic Ono Band, the / Give Peace A Chance 4:52

Exact Audio Copy V1.0 beta 3 from 29. August 2011

EAC extraction logfile from 9. April 2013, 9:32

John Lennon / Lennon Legend - The Very Best Of John Lennon

Used drive : Optiarc DVD RW AD-5280S Adapter: 2 ID: 1

Read mode : Secure
Utilize accurate stream : Yes
Defeat audio cache : Yes
Make use of C2 pointers : No

Read offset correction : 48
Overread into Lead-In and Lead-Out : No
Fill up missing offset samples with silence : Yes
Delete leading and trailing silent blocks : No
Null samples used in CRC calculations : Yes
Used interface : Installed external ASPI interface

Used output format : Internal WAV Routines
Sample format : 44.100 Hz; 16 Bit; Stereo


TOC of the extracted CD

Track | Start | Length | Start sector | End sector
––––––––––––––––––––––––––––-
1 | 0:00.00 | 3:04.27 | 0 | 13826
2 | 3:04.27 | 3:21.35 | 13827 | 28936
3 | 6:25.62 | 3:55.43 | 28937 | 46604
4 | 10:21.30 | 4:16.02 | 46605 | 65806
5 | 14:37.32 | 3:19.50 | 65807 | 80781
6 | 17:57.07 | 5:01.23 | 80782 | 103379
7 | 22:58.30 | 3:23.50 | 103380 | 118654
8 | 26:22.05 | 4:13.72 | 118655 | 137701
9 | 30:36.02 | 3:21.13 | 137702 | 152789
10 | 33:57.15 | 4:48.27 | 152790 | 174416
11 | 38:45.42 | 3:28.33 | 174417 | 190049
12 | 42:14.00 | 3:56.72 | 190050 | 207821
13 | 46:10.72 | 3:28.55 | 207822 | 223476
14 | 49:39.52 | 4:01.50 | 223477 | 241601
15 | 53:41.27 | 3:32.50 | 241602 | 257551
16 | 57:14.02 | 3:35.03 | 257552 | 273679
17 | 60:49.05 | 4:31.60 | 273680 | 294064
18 | 65:20.65 | 3:51.37 | 294065 | 311426
19 | 69:12.27 | 3:35.35 | 311427 | 327586
20 | 72:47.62 | 4:51.63 | 327587 | 349474


Range status and errors

Selected range

Filename C:\rip-flacmusic.ru\John Lennon - Lennon Legend - The Very Best Of John Lennon.wav

Peak level 87.4 %
Extraction speed 4.6 X
Range quality 100.0 %
Test CRC B4C395C5
Copy CRC B4C395C5
Copy OK

No errors occurred


AccurateRip summary

Track 1 accurately ripped (confidence 25) [F72EF513] (AR v2)
Track 2 accurately ripped (confidence 25) [D5F3445F] (AR v2)
Track 3 accurately ripped (confidence 25) [1490A47D] (AR v2)
Track 4 accurately ripped (confidence 25) [4508992A] (AR v2)
Track 5 accurately ripped (confidence 25) [D52DE504] (AR v2)
Track 6 accurately ripped (confidence 26) [5DC8DCEB] (AR v2)
Track 7 accurately ripped (confidence 25) [3DFC76BC] (AR v2)
Track 8 accurately ripped (confidence 25) [E110460F] (AR v2)
Track 9 accurately ripped (confidence 25) [0BBC3352] (AR v2)
Track 10 accurately ripped (confidence 25) [9AC607B4] (AR v2)
Track 11 accurately ripped (confidence 25) [4261CFDA] (AR v2)
Track 12 accurately ripped (confidence 25) [32934BAC] (AR v2)
Track 13 accurately ripped (confidence 26) [7770650E] (AR v2)
Track 14 accurately ripped (confidence 25) [FA50F614] (AR v2)
Track 15 accurately ripped (confidence 25) [9E261CE1] (AR v2)
Track 16 accurately ripped (confidence 25) [5064A53B] (AR v2)
Track 17 accurately ripped (confidence 26) [390C0F43] (AR v2)
Track 18 accurately ripped (confidence 25) [62BA2A0C] (AR v2)
Track 19 accurately ripped (confidence 25) [B997AADC] (AR v2)
Track 20 accurately ripped (confidence 25) [A0668636] (AR v2)

All tracks accurately ripped

End of status report

==== Log checksum 05416856700B0CEC726E23E8C42FFE8653D1B05C5370107181624A69A27BFC9B ====


[CUETools log; Date: 23.03.2014 17:19:49; Version: 2.1.5]
[CTDB TOCID: bXMm7m7HhefZyX4gWcXvaeOcrck-] found.
Track | CTDB Status
1 | (284/287) Accurately ripped
2 | (285/287) Accurately ripped
3 | (287/287) Accurately ripped
4 | (287/287) Accurately ripped
5 | (287/287) Accurately ripped
6 | (285/287) Accurately ripped
7 | (286/287) Accurately ripped
8 | (286/287) Accurately ripped
9 | (286/287) Accurately ripped
10 | (285/287) Accurately ripped
11 | (286/287) Accurately ripped
12 | (285/287) Accurately ripped
13 | (283/287) Accurately ripped
14 | (284/287) Accurately ripped
15 | (286/287) Accurately ripped
16 | (284/287) Accurately ripped
17 | (281/287) Accurately ripped
18 | (283/287) Accurately ripped
19 | (284/287) Accurately ripped
20 | (274/287) Accurately ripped
[AccurateRip ID: 0036ed17-0329fa4e-39123314] found.
Track [ CRC | V2 ] Status
01 [2c5575db|f72ef513] (200+111/1166) Accurately ripped
02 [3e03851c|d5f3445f] (200+121/1158) Accurately ripped
03 [b93dca67|1490a47d] (200+122/1154) Accurately ripped
04 [8581bd2c|4508992a] (200+121/1155) Accurately ripped
05 [7b193107|d52de504] (200+121/1157) Accurately ripped
06 [7b98f019|5dc8dceb] (200+122/1147) Accurately ripped
07 [3f168dc1|3dfc76bc] (200+121/1155) Accurately ripped
08 [4399ef7c|e110460f] (200+121/1155) Accurately ripped
09 [c525e97f|0bbc3352] (200+122/1148) Accurately ripped
10 [ec7bdcca|9ac607b4] (200+121/1149) Accurately ripped
11 [4f9246b6|4261cfda] (200+121/1150) Accurately ripped
12 [d8d48eb7|32934bac] (200+119/1144) Accurately ripped
13 [c79f200a|7770650e] (200+120/1150) Accurately ripped
14 [8d7a7bd3|fa50f614] (200+119/1143) Accurately ripped
15 [f6c1fd41|9e261ce1] (200+119/1144) Accurately ripped
16 [3139c7aa|5064a53b] (200+120/1147) Accurately ripped
17 [14aa7d69|390c0f43] (200+122/1124) Accurately ripped
18 [2983b02d|62ba2a0c] (200+122/1131) Accurately ripped
19 [5ab3580c|b997aadc] (200+121/1136) Accurately ripped
20 [e6950019|a0668636] (200+119/1089) Accurately ripped
Offsetted by -2023:
01 [b11e80b0] (004/1166) Accurately ripped
02 [441c2ba3] (004/1158) Accurately ripped
03 [d4fbeb06] (004/1154) Accurately ripped
04 [54597e36] (004/1155) Accurately ripped
05 [c6f3a7df] (004/1157) Accurately ripped
06 [a0de853d] (004/1147) Accurately ripped
07 [5c48d82d] (004/1155) Accurately ripped
08 [9df64f62] (004/1155) Accurately ripped
09 [918d8c38] (004/1148) Accurately ripped
10 [3d2eb914] (004/1149) Accurately ripped
11 [e3272238] (004/1150) Accurately ripped
12 [af7474ad] (004/1144) Accurately ripped
13 [a4a20c90] (004/1150) Accurately ripped
14 [ffbd4d42] (004/1143) Accurately ripped
15 [3b7c74a8] (004/1144) Accurately ripped
16 [eadf7c95] (004/1147) Accurately ripped
17 [ee75371c] (004/1124) Accurately ripped
18 [780e4f71] (004/1131) Accurately ripped
19 [d2a03dda] (004/1136) Accurately ripped
20 [d43de95f] (004/1089) Accurately ripped
Offsetted by -1340:
01 [e9a69e0f] (005/1166) Accurately ripped
02 [ece320d8] (005/1158) Accurately ripped
03 [8b146f83] (005/1154) Accurately ripped
04 [6f935f14] (005/1155) Accurately ripped
05 [8a29b567] (005/1157) Accurately ripped
06 [97323629] (005/1147) Accurately ripped
07 [346fabf1] (005/1155) Accurately ripped
08 [f4a29b54] (005/1155) Accurately ripped
09 [96922ac3] (005/1148) Accurately ripped
10 [8a1563b2] (005/1149) Accurately ripped
11 [f11af77e] (005/1150) Accurately ripped
12 [102f28cf] (005/1144) Accurately ripped
13 [0df65a62] (005/1150) Accurately ripped
14 [a1bc822f] (005/1143) Accurately ripped
15 [a9a9107d] (005/1144) Accurately ripped
16 [f77d4676] (005/1147) Accurately ripped
17 [1ba06255] (005/1124) Accurately ripped
18 [66860abd] (005/1131) Accurately ripped
19 [efdcfa84] (005/1136) Accurately ripped
20 [1629b571] (005/1089) Accurately ripped
Offsetted by -930:
01 [3b302c81] (067/1166) Accurately ripped
02 [912c157e] (067/1158) Accurately ripped
03 [35dc5019] (067/1154) Accurately ripped
04 [3554a9b8] (067/1155) Accurately ripped
05 [abc338d7] (067/1157) Accurately ripped
06 [b6df0411] (067/1147) Accurately ripped
07 [413f63a9] (066/1155) Accurately ripped
08 [ec51a010] (067/1155) Accurately ripped
09 [1b451a9d] (067/1148) Accurately ripped
10 [914406d6] (067/1149) Accurately ripped
11 [39f30dd2] (068/1150) Accurately ripped
12 [3c61c42b] (067/1144) Accurately ripped
13 [70cc615e] (066/1150) Accurately ripped
14 [25171ce5] (066/1143) Accurately ripped
15 [b7b299e3] (067/1144) Accurately ripped
16 [5964cd84] (068/1147) Accurately ripped
17 [cb2b1e33] (068/1124) Accurately ripped
18 [c492b1e5] (067/1131) Accurately ripped
19 [08e91350] (065/1136) Accurately ripped
20 [fc2453ed] (059/1089) Accurately ripped
Offsetted by -772:
01 [2da75e67] (002/1166) Accurately ripped
02 [09ed09a0] (003/1158) Accurately ripped
03 [11460f8b] (004/1154) Accurately ripped
04 [0ea6a4c4] (004/1155) Accurately ripped
05 [e969c6a7] (004/1157) Accurately ripped
06 [5f2cd909] (003/1147) Accurately ripped
07 [925c3c91] (003/1155) Accurately ripped
08 [c7659e24] (004/1155) Accurately ripped
09 [50e7b7fb] (004/1148) Accurately ripped
10 [58178f62] (003/1149) Accurately ripped
11 [2f4f116e] (003/1150) Accurately ripped
12 [86dbab1f] (003/1144) Accurately ripped
13 [6b2dd832] (003/1150) Accurately ripped
14 [8c288bb7] (004/1143) Accurately ripped
15 [0a881245] (004/1144) Accurately ripped
16 [1db7c81e] (004/1147) Accurately ripped
17 [df5cd5bd] (004/1124) Accurately ripped
18 [75edbc9d] (003/1131) Accurately ripped
19 [31c84614] (003/1136) Accurately ripped
20 [a0f18d41] (002/1089) Accurately ripped
Offsetted by -757:
01 [2106f01a] (004/1166) Accurately ripped
02 [80539bf1] (004/1158) Accurately ripped
03 [17859184] (004/1154) Accurately ripped
04 [351afbca] (004/1155) Accurately ripped
05 [70e2e78f] (004/1157) Accurately ripped
06 [5a171285] (004/1147) Accurately ripped
07 [5463d605] (004/1155) Accurately ripped
08 [1b62a7ae] (004/1155) Accurately ripped
09 [4f841e6a] (004/1148) Accurately ripped
10 [ee355d28] (004/1149) Accurately ripped
11 [12c11ebc] (004/1150) Accurately ripped
12 [78dd8519] (004/1144) Accurately ripped
13 [dc10361c] (004/1150) Accurately ripped
14 [8dd79160] (004/1143) Accurately ripped
15 [c97beeb6] (004/1144) Accurately ripped
16 [94cfdcab] (004/1147) Accurately ripped
17 [5c6b46c2] (004/1124) Accurately ripped
18 [1896c8f9] (004/1131) Accurately ripped
19 [64a65ff6] (004/1136) Accurately ripped
20 [6aeb1c6b] (004/1089) Accurately ripped
Offsetted by -676:
01 [76716947] (011/1166) Accurately ripped
02 [32e3e540] (010/1158) Accurately ripped
03 [6c761c2b] (010/1154) Accurately ripped
04 [37f59e84] (010/1155) Accurately ripped
05 [4c70ffa7] (010/1157) Accurately ripped
06 [a507e289] (010/1147) Accurately ripped
07 [6c267911] (010/1155) Accurately ripped
08 [adb90e64] (010/1155) Accurately ripped
09 [7b37145b] (010/1148) Accurately ripped
10 [4c098122] (010/1149) Accurately ripped
11 [1229002e] (010/1150) Accurately ripped
12 [93b4515f] (010/1144) Accurately ripped
13 [3da36472] (010/1150) Accurately ripped
14 [96ef1657] (010/1143) Accurately ripped
15 [6a3a61e5] (010/1144) Accurately ripped
16 [7e51e53e] (010/1147) Accurately ripped
17 [32ec75dd] (010/1124) Accurately ripped
18 [86f4721d] (010/1131) Accurately ripped
19 [44228554] (010/1136) Accurately ripped
20 [ad952181] (010/1089) Accurately ripped
Offsetted by -634:
01 [8649ce09] (023/1166) Accurately ripped
02 [e4cfe556] (024/1158) Accurately ripped
03 [e45b21b1] (022/1154) Accurately ripped
04 [0a082bc8] (024/1155) Accurately ripped
05 [c7c42897] (026/1157) Accurately ripped
06 [6397b6b1] (025/1147) Accurately ripped
07 [8b6ef389] (024/1155) Accurately ripped
08 [327d8f80] (025/1155) Accurately ripped
09 [ddb9ccc5] (025/1148) Accurately ripped
10 [56c35ae6] (023/1149) Accurately ripped
11 [f56858a2] (023/1150) Accurately ripped
12 [39531a1b] (024/1144) Accurately ripped
13 [79b6d1ce] (023/1150) Accurately ripped
14 [9ba5f2fd] (022/1143) Accurately ripped
15 [b41864bb] (024/1144) Accurately ripped
16 [989551fc] (024/1147) Accurately ripped
17 [f77b4beb] (021/1124) Accurately ripped
18 [4e676185] (022/1131) Accurately ripped
19 [6c2a0100] (023/1136) Accurately ripped
20 [e31cb25d] (018/1089) Accurately ripped
Offsetted by -431:
01 [52dfb508] (004/1166) Accurately ripped
02 [c0c4906b] (004/1158) Accurately ripped
03 [d283670e] (003/1154) Accurately ripped
04 [56b72be6] (004/1155) Accurately ripped
05 [9bd6191f] (004/1157) Accurately ripped
06 [fca4381d] (004/1147) Accurately ripped
07 [22a298cd] (004/1155) Accurately ripped
08 [0988aa32] (004/1155) Accurately ripped
09 [0f319d70] (004/1148) Accurately ripped
10 [dff04cc4] (004/1149) Accurately ripped
11 [951a8428] (004/1150) Accurately ripped
12 [59d28efd] (004/1144) Accurately ripped
13 [c6bf6260] (004/1150) Accurately ripped
14 [07c472ca] (004/1143) Accurately ripped
15 [43c97270] (004/1144) Accurately ripped
16 [c2308a3d] (004/1147) Accurately ripped
17 [82d85684] (003/1124) Accurately ripped
18 [e7bd9151] (004/1131) Accurately ripped
19 [2da3816a] (004/1136) Accurately ripped
20 [e5d6992f] (004/1089) Accurately ripped
Offsetted by -395:
01 [ce2b791c] (012/1166) Accurately ripped
02 [102122c7] (012/1158) Accurately ripped
03 [14b56bca] (013/1154) Accurately ripped
04 [e634c98e] (012/1155) Accurately ripped
05 [e0f8ce7f] (012/1157) Accurately ripped
06 [56d65bad] (012/1147) Accurately ripped
07 [f44e6f7d] (012/1155) Accurately ripped
08 [9fe7f44a] (012/1155) Accurately ripped
09 [3f0f6014] (012/1148) Accurately ripped
10 [7b6b076c] (012/1149) Accurately ripped
11 [ea2c3db0] (012/1150) Accurately ripped
12 [9ea3cd55] (012/1144) Accurately ripped
13 [d5ab76f8] (012/1150) Accurately ripped
14 [0bcee6c6] (012/1143) Accurately ripped
15 [a7ac504c] (012/1144) Accurately ripped
16 [466a5529] (012/1147) Accurately ripped
17 [e22e3290] (012/1124) Accurately ripped
18 [6e201561] (012/1131) Accurately ripped
19 [74855922] (012/1136) Accurately ripped
20 [ca93f0c7] (012/1089) Accurately ripped
Offsetted by -267:
01 [d9e3879c] (024/1166) Accurately ripped
02 [9c14f247] (023/1158) Accurately ripped
03 [e3a0274a] (022/1154) Accurately ripped
04 [729e168e] (023/1155) Accurately ripped
05 [0fad1a7f] (022/1157) Accurately ripped
06 [094fbdad] (022/1147) Accurately ripped
07 [c15c157d] (023/1155) Accurately ripped
08 [d301df4a] (023/1155) Accurately ripped
09 [77793094] (022/1148) Accurately ripped
10 [1602f46c] (023/1149) Accurately ripped
11 [18a426b0] (023/1150) Accurately ripped
12 [051a0055] (023/1144) Accurately ripped
13 [ee4831f8] (022/1150) Accurately ripped
14 [6f824a46] (022/1143) Accurately ripped
15 [7c9a0fcc] (021/1144) Accurately ripped
16 [1c8d26a9] (021/1147) Accurately ripped
17 [fc430810] (021/1124) Accurately ripped
18 [da290761] (022/1131) Accurately ripped
19 [37a85822] (023/1136) Accurately ripped
20 [db6e0bc7] (023/1089) Accurately ripped
Offsetted by -266:
01 [c7faf7b9] (152/1166) Accurately ripped
02 [d72cd9e6] (148/1158) Accurately ripped
03 [173dfcc1] (148/1154) Accurately ripped
04 [fdb6e928] (146/1155) Accurately ripped
05 [6e0a8317] (146/1157) Accurately ripped
06 [c4b4b071] (143/1147) Accurately ripped
07 [78f630c9] (146/1155) Accurately ripped
08 [a5681320] (146/1155) Accurately ripped
09 [ffea0435] (143/1148) Accurately ripped
10 [53382446] (147/1149) Accurately ripped
11 [5b011682] (145/1150) Accurately ripped
12 [bfe6ecbb] (147/1144) Accurately ripped
13 [a0796b6e] (151/1150) Accurately ripped
14 [1a49b10d] (146/1143) Accurately ripped
15 [7843eb4b] (145/1144) Accurately ripped
16 [e0396c4c] (145/1147) Accurately ripped
17 [e27731bb] (139/1124) Accurately ripped
18 [e5011945] (141/1131) Accurately ripped
19 [5d2e9e20] (144/1136) Accurately ripped
20 [938fbffd] (134/1089) Accurately ripped
Offsetted by -71:
01 [23d55dd0] (005/1166) Accurately ripped
02 [da624803] (005/1158) Accurately ripped
03 [68779666] (005/1154) Accurately ripped
04 [f19f5476] (004/1155) Accurately ripped
05 [4f312edf] (005/1157) Accurately ripped
06 [82999bbd] (005/1147) Accurately ripped
07 [5358fbad] (005/1155) Accurately ripped
08 [e9418f22] (005/1155) Accurately ripped
09 [eddb37d8] (005/1148) Accurately ripped
10 [f2bb9754] (005/1149) Accurately ripped
11 [e7cbc378] (005/1150) Accurately ripped
12 [09fefe6d] (005/1144) Accurately ripped
13 [5bf83050] (005/1150) Accurately ripped
14 [302cfaa2] (005/1143) Accurately ripped
15 [2aa61d08] (005/1144) Accurately ripped
16 [ec727775] (005/1147) Accurately ripped
17 [3c32eefc] (005/1124) Accurately ripped
18 [2796b9f1] (005/1131) Accurately ripped
19 [f275ee9a] (005/1136) Accurately ripped
20 [d53c051f] (005/1089) Accurately ripped
Offsetted by -28:
01 [21c532af] (003/1166) Accurately ripped
02 [c7662fb8] (003/1158) Accurately ripped
03 [13fa7163] (003/1154) Accurately ripped
04 [4ecab454] (003/1155) Accurately ripped
05 [28e1c067] (003/1157) Accurately ripped
06 [fc8e62a9] (003/1147) Accurately ripped
07 [2a3b9171] (003/1155) Accurately ripped
08 [406c4414] (003/1155) Accurately ripped
09 [d8cec3e3] (003/1148) Accurately ripped
10 [3aaaa0f2] (003/1149) Accurately ripped
11 [0d680bbe] (003/1150) Accurately ripped
12 [6a6ab38f] (003/1144) Accurately ripped
13 [4a3cd722] (003/1150) Accurately ripped
14 [dfab3e0f] (003/1143) Accurately ripped
15 [702dfb5d] (003/1144) Accurately ripped
16 [ca6229d6] (003/1147) Accurately ripped
17 [e6f5eeb5] (003/1124) Accurately ripped
18 [f9e1bb3d] (003/1131) Accurately ripped
19 [4003b044] (003/1136) Accurately ripped
20 [c2e54a31] (003/1089) Accurately ripped
Offsetted by 269:
01 [5af64454] (128/1166) Accurately ripped
02 [5621e72f] (126/1158) Accurately ripped
03 [f6171872] (125/1154) Accurately ripped
04 [ae9708fe] (125/1155) Accurately ripped
05 [a34018bf] (125/1157) Accurately ripped
06 [64ac080d] (124/1147) Accurately ripped
07 [2c053c9d] (126/1155) Accurately ripped
08 [58fe675a] (124/1155) Accurately ripped
09 [23b449ac] (125/1148) Accurately ripped
10 [3d5f24dc] (124/1149) Accurately ripped
11 [0b3a4660] (126/1150) Accurately ripped
12 [2228f5e5] (122/1144) Accurately ripped
13 [05588108] (123/1150) Accurately ripped
14 [01017aee] (122/1143) Accurately ripped
15 [683da1b4] (123/1144) Accurately ripped
16 [cd3ef3f1] (123/1147) Accurately ripped
17 [f97a4618] (122/1124) Accurately ripped
18 [8e8e7cc1] (123/1131) Accurately ripped
19 [c8cae3f2] (120/1136) Accurately ripped
20 [61ff5cd7] (115/1089) Accurately ripped
Offsetted by 440:
01 [649e27b3] (070/1166) Accurately ripped
02 [cf199e64] (069/1158) Accurately ripped
03 [7084aeef] (070/1154) Accurately ripped
04 [982bb5dc] (069/1155) Accurately ripped
05 [aba4f647] (070/1157) Accurately ripped
06 [911a30f9] (067/1147) Accurately ripped
07 [cff57861] (070/1155) Accurately ripped
08 [e343074c] (070/1155) Accurately ripped
09 [4711a637] (066/1148) Accurately ripped
10 [1fe61b7a] (068/1149) Accurately ripped
11 [5f4e77a6] (070/1150) Accurately ripped
12 [e90ade07] (071/1144) Accurately ripped
13 [0c39e2da] (072/1150) Accurately ripped
14 [143321db] (070/1143) Accurately ripped
15 [82b33f89] (071/1144) Accurately ripped
16 [815177d2] (068/1147) Accurately ripped
17 [be521b51] (065/1124) Accurately ripped
18 [cce2700d] (067/1131) Accurately ripped
19 [d97ba49c] (067/1136) Accurately ripped
20 [6082bce9] (065/1089) Accurately ripped
Offsetted by 719:
01 [e029574e] (004/1166) Accurately ripped
02 [36270cad] (004/1158) Accurately ripped
03 [b18853a0] (004/1154) Accurately ripped
04 [30393bb2] (004/1155) Accurately ripped
05 [8371f3ef] (004/1157) Accurately ripped
06 [cc1ec495] (004/1147) Accurately ripped
07 [e8e93835] (004/1155) Accurately ripped
08 [30a58586] (004/1155) Accurately ripped
09 [fa084aae] (004/1148) Accurately ripped
10 [d4dd4210] (004/1149) Accurately ripped
11 [b297d584] (004/1150) Accurately ripped
12 [7e608131] (004/1144) Accurately ripped
13 [3fdf8274] (004/1150) Accurately ripped
14 [338424bc] (004/1143) Accurately ripped
15 [c8d176f2] (004/1144) Accurately ripped
16 [c2115c77] (004/1147) Accurately ripped
17 [a12b84ae] (004/1124) Accurately ripped
18 [9e5def89] (004/1131) Accurately ripped
19 [bed1ec6e] (004/1136) Accurately ripped
20 [0d3e23c3] (004/1089) Accurately ripped
Offsetted by -1163:
01 [87db221c] (000/1166) No match
02 [c86a45c7] (000/1158) No match
03 [3b3506ca] (000/1154) No match
04 [9bbcfb8e] (000/1155) No match
05 [c8bf067f] (000/1157) No match
06 [27fe0fad] (000/1147) No match
07 [25fc8b7d] (000/1155) No match
08 [6d4c724a] (000/1155) No match
09 [ec947d14] (000/1148) No match
10 [dbdb796c] (000/1149) No match
11 [d35cc7b0] (000/1150) No match
12 [37de9b55] (000/1144) No match
13 [41ff14f8] (000/1150) No match
14 [b59a91c6] (000/1143) No match
15 [aa19d34c] (000/1144) No match
16 [41996c29] (000/1147) No match
17 [45b13190] (000/1124) No match
18 [e5ea6961] (000/1131) No match
19 [e1b35f22] (002/1136) Accurately ripped
20 [65774ec7] (000/1089) No match
Offsetted by -957:
01 [1eb75972] (000/1166) No match
02 [55a6a7b9] (000/1158) No match
03 [c436cc8c] (000/1154) No match
04 [89b6737a] (000/1155) No match
05 [b7e930cf] (000/1157) No match
06 [f3396965] (000/1147) No match
07 [e3fe82a5] (000/1155) No match
08 [bb8a287e] (000/1155) No match
09 [b75ec8a2] (000/1148) No match
10 [1ca7fad8] (000/1149) No match
11 [3a25c2ac] (000/1150) No match
12 [88c4d569] (000/1144) No match
13 [a59b51ec] (000/1150) No match
14 [220f45e8] (000/1143) No match
15 [2cc8737e] (000/1144) No match
16 [b6397553] (000/1147) No match
17 [83aab92a] (000/1124) No match
18 [9fc8ced9] (000/1131) No match
19 [13bfb186] (000/1136) No match (V2 was not tested)
20 [9096523b] (000/1089) No match
Offsetted by -933:
01 [70e9dc2a] (000/1166) No match
02 [dfe45ea1] (000/1158) No match
03 [9b02cfb4] (000/1154) No match
04 [940a31ea] (000/1155) No match
05 [90aaff0f] (000/1157) No match
06 [84b02bc5] (000/1147) No match
07 [1a7111c5] (000/1155) No match
08 [751f048e] (000/1155) No match
09 [81f29fba] (000/1148) No match
10 [d9a47748] (000/1149) No match
11 [72dc3e5c] (000/1150) No match
12 [0bfafef9] (000/1144) No match
13 [5a38b4fc] (000/1150) No match
14 [24c0e890] (000/1143) No match
15 [c4b50766] (000/1144) No match
16 [0e5ffc9b] (000/1147) No match
17 [188ea132] (000/1124) No match
18 [a40a7c39] (000/1131) No match (V2 was not tested)
19 [98564156] (000/1136) No match
20 [d3bf374b] (000/1089) No match
Offsetted by -931:
01 [4d18bc64] (000/1166) No match
02 [56142ddf] (000/1158) No match (V2 was not tested)
03 [023e7aa2] (000/1154) No match (V2 was not tested)
04 [aa3bd71e] (000/1155) No match (V2 was not tested)
05 [4d65d03f] (000/1157) No match (V2 was not tested)
06 [fb7a114d] (000/1147) No match (V2 was not tested)
07 [89a5485d] (000/1155) No match (V2 was not tested)
08 [19eb6c3a] (000/1155) No match (V2 was not tested)
09 [92d446fc] (000/1148) No match (V2 was not tested)
10 [540ed6fc] (000/1149) No match (V2 was not tested)
11 [f7961e00] (000/1150) No match (V2 was not tested)
12 [8194d7c5] (000/1144) No match (V2 was not tested)
13 [be9b27e8] (000/1150) No match (V2 was not tested)
14 [7a4fb61e] (000/1143) No match (V2 was not tested)
15 [bc08be64] (000/1144) No match (V2 was not tested)
16 [95b887e1] (000/1147) No match (V2 was not tested)
17 [e4f6f488] (000/1124) No match (V2 was not tested)
18 [b9baa001] (000/1131) No match (V2 was not tested)
19 [e362cd52] (000/1136) No match (V2 was not tested)
20 [44029fb7] (000/1089) No match (V2 was not tested)
Offsetted by -693:
01 [a6e2f75a] (000/1166) No match (V2 was not tested)
02 [464d83b1] (000/1158) No match (V2 was not tested)
03 [fefaef44] (000/1154) No match
04 [fb4fa24a] (000/1155) No match
05 [083d0d8f] (000/1157) No match
06 [3353c385] (000/1147) No match (V2 was not tested)
07 [3aeaa905] (000/1155) No match
08 [b4ef9d2e] (000/1155) No match (V2 was not tested)
09 [6bb906aa] (000/1148) No match (V2 was not tested)
10 [3b8153a8] (000/1149) No match
11 [a9fd133c] (000/1150) No match
12 [2c189e99] (000/1144) No match
13 [685e939c] (000/1150) No match
14 [3fb14320] (000/1143) No match
15 [b3f2ce76] (000/1144) No match (V2 was not tested)
16 [7fe1456b] (000/1147) No match (V2 was not tested)
17 [e975b182] (000/1124) No match
18 [ce9b41f9] (000/1131) No match
19 [c637df76] (000/1136) No match
20 [735829eb] (000/1089) No match
Offsetted by -640:
01 [f1bd2d5b] (000/1166) No match (V2 was not tested)
02 [8240779c] (000/1158) No match (V2 was not tested)
03 [aea820e7] (000/1154) No match (V2 was not tested)
04 [c7733c2c] (000/1155) No match (V2 was not tested)
05 [9193b507] (000/1157) No match (V2 was not tested)
06 [ff3a0619] (000/1147) No match (V2 was not tested)
07 [3dd24fc1] (000/1155) No match (V2 was not tested)
08 [4418587c] (000/1155) No match (V2 was not tested)
09 [ab14d6ff] (000/1148) No match (V2 was not tested)
10 [e7843bca] (000/1149) No match (V2 was not tested)
11 [673ab9b6] (000/1150) No match (V2 was not tested)
12 [d8858fb7] (000/1144) No match (V2 was not tested)
13 [4c8f790a] (000/1150) No match (V2 was not tested)
14 [9af98a53] (000/1143) No match (V2 was not tested)
15 [ce1d3fc1] (000/1144) No match (V2 was not tested)
16 [028bb02a] (000/1147) No match (V2 was not tested)
17 [924251e9] (000/1124) No match (V2 was not tested)
18 [0d56f62d] (000/1131) No match (V2 was not tested)
19 [8b045d0c] (000/1136) No match (V2 was not tested)
20 [92527919] (000/1089) No match (V2 was not tested)
Offsetted by -438:
01 [d03ba43d] (000/1166) No match (V2 was not tested)
02 [231d3b12] (000/1158) No match (V2 was not tested)
03 [693290cd] (000/1154) No match (V2 was not tested)
04 [890969b0] (000/1155) No match (V2 was not tested)
05 [07483cf7] (000/1157) No match (V2 was not tested)
06 [dce194c1] (000/1147) No match (V2 was not tested)
07 [1d6bd9b9] (000/1155) No match (V2 was not tested)
08 [48bd3f58] (000/1155) No match (V2 was not tested)
09 [541bd409] (000/1148) No match (V2 was not tested)
10 [337bfdce] (000/1149) No match (V2 was not tested)
11 [c48ff56a] (000/1150) No match (V2 was not tested)
12 [3e381833] (000/1144) No match (V2 was not tested)
13 [e766d026] (000/1150) No match (V2 was not tested)
14 [5c50a359] (000/1143) No match (V2 was not tested)
15 [622471f7] (000/1144) No match (V2 was not tested)
16 [687aa2c8] (000/1147) No match (V2 was not tested)
17 [376b32d7] (000/1124) No match (V2 was not tested)
18 [9bd51415] (000/1131) No match (V2 was not tested)
19 [26f79778] (000/1136) No match (V2 was not tested)
20 [dceaabb5] (000/1089) No match (V2 was not tested)
Offsetted by -422:
01 [b1b2a60d] (002/1166) Accurately ripped
02 [d49bb502] (000/1158) No match (V2 was not tested)
03 [a30fe83d] (000/1154) No match (V2 was not tested)
04 [3a969350] (000/1155) No match (V2 was not tested)
05 [ed1ec677] (002/1157) Accurately ripped
06 [9330c101] (000/1147) No match (V2 was not tested)
07 [970d8e79] (000/1155) No match (V2 was not tested)
08 [6f207cb8] (002/1155) Accurately ripped
09 [db290e19] (002/1148) Accurately ripped
10 [06cefb6e] (000/1149) No match (V2 was not tested)
11 [ea5ef28a] (000/1150) No match (V2 was not tested)
12 [eb06de93] (000/1144) No match (V2 was not tested)
13 [0a7a6786] (000/1150) No match (V2 was not tested)
14 [08c70fc9] (002/1143) Accurately ripped
15 [1cc229e7] (000/1144) No match (V2 was not tested)
16 [a33efcf8] (002/1147) Accurately ripped
17 [9aadcd87] (000/1124) No match (V2 was not tested)
18 [49563255] (000/1131) No match (V2 was not tested)
19 [7f5bf758] (000/1136) No match (V2 was not tested)
20 [5f05ef15] (000/1089) No match (V2 was not tested)
Offsetted by -398:
01 [03e528c5] (000/1166) No match (V2 was not tested)
02 [5ed96bea] (000/1158) No match (V2 was not tested)
03 [79dbeb65] (000/1154) No match (V2 was not tested)
04 [44ea51c0] (000/1155) No match (V2 was not tested)
05 [c5e094b7] (000/1157) No match (V2 was not tested)
06 [24a78361] (000/1147) No match (V2 was not tested)
07 [cd801d99] (000/1155) No match (V2 was not tested)
08 [28b558c8] (000/1155) No match (V2 was not tested)
09 [a5bce531] (000/1148) No match (V2 was not tested)
10 [c3cb77de] (000/1149) No match (V2 was not tested)
11 [23156e3a] (000/1150) No match (V2 was not tested)
12 [6e3d0823] (000/1144) No match (V2 was not tested)
13 [bf17ca96] (000/1150) No match (V2 was not tested)
14 [0b78b271] (000/1143) No match (V2 was not tested)
15 [b4aebdcf] (000/1144) No match (V2 was not tested)
16 [fb658440] (000/1147) No match (V2 was not tested)
17 [2f91b58f] (000/1124) No match (V2 was not tested)
18 [4d97dfb5] (000/1131) No match (V2 was not tested)
19 [03f28728] (000/1136) No match (V2 was not tested)
20 [a22ed425] (000/1089) No match (V2 was not tested)
Offsetted by -285:
01 [1c3da592] (000/1166) No match (V2 was not tested)
02 [7466a919] (000/1158) No match (V2 was not tested)
03 [428724ec] (000/1154) No match (V2 was not tested)
04 [aadf47ba] (000/1155) No match (V2 was not tested)
05 [6d1bbfcf] (000/1157) No match (V2 was not tested)
06 [dc36abe5] (000/1147) No match (V2 was not tested)
07 [d8862a25] (000/1155) No match (V2 was not tested)
08 [07d23a3e] (000/1155) No match (V2 was not tested)
09 [df8a4f42] (000/1148) No match (V2 was not tested)
10 [c8459718] (000/1149) No match (V2 was not tested)
11 [6e1b49ec] (000/1150) No match (V2 was not tested)
12 [e2b16129] (000/1144) No match (V2 was not tested)
13 [66d227ac] (000/1150) No match (V2 was not tested)
14 [6d7d1048] (000/1143) No match (V2 was not tested)
15 [caa8a0de] (000/1144) No match (V2 was not tested)
16 [5a704133] (000/1147) No match (V2 was not tested)
17 [cc981a0a] (000/1124) No match (V2 was not tested)
18 [16f7c559] (000/1131) No match (V2 was not tested)
19 [94376c46] (000/1136) No match (V2 was not tested)
20 [e90f5ffb] (000/1089) No match (V2 was not tested)
Offsetted by 171:
01 [35fd593a] (000/1166) No match (V2 was not tested)
02 [b6fb3c51] (000/1158) No match
03 [33ab60e4] (000/1154) No match
04 [6f166a0a] (000/1155) No match (V2 was not tested)
05 [837e0e8f] (000/1157) No match (V2 was not tested)
06 [a8071905] (000/1147) No match
07 [e306c985] (000/1155) No match (V2 was not tested)
08 [cdde8f6e] (000/1155) No match
09 [e883460a] (000/1148) No match
10 [cf02d368] (000/1149) No match (V2 was not tested)
11 [a3a677fc] (000/1150) No match (V2 was not tested)
12 [9fb676d9] (000/1144) No match (V2 was not tested)
13 [ce8081dc] (000/1150) No match (V2 was not tested)
14 [a0ac22c0] (000/1143) No match (V2 was not tested)
15 [11379b16] (000/1144) No match (V2 was not tested)
16 [e54c4b8b] (000/1147) No match
17 [d98252a2] (000/1124) No match
18 [67d7a379] (000/1131) No match
19 [6b6418b6] (000/1136) No match
20 [e518602b] (000/1089) No match (V2 was not tested)
Offsetted by 275:
01 [ef82e502] (000/1166) No match
02 [b8b154e9] (000/1158) No match
03 [2bca193c] (000/1154) No match
04 [f12bf89a] (000/1155) No match
05 [d9708c4f] (000/1157) No match
06 [c909b8a5] (000/1147) No match
07 [79a1e065] (000/1155) No match
08 [47639e5e] (000/1155) No match
09 [56593f72] (000/1148) No match
10 [ac9e43f8] (000/1149) No match
11 [9967e54c] (000/1150) No match
12 [82f68049] (000/1144) No match (V2 was not tested)
13 [327fd9cc] (000/1150) No match
14 [01ade398] (000/1143) No match
15 [4e38c6ae] (000/1144) No match
16 [634895c3] (000/1147) No match
17 [5eb3401a] (000/1124) No match
18 [cf9ee819] (000/1131) No match
19 [a9f087e6] (000/1136) No match
20 [b2c9961b] (000/1089) No match (V2 was not tested)

Track Peak [ CRC32 ] [W/O NULL] [ LOG ]
– 87,4 [B4C395C5] [504B7A54] CRC32
01 85,9 [484FC4FA] [2D095A68]
02 87,4 [BB8D8029] [527237E9]
03 86,2 [1BA19F4F] [08C41BEB]
04 83,7 [EE6C6CAA] [8A75F777]
05 87,4 [D04E444D] [583F385A]
06 87,4 [9BB0FA83] [FDCDB60C]
07 82,8 [34A076C6] [CC8C4E40]
08 87,4 [A0ECCAF5] [CF96C4DD]
09 86,1 [1A3A78B8] [375861BB]
10 80,5 [60D6BDBD] [02A15A8B]
11 87,4 [69D83ED0] [C9CA9902]
12 87,4 [B881C86F] [6936DC12]
13 87,4 [F07C22C6] [400446CA]
14 87,4 [E1FF87F3] [57E7F18B]
15 87,4 [A721934A] [A62E0BB3]
16 87,4 [5812FDB0] [16B3D86B]
17 87,4 [4EFE21EE] [7F4FC1D3]
18 83,8 [B3D94B6B] [A97D7E4B]
19 87,4 [98B5573D] [EB08C640]
20 84,9 [BD3F8DBF] [903D6B75]



Tracklist DVD:

Imagine,
Instant Karma (We All Shine On),
Mother,
Jealous Guy,
Power to the People,
Cold Turkey,
Love,
Mind Games,
Whatever Gets You Through the Night,
#9 Dream,
Stand by Me,
(Just Like) Starting Over,
Woman,
Beautiful Boy (Darling Boy),
Watching the Wheels,
Nobody Told Me,
Borrowed Time,
Working Class Hero,
Happy Xmas (War Is Over),
Give Peace a Chance

Special Features:

Working Class Hero
Slippin' & Slidin'
Imagine
Hair Peace
Everybody Had a Hard Year

Animations
Gallery

Title: Lennon Legend - DVD
Size: 6.60 Gb ( 6 915 714,00 KBytes ) - DVD-9
Enabled regions: 1, 2, 3, 4, 5, 6, 7, 8

VTS_01 :
Play Length: 01:23:08+{01:23:08}+00:14:02+{00:14:02}+00:01:31+{00:01:31}+00:03:01+00:00:01
Video: PAL 4:3 (720x576) VBR
Audio:
English (LinearPCM, 2 ch)
English (Dolby AC3, 6 ch)
English (DTS, 6 ch)








All thanks go to the original releasers

John Lennon or John Lennon in my Blog

Download John Lennon - Lennon Legend: The Very Best Of John Lennon (1997):