Subcategories

Leonard Cohen - Greatest Hits (2009)

Posted By: popsakov
Leonard Cohen - Greatest Hits (2009)

Leonard Cohen - Greatest Hits (2009)
EAC Rip | FLAC (Img) + Cue + Log ~ 481 Mb | MP3 CBR320 ~ 188 Mb
Full Scans ~ 43 Mb | 01:18:08 | RAR 5% Recovery
Folk Rock, Folk | Columbia Records / Sony Music #88697556132

The Best of Leonard Cohen is a greatest hits album by Leonard Cohen, released in 1975. In some countries from Europe, it was released under the title Greatest Hits. This alternative title was used for the original vinyl release and for CD reissues from the 1980s onwards. The album was not a hit in the United States but did well in Europe, Cohen's major market at the time. He toured in support of the album in 1976, beginning in Berlin on April 22 and ending in London on July 7. The front cover photograph was taken in 1968 in a Milan hotel room, according to Cohen's liner notes. In July 2009, this compilation was re-released in England under the title Greatest Hits with updated artwork and a revised track listing. Four tracks from the original 1975 Version ("Lady Midnight", "The Partisan", "Last Year's Man" & "Take This Longing") were removed and nine tracks released after 1975 ("Everybody Knows", "Waiting For The Miracle", "A Thousand Kisses Deep", "The Future", "Closing Time", "Dance Me To The End Of Love", "First We Take Manhattan", "I'm Your Man" and "Hallelujah") were added.
Leonard Cohen - Greatest Hits (2009)


***************

Leonard Cohen - Greatest Hits (2009)

Leonard Cohen - Greatest Hits (2009)

Track List:

01. Suzanne [3:50]
02. So Long, Marianne [5:39]
03. Sisters Of Mercy [3:35]
04. Famous Blue Raincoat [5:09]
05. Everybody Knows [5:36]
06. Waiting For The Miracle [3:26]
07. Who By Fire [2:35]
08. Chelsea Hotel #2 [3:07]
09. Hey, That's No Way To Say Goodbye [2:56]
10. Bird On The Wire [3:27]
11. A Thousand Kisses Deep [6:28]
12. The Future [6:42]
13. Closing Time [6:00]
14. Dance Me To The End Of Love [4:41]
15. First We Take Manhattan [5:52]
16. I'm Your Man [4:28]
17. Hallelujah [4:38]

Exact Audio Copy V1.1 from 23. June 2015

EAC extraction logfile from 1. September 2016, 17:26

Leonard Cohen / Greatest Hits

Used drive : ATAPI iHAS122 C Adapter: 1 ID: 0

Read mode : Secure
Utilize accurate stream : Yes
Defeat audio cache : Yes
Make use of C2 pointers : No

Read offset correction : 6
Overread into Lead-In and Lead-Out : No
Fill up missing offset samples with silence : Yes
Delete leading and trailing silent blocks : No
Null samples used in CRC calculations : Yes
Used interface : Native Win32 interface for Win NT & 2000

Used output format : Internal WAV Routines
Sample format : 44.100 Hz; 16 Bit; Stereo


TOC of the extracted CD

Track | Start | Length | Start sector | End sector
––––––––––––––––––––––––––––-
1 | 0:00.00 | 3:50.08 | 0 | 17257
2 | 3:50.08 | 5:38.40 | 17258 | 42647
3 | 9:28.48 | 3:34.49 | 42648 | 58746
4 | 13:03.22 | 5:09.09 | 58747 | 81930
5 | 18:12.31 | 5:36.10 | 81931 | 107140
6 | 23:48.41 | 3:25.55 | 107141 | 122570
7 | 27:14.21 | 2:34.67 | 122571 | 134187
8 | 29:49.13 | 3:07.14 | 134188 | 148226
9 | 32:56.27 | 2:55.66 | 148227 | 161417
10 | 35:52.18 | 3:26.73 | 161418 | 176940
11 | 39:19.16 | 6:27.74 | 176941 | 206039
12 | 45:47.15 | 6:42.37 | 206040 | 236226
13 | 52:29.52 | 5:59.54 | 236227 | 263205
14 | 58:29.31 | 4:40.42 | 263206 | 284247
15 | 63:09.73 | 5:52.26 | 284248 | 310673
16 | 69:02.24 | 4:27.60 | 310674 | 330758
17 | 73:30.09 | 4:38.18 | 330759 | 351626


Range status and errors

Selected range

Filename C:\Users\Arturs\Desktop\Leonard Cohen - Greatest Hits.wav

Peak level 99.7 %
Extraction speed 9.6 X
Range quality 100.0 %
Test CRC A631AFA7
Copy CRC A631AFA7
Copy OK

No errors occurred


AccurateRip summary

Track 1 accurately ripped (confidence 51) [8B9FEC7C] (AR v2)
Track 2 accurately ripped (confidence 51) [5F54AF98] (AR v2)
Track 3 accurately ripped (confidence 50) [FA31AE86] (AR v2)
Track 4 accurately ripped (confidence 50) [735CF1C1] (AR v2)
Track 5 accurately ripped (confidence 49) [3FF29FAA] (AR v2)
Track 6 accurately ripped (confidence 50) [8F502789] (AR v2)
Track 7 accurately ripped (confidence 49) [4415A287] (AR v2)
Track 8 accurately ripped (confidence 48) [8F570A70] (AR v2)
Track 9 accurately ripped (confidence 50) [C30E4773] (AR v2)
Track 10 accurately ripped (confidence 47) [EE3B22BB] (AR v2)
Track 11 accurately ripped (confidence 49) [159740E1] (AR v2)
Track 12 accurately ripped (confidence 48) [A6545372] (AR v2)
Track 13 accurately ripped (confidence 48) [E465269D] (AR v2)
Track 14 accurately ripped (confidence 48) [3E0B3A1D] (AR v2)
Track 15 accurately ripped (confidence 48) [79F77DC4] (AR v2)
Track 16 accurately ripped (confidence 47) [B1D26EDE] (AR v2)
Track 17 accurately ripped (confidence 47) [97137705] (AR v2)

All tracks accurately ripped

End of status report

–– CUETools DB Plugin V2.1.6

[CTDB TOCID: 0ulGhxEZ4_CJpYMLv.PST3f7usA-] found
Submit result: 0ulGhxEZ4_CJpYMLv.PST3f7usA- has been confirmed
Track | CTDB Status
1 | (347/348) Accurately ripped
2 | (348/348) Accurately ripped
3 | (348/348) Accurately ripped
4 | (348/348) Accurately ripped
5 | (348/348) Accurately ripped
6 | (348/348) Accurately ripped
7 | (348/348) Accurately ripped
8 | (348/348) Accurately ripped
9 | (348/348) Accurately ripped
10 | (348/348) Accurately ripped
11 | (348/348) Accurately ripped
12 | (347/348) Accurately ripped
13 | (346/348) Accurately ripped
14 | (347/348) Accurately ripped
15 | (345/348) Accurately ripped
16 | (344/348) Accurately ripped
17 | (342/348) Accurately ripped


==== Log checksum E3FEF089435476BDDA52F0250962A6E2BB2F5F1232FC409C667CCF53160305B9 ====

[CUETools log; Date: 03.09.2016 14:55:53; Version: 2.1.5]
[CTDB TOCID: 0ulGhxEZ4_CJpYMLv.PST3f7usA-] found.
Track | CTDB Status
1 | (348/349) Accurately ripped
2 | (349/349) Accurately ripped
3 | (349/349) Accurately ripped
4 | (349/349) Accurately ripped
5 | (349/349) Accurately ripped
6 | (349/349) Accurately ripped
7 | (349/349) Accurately ripped
8 | (349/349) Accurately ripped
9 | (349/349) Accurately ripped
10 | (349/349) Accurately ripped
11 | (349/349) Accurately ripped
12 | (348/349) Accurately ripped
13 | (347/349) Accurately ripped
14 | (348/349) Accurately ripped
15 | (346/349) Accurately ripped
16 | (345/349) Accurately ripped
17 | (343/349) Accurately ripped
[AccurateRip ID: 002e4afb-024e60d9-e8125011] found.
Track [ CRC | V2 ] Status
01 [89f02371|8b9fec7c] (002+051/206) Accurately ripped
02 [373eee34|5f54af98] (002+051/207) Accurately ripped
03 [b777bbc4|fa31ae86] (002+050/205) Accurately ripped
04 [23c7e8f7|735cf1c1] (002+050/207) Accurately ripped
05 [dfb66bfb|3ff29faa] (002+049/207) Accurately ripped
06 [3c4a8ae6|8f502789] (002+050/207) Accurately ripped
07 [12362402|4415a287] (002+049/205) Accurately ripped
08 [f3d42836|8f570a70] (002+048/204) Accurately ripped
09 [e8b2adc0|c30e4773] (002+050/205) Accurately ripped
10 [e5f6c75d|ee3b22bb] (002+047/201) Accurately ripped
11 [c2cc3134|159740e1] (002+049/206) Accurately ripped
12 [13604780|a6545372] (002+048/204) Accurately ripped
13 [538e8db3|e465269d] (002+048/203) Accurately ripped
14 [48bc330e|3e0b3a1d] (002+048/205) Accurately ripped
15 [107c6f3c|79f77dc4] (002+048/204) Accurately ripped
16 [865387e4|b1d26ede] (002+047/203) Accurately ripped
17 [b2ec0d0b|97137705] (002+047/194) Accurately ripped
Offsetted by -12:
01 [d77b4fd5] (014/206) Accurately ripped
02 [92278c48] (016/207) Accurately ripped
03 [c247e1ac] (014/205) Accurately ripped
04 [69fcc1f3] (015/207) Accurately ripped
05 [279a44db] (016/207) Accurately ripped
06 [69b388fe] (017/207) Accurately ripped
07 [c3e22ab2] (015/205) Accurately ripped
08 [e8c9d386] (016/204) Accurately ripped
09 [379fff24] (015/205) Accurately ripped
10 [a3f60ee5] (014/201) Accurately ripped
11 [d9f990ac] (016/206) Accurately ripped
12 [35d0374c] (015/204) Accurately ripped
13 [5d47e83b] (016/203) Accurately ripped
14 [20c5f9f6] (016/205) Accurately ripped
15 [ab167cf8] (016/204) Accurately ripped
16 [e4e5dbe8] (016/203) Accurately ripped
17 [c839650b] (014/194) Accurately ripped

Track Peak [ CRC32 ] [W/O NULL] [ LOG ]
– 99,7 [A631AFA7] [A5255077] CRC32
01 99,1 [913E50B8] [74A464DC]
02 98,0 [04EBC0F2] [2EB4B96D]
03 99,7 [6D7874BB] [C005D6A3]
04 97,1 [DCB800FA] [09B08150]
05 88,2 [69A6C37D] [0B9709AA]
06 96,6 [B0A35143] [4A09A9A6]
07 99,2 [F6866A66] [D4C2889E]
08 97,4 [A282CB75] [EA0FB764]
09 94,8 [10564441] [9D6BFC1B]
10 96,6 [F0C6B085] [52591979]
11 98,4 [736F6E7A] [1C6FA9D3]
12 98,9 [1E882A19] [FBAF4BCB]
13 98,3 [9B08801D] [01472FF8]
14 98,8 [94A1BDC1] [363BEE8E]
15 96,6 [BB0161EF] [C3A484C0]
16 81,2 [40BFB7C9] [0E3809AA]
17 99,5 [ED9DF793] [E41A902F]

Leonard Cohen - Greatest Hits (2009)


All thanks go to London

>>> Leonard Cohen in my Blog <<<

DOWNLOAD: