Subcategories

Leonard Cohen - I'm Your Man (1988)

Posted By: popsakov
Leonard Cohen - I'm Your Man (1988)

Leonard Cohen - I'm Your Man (1988)
EAC Rip | FLAC (Img) + Cue + Log ~ 261 Mb | MP3 CBR320 ~ 111 Mb
Scans Included (JPG, 300 dpi + PDF) | RAR 5% Recovery
Columbia #460642 2 / COL 460642 2 / CBS 460642 2 / 01-460642-10 / 02-460642-10
Folk / Rock

A stunningly sophisticated leap into modern musical textures, I'm Your Man re-establishes Leonard Cohen's mastery. Against a backdrop of keyboards and propulsive rhythms, Cohen surveys the global landscape with a precise, unflinching eye: the opening "First We Take Manhattan" is an ominous fantasy of commercial success bundled in crypto-fascist imagery, while the remarkable "Everybody Knows" is a cynical catalog of the land mines littering the surface of love in the age of AIDS.
~ Jason Ankeny, All Music
Leonard Cohen - I'm Your Man (1988)


***************

Leonard Cohen - I'm Your Man (1988)

Leonard Cohen - I'm Your Man (1988)

Track List:

01. First We Take Manhattan [6:01]
02. Ain't No Cure for Love [4:51]
03. Everybody Knows [5:36]
04. I'm Your Man [4:28]
05. Take This Waltz [6:00]
06. Jazz Police [3:54]
07. I Can't Forget [4:32]
08. Tower of Song [5:37]

Personnel:
Leonard Cohen: keyboards, vocals
Jude Johnson: vocals
Anjani Thomas: vocals
Jennifer Warnes: vocals
Mayel Assouly: backing vocals
Evelyine Hebey: backing vocals
Elisabeth Valletti: backing vocals
Jeff Fisher: keyboards
Bob Stanley: guitar
Sneaky Pete Kleinow: pedal steel guitar
Peter Kisilenko: bass
Tom Brechtlein: drums
Vinnie Colaiuta: drums
Lenny Castro: percussion
Michel Robidoux: drums, keyboards
John Bilezikjian: oud
Richard Beaudet: saxophone
Raffi Hakopian: violin

Exact Audio Copy V1.3 from 2. September 2016

EAC extraction logfile from 25. March 2017, 21:45

LEONARD COHEN / I'm Your Man

Used drive : TSSTcorpCDDVDW SH-224DB Adapter: 1 ID: 1

Read mode : Secure
Utilize accurate stream : Yes
Defeat audio cache : Yes
Make use of C2 pointers : No

Read offset correction : 6
Overread into Lead-In and Lead-Out : No
Fill up missing offset samples with silence : Yes
Delete leading and trailing silent blocks : No
Null samples used in CRC calculations : Yes
Used interface : Installed external ASPI interface

Used output format : Internal WAV Routines
Sample format : 44.100 Hz; 16 Bit; Stereo


TOC of the extracted CD

Track | Start | Length | Start sector | End sector
––––––––––––––––––––––––––––-
1 | 0:00.00 | 6:01.05 | 0 | 27079
2 | 6:01.05 | 4:50.70 | 27080 | 48899
3 | 10:52.00 | 5:36.37 | 48900 | 74136
4 | 16:28.37 | 4:28.33 | 74137 | 94269
5 | 20:56.70 | 5:59.72 | 94270 | 121266
6 | 26:56.67 | 3:53.50 | 121267 | 138791
7 | 30:50.42 | 4:31.73 | 138792 | 159189
8 | 35:22.40 | 5:37.37 | 159190 | 184501


Range status and errors

Selected range

Filename C:\Downloads\LEONARD COHEN\1988 - I'm Your Man\LEONARD COHEN - I'm Your Man.wav

Peak level 81.8 %
Extraction speed 2.7 X
Range quality 100.0 %
Test CRC B12EB811
Copy CRC B12EB811
Copy OK

No errors occurred


AccurateRip summary

Track 1 accurately ripped (confidence 99) [EA7F9D3A] (AR v2)
Track 2 accurately ripped (confidence 99) [6F6F1DE4] (AR v2)
Track 3 accurately ripped (confidence 98) [FD8329E6] (AR v2)
Track 4 accurately ripped (confidence 99) [AFDBBA42] (AR v2)
Track 5 accurately ripped (confidence 98) [A700D086] (AR v2)
Track 6 accurately ripped (confidence 99) [83876B1C] (AR v2)
Track 7 accurately ripped (confidence 98) [3F076054] (AR v2)
Track 8 accurately ripped (confidence 98) [476790EA] (AR v2)

All tracks accurately ripped

End of status report

–– CUETools DB Plugin V2.1.6

[CTDB TOCID: 25PEusq6nPf_.9dRuj196l7JZIU-] found
Submit result: 25PEusq6nPf_.9dRuj196l7JZIU- has been confirmed
Track | CTDB Status
1 | (407/412) Accurately ripped
2 | (410/412) Accurately ripped
3 | (407/412) Accurately ripped
4 | (408/412) Accurately ripped
5 | (408/412) Accurately ripped
6 | (408/412) Accurately ripped
7 | (407/412) Accurately ripped
8 | (406/412) Accurately ripped


==== Log checksum ED8027FAEE2A31B8593E83EEB2F6842BC13D1B28FE655A89CC116DF0BF7C8AB8 ====

foobar2000 1.3.14 / Dynamic Range Meter 1.1.1
log date: 2017-03-26 17:23:47

––––––––––––––––––––––––––––––––––––––––
Analyzed: LEONARD COHEN / I'm Your Man
––––––––––––––––––––––––––––––––––––––––

DR Peak RMS Duration Track
––––––––––––––––––––––––––––––––––––––––
DR12 -1.74 dB -16.42 dB 6:01 01-First We Take Manhattan
DR12 -2.24 dB -17.15 dB 4:51 02-Ain't No Cure for Love
DR13 -2.06 dB -17.75 dB 5:36 03-Everybody Knows
DR13 -3.66 dB -20.08 dB 4:28 04-I'm Your Man
DR13 -2.00 dB -18.28 dB 6:00 05-Take This Waltz
DR13 -1.92 dB -17.94 dB 3:54 06-Jazz Police
DR12 -2.48 dB -17.06 dB 4:32 07-I Can't Forget
DR13 -4.77 dB -20.80 dB 5:37 08-Tower of Song
––––––––––––––––––––––––––––––––––––––––

Number of tracks: 8
Official DR value: DR13

Samplerate: 44100 Hz
Channels: 2
Bits per sample: 16
Bitrate: 780 kbps
Codec: Monkey's Audio
================================================================================

[CUETools log; Date: 22.05.2017 12:52:57; Version: 2.1.5]
[CTDB TOCID: 25PEusq6nPf_.9dRuj196l7JZIU-] found.
Track | CTDB Status
1 | (420/426) Accurately ripped
2 | (423/426) Accurately ripped
3 | (420/426) Accurately ripped
4 | (421/426) Accurately ripped
5 | (422/426) Accurately ripped
6 | (422/426) Accurately ripped
7 | (421/426) Accurately ripped
8 | (420/426) Accurately ripped
[AccurateRip ID: 000cf10a-00557a97-68099c08] found.
Track [ CRC | V2 ] Status
01 [8ff4fe8c|ea7f9d3a] (137+100/634) Accurately ripped
02 [4330cfa0|6f6f1de4] (137+100/633) Accurately ripped
03 [d08c9f2a|fd8329e6] (137+099/633) Accurately ripped
04 [b65cde45|afdbba42] (137+100/635) Accurately ripped
05 [2d2e90b6|a700d086] (137+099/632) Accurately ripped
06 [13c1430e|83876b1c] (137+100/634) Accurately ripped
07 [e8f99500|3f076054] (138+099/633) Accurately ripped
08 [5ae1e961|476790ea] (136+099/630) Accurately ripped
Offsetted by -664:
01 [776c5d41] (002/634) Accurately ripped
02 [cc08df96] (002/633) Accurately ripped
03 [e7953f58] (002/633) Accurately ripped
04 [dd28fbce] (002/635) Accurately ripped
05 [fdfd808e] (002/632) Accurately ripped
06 [e4612a8b] (002/634) Accurately ripped
07 [5f803fba] (002/633) Accurately ripped
08 [a2582c18] (002/630) Accurately ripped
Offsetted by 29:
01 [f83c74ce] (192/634) Accurately ripped
02 [8c23fc97] (191/633) Accurately ripped
03 [35364b75] (192/633) Accurately ripped
04 [02d51e73] (193/635) Accurately ripped
05 [0e01504c] (191/632) Accurately ripped
06 [a3f6a59e] (192/634) Accurately ripped
07 [0efa099d] (191/633) Accurately ripped
08 [235ac867] (185/630) Accurately ripped
Offsetted by 23:
01 [1146b7e8] (000/634) No match (V2 was not tested)
02 [3fd4f83a] (000/633) No match (V2 was not tested)
03 [28c7ebe6] (000/633) No match (V2 was not tested)
04 [ea34134c] (000/635) No match (V2 was not tested)
05 [d13a84d0] (000/632) No match (V2 was not tested)
06 [a830b915] (000/634) No match (V2 was not tested)
07 [f726da11] (000/633) No match (V2 was not tested)
08 [f3d14e7e] (000/630) No match (V2 was not tested)

Track Peak [ CRC32 ] [W/O NULL] [ LOG ]
– 81,8 [B12EB811] [3B43D649] CRC32
01 81,8 [D909A12C] [CDD6CB4B]
02 77,3 [F05AFE11] [B6B0792A]
03 78,9 [F0DB8035] [93E20040]
04 65,6 [7DB6F337] [451A61E5]
05 79,4 [21303047] [FFC44BC2]
06 80,1 [FC1B3C89] [5C517B44]
07 75,1 [54179C96] [EF8AB64E]
08 57,7 [095EAC43] [E4D99D31]

Leonard Cohen - I'm Your Man (1988)

All thanks go to the original ripper(s) …

>>> Leonard Cohen in my Blog <<<

Download from icerbox.com: