Subcategories

Leonard Cohen - Various Positions (1984) [US 1st Press]

Posted By: Andi_Deris
Leonard Cohen - Various Positions (1984) [US 1st Press]

Leonard Cohen - Various Positions (1984) [US 1st Press]
EAC Rip | FLAC: Tracks+Cue+Log | 216 Mb | MP3 CBR 320 kbps | 84 Mb | Scans | Time: 35:32
Columbia | CK 66950 DIDP 084831
Folk Rock, Singer-Songwriter, Spoken Word

Various Positions is the seventh studio album by Leonard Cohen, released in December 1984 (and February 1985). It marked not only his turn to the modern sound and use of synthesizers (particularly on the opening track), but also, after the harmonies and backing vocals from Jennifer Warnes on the previous Recent Songs (1979), an even greater contribution from Warnes, who is credited equally to Cohen as vocalist on all of the tracks.

Leonard Cohen - Various Positions (1984) [US 1st Press]




Leonard Cohen - Various Positions (1984) [US 1st Press]


Track Listing

01. Dance Me To The End Of Love (04:40)
02. Coming Back To You (03:36)
03. The Law (04:29)
04. Night Comes On (04:42)
05. Hallelujah (04:40)
06. The Captain (04:10)
07. Hunter's Lullaby (02:27)
08. Heart With No Companion (03:05)
09. If It Be Your Will (03:43)

Produced by John Lissauer

Personnel

• Leonard Cohen - vocals, guitar, photography (polaroid shot)
• Jennifer Warnes - vocals
• John Lissauer - piano, keyboard orchestrations, backing vocals
• John Crowder - backing vocals, bass guitar
• Anjani Thomas - backing vocals
• Crissie Faith - backing vocals
• Erin Dickins - backing vocals
• Lani Groves - backing vocals
• Merle Miller - backing vocals
• Ron Getman - backing vocals
• Yvonne Lewis - backing vocals
• Sid McGinnis - guitar
• Richard Crooks - drums

Exact Audio Copy V0.99 prebeta 5 from 4. May 2009

EAC extraction logfile from 4. February 2011, 21:11

Leonard Cohen / Various Positions

Used drive : TSSTcorpCDDVDW SH-S202J Adapter: 0 ID: 1

Read mode : Secure
Utilize accurate stream : Yes
Defeat audio cache : Yes
Make use of C2 pointers : No

Read offset correction : 6
Overread into Lead-In and Lead-Out : No
Fill up missing offset samples with silence : Yes
Delete leading and trailing silent blocks : No
Null samples used in CRC calculations : Yes
Used interface : Native Win32 interface for Win NT & 2000
Gap handling : Appended to previous track

Used output format : User Defined Encoder
Selected bitrate : 768 kBit/s
Quality : High
Add ID3 tag : No
Command line compressor : C:\Program Files\Exact Audio Copy\Flac\flac.exe
Additional command line options : -V -8 -T "artist=%a" -T "title=%t" -T "album=%g" -T "date=%y" -T "tracknumber=%n" -T "genre=%m" %s


TOC of the extracted CD

Track | Start | Length | Start sector | End sector
––––––––––––––––––––––––––––-
1 | 0:00.00 | 4:40.17 | 0 | 21016
2 | 4:40.17 | 3:35.68 | 21017 | 37209
3 | 8:16.10 | 4:28.54 | 37210 | 57363
4 | 12:44.64 | 4:41.43 | 57364 | 78481
5 | 17:26.32 | 4:39.63 | 78482 | 99469
6 | 22:06.20 | 4:10.17 | 99470 | 118236
7 | 26:16.37 | 2:26.48 | 118237 | 129234
8 | 28:43.10 | 3:04.32 | 129235 | 143066
9 | 31:47.42 | 3:43.25 | 143067 | 159816


Track 1

Filename C:\EAC Rips\01-Leonard Cohen-Various Positions-Dance Me To The End Of Love.wav

Pre-gap length 0:00:02.00

Peak level 100.0 %
Track quality 99.9 %
Test CRC 5CBCE15A
Copy CRC 5CBCE15A
Accurately ripped (confidence 5) [20915E39]
Copy OK

Track 2

Filename C:\EAC Rips\02-Leonard Cohen-Various Positions-Coming Back To You.wav

Pre-gap length 0:00:01.06

Peak level 87.5 %
Track quality 100.0 %
Test CRC FB63C9FD
Copy CRC FB63C9FD
Accurately ripped (confidence 5) [C96EDB56]
Copy OK

Track 3

Filename C:\EAC Rips\03-Leonard Cohen-Various Positions-The Law.wav

Pre-gap length 0:00:03.60

Peak level 100.0 %
Track quality 100.0 %
Test CRC 76DF6353
Copy CRC 76DF6353
Accurately ripped (confidence 5) [F6D47B26]
Copy OK

Track 4

Filename C:\EAC Rips\04-Leonard Cohen-Various Positions-Night Comes On.wav

Pre-gap length 0:00:02.45

Peak level 89.4 %
Track quality 99.9 %
Test CRC 3E7B4D21
Copy CRC 3E7B4D21
Accurately ripped (confidence 5) [042593F7]
Copy OK

Track 5

Filename C:\EAC Rips\05-Leonard Cohen-Various Positions-Hallelujah.wav

Pre-gap length 0:00:01.89

Peak level 100.0 %
Track quality 100.0 %
Test CRC 99C8AFD7
Copy CRC 99C8AFD7
Accurately ripped (confidence 5) [75CEBA28]
Copy OK

Track 6

Filename C:\EAC Rips\06-Leonard Cohen-Various Positions-The Captain.wav

Pre-gap length 0:00:03.04

Peak level 99.7 %
Track quality 100.0 %
Test CRC 9E7BC509
Copy CRC 9E7BC509
Accurately ripped (confidence 5) [28730D5F]
Copy OK

Track 7

Filename C:\EAC Rips\07-Leonard Cohen-Various Positions-Hunter's Lullaby.wav

Pre-gap length 0:00:03.33

Peak level 70.6 %
Track quality 100.0 %
Test CRC DE5D4C68
Copy CRC DE5D4C68
Accurately ripped (confidence 5) [83FE8F15]
Copy OK

Track 8

Filename C:\EAC Rips\08-Leonard Cohen-Various Positions-Heart With No Companion.wav

Pre-gap length 0:00:01.84

Peak level 85.8 %
Track quality 100.0 %
Test CRC 210D9F69
Copy CRC 210D9F69
Accurately ripped (confidence 5) [CAF69541]
Copy OK

Track 9

Filename C:\EAC Rips\09-Leonard Cohen-Various Positions-If It Be Your Will.wav

Pre-gap length 0:00:00.60

Peak level 85.0 %
Track quality 100.0 %
Test CRC BFAA93E7
Copy CRC BFAA93E7
Accurately ripped (confidence 5) [E1867A08]
Copy OK


All tracks accurately ripped

No errors occurred

End of status report


Many thanks to the original uploader: Dan33185





Password: pass