Subcategories

Leontyne Price - The Essential Leontyne Price (1996) (11 CDs Box Set)

Posted By: murena
Leontyne Price - The Essential Leontyne Price (1996) (11 CDs Box Set)

Leontyne Price - The Essential Leontyne Price (1996) (11 CDs Box Set)
EAC Rip | FLAC (Tracks+.cue, log) | 11 CDs, ~12h | 3,24 Gb | Scans->19,7 mb
Genre: Classical / Label: BMG

This 11-CD set, one might say jokingly, contains all the music ever written for the soprano voice and a bit for mezzo as well. And indeed, it's a staggering collection: In addition to her great Verdi heroines (the two Leonoras, Aida, Amelia, and Elvira in Ernani), Price is heard in her Puccini roles–Manon Lescaut, Butterfly, Tosca–and at least two dozen other roles, most of which she never sang on stage. Here are her heroic, secure Leonore in Fidelio, Strauss's high-flying Egyptian Helen, Purcell's Dido, Barber's Cleopatra, Bellini's Norma, Ariadne, Verdi's Violetta and Desdemona, Bizet's Carmen, Mozart's Countess, and Fiordiligi. Some are, naturally, more successful than others; almost none are embarrassing (Carmen comes close). In addition, she sings songs by Schubert, Schumann, and Strauss–none of them as well as say, Janet Baker or Elisabeth Schwarzkopf, and Barber's Knoxville, etc.–quite beautifully. Berlioz's Les Nuits d'été is not very good, but a group of spirituals is. In all, however, this is an amazing display by one of the century's greatest sopranos. There may be no new depths plumbed here, but the singing is a knockout. –Robert Levine

Tracklist:

Disc: 1
1. Aida: Act I: Ritorna vincitor!
2. Aida: Act I: E l'amor mio?
3. Aida: Act I: I sacri nomi di padre, d'amante
4. Aida: Act III: Qui Radames verra!
5. Aida: Act III: O patria mia
6. Un Ballo in Maschera: Act II: (Prelude)
7. Un Ballo in Maschera: Act II: Ecco l'orrido campo
8. Un Ballo in Maschera: Act II: Ma dall'arido stelo divulsa
9. Un Ballo in Maschera: Act III: A tal colpa e nulla il pianto
10. Un Ballo in Maschera: Act III: Morro, ma prima in grazia
11. Il Trovatore: Act I: Che piu t'arresti?
12. Il Trovatore: Act I: Tacea la notte placida
13. Il Trovatore: Act I: Di tale amor che dirsi
14. Il Trovatore: Act IV: Siam giunti
15. Il Trovatore: Act IV: D'amor sull'ali rosee
16. Ernani: Act I: Surta e la notte
17. Ernani: Act I: Ernani! Ernani, involami
18. Ernani: Act I: Tutto sprezzo che d'Ernani
19. La forza del destino: Act II: Son giunta! Grazie, o Dio!
20. La forza del destino: Act II: Madre, madre, pietosa Vergine
21. La forza del destino: Act II: La Vergine degli angeli
22. La forza del destino: Act IV: Pace, pace, mio Dio

Disc: 2
1. Cosi fan tutte: Act I: Come scoglio immoto resta
2. Madama Butterfly: Act II: Piangi? Perche?; Un bel di vedremo
3. Madama Butterfly: Act III: Tu? tu? piccolo Iddio!
4. TOSCA: Act II: Vissi d'arte
5. Manon Lescaut: Act II: In quelle trine morbide
6. Manon Lescaut: Act IV: Sola, perduta, abbandonata
7. Dialogues des Carmelites: Act III: Mes filles, voila que s'acheve
8. Don Giovanni: Act I: Don Ottavio, son morta!
9. Don Giovanni: Act I: Or sai chi l'onore
10. Don Giovanni: Act II: Crudele? Ah, no, mio bene!
11. Don Giovanni: Act II: Non mi dir
12. Turandot: Act I: Signore, ascolta!
13. Turandot: Act III: Tu che di gel sei cinta
14. Ariadne auf Naxos: Es gibt ein Reich
15. Antony And Cleopatra: Act III: Give me my robe

Disc: 3
1. Otello: Era piu calmo?
2. Otello: Mia madre aveva una povera ancella (Willow Song)
3. Otello: Ave Maria
4. Fidelio: Act I: Abscheulicher! Wo eilst du hin?
5. Suor Angelica: Senza mamma, o bimbo, tu sei morto!
6. Carmen: L'amour est un oiseau rebelle (Habanera)
7. La Traviata: Act I: E strano, e strano !
8. La Traviata: Act I: Ah, fors' e lui
9. La Traviata: Act I: Sempre libera
10. Le nozze di Figaro: Act III: E Susanna non vien!
11. Le nozze di Figaro: Act III: Dove sono
12. Die Agyptische Helena: Act II: Awakening Scene
13. La rondine: Ore dolci e divine
14. Salome: Finale

Disc: 4
1. Eugene Onegin: Act II: Puskai pogibnu ya
2. Eugene Onegin: Act II: Ya k vam pishu
3. Eugene Onegin: Act II: Net, nikomu na svete
4. Eugene Onegin: Act II: No tak i byt'!
5. La rondine: Act I: Chi il bel sogno di Doretta
6. VANESSA: Act I: He Has Come, He Has Come!
7. VANESSA: Act I: Do Not Utter A Word
8. Carmen: Act I: Pres des remparts de Seville (Seguidilla)
9. Manon: Act II: Allons! il le faut!
10. Manon: Act II: Adieu, notre petite table
11. Macbeth: Act IV: Sleepwalking Scene: Vegliammo invan due notti
12. Macbeth: Act IV: Sleepwalking Scene: Una macchia e qui tuttora
13. La Boheme: Act IIII: Addio. Donde lieta usci (Mimi's Addio)
14. Die Frau ohne Schatten: Act II: Empress's Awakening Scene
15. Dido and Aeneas: Act III: Thy Hand, Belinda!
16. Dido and Aeneas: Act III: When I Am Laid In Earth
17. Don Carlo: Act V: Tu che le vanita conoscesti del mondo

Disc: 5
1. Otello: Act I: Gia nella notte
2. Otello: Act I: Quando narravi
3. Otello: Act I: Venga la morte!
4. Cosi fan tutte: Act I: Ah, guarda, sorella
5. Madama Butterfly: Act I: Bimba, bimba, non piangere
6. Madama Butterfly: Act I: Bimba dagli occhi
7. Madama Butterfly: Act I: Vogliatemi bene
8. Requiem: Recordare
9. Porgy And Bess: Act II: Bess, You Is My Woman
10. Norma: Act III: Me chiami, o Norma
11. Norma: Act III: Mira, o Norma
12. Ernani: Act II: Tu, perfida!
13. Ernani: Act II: Ah, morir, potessi adesso
14. Cosi fan tutte: Act II: Sorella, cosa dici?
15. Cosi fan tutte: Act II: Prendero quel brunettino
16. Aida: Act IV: La fatal pietra sovra me si chiuse
17. Aida: Act IV: Presago il core della tua condanna
18. Aida: Act IV: Vedi? Di morte l'angelo
19. Aida: Act IV: O terra, addio

Disc: 6
1. Un Ballo in Maschera: Act II: Teco io sto!
2. Aida: Act III: Ciel! mio padre!
3. Aida: Act III: Rivedrai le forest imbalsamate
4. Aida: Act III: In armi ora si desta il popol nostro
5. Aida: Act III: Padre! a costoro schiava non sono
6. Requiem: Angus Dei
7. Manon Lescaut: Act I: Oh, saro la piu bella!; Tu, tu, amore?
8. Cosi fan tutte: Act I: Soave sia il vento
9. Porgy And Bess: Act II: I Loves You, Porgy
10. Aida: Act II: Silenzio! Aida verso noi s'avanza
11. Aida: Act II: Fu la sorte dell'armi
12. Aida: Act II: Pieta ti prenda del mio dolor
13. Aida: Act II: Alla prompa che s'appresta
14. Il Trovatore: Act IV: Udiste?
15. Il Trovatore: Act IV: Mira, di acerbe lagrime
16. Il Trovatore: Act IV: Vivra! Contende il giubilo
17. Madama Butterfly: Act II: Scuoti quella fronda di ciliegio (Flower Duet)
18. Carmen: Act IV: C'est toi! - C'est moi!
19. Carmen: Act IV: Ou vas-tu? - Laisse-moi!

Disc: 7
1. Les nuits d'ete, Op.7: Villanelle
2. Les nuits d'ete, Op.7: Le spectre de la rose
3. Les nuits d'ete, Op.7: Sur les lagunes
4. Les nuits d'ete, Op.7: Absence
5. Les nuits d'ete, Op.7: Au cimetiere (Clair de lune)
6. Les nuits d'ete, Op.7: L'ile inconnue
7. Four Last Songs: Fruhling
8. Four Last Songs: September
9. Four Last Songs: Beim Schlafengehen
10. Four Last Songs: Im Abendrot
11. Clair de lune, Op.46, No.2: Clair de lune
12. Notre amour, Op.23, No.2: Notre amour
13. Au cimetiere, Op.51, No.2: Au cimetiere
14. Au bord de l'eau, Op.8, No.1: Au bord de l'eau
15. No.1, Cinq melodies de Venise, Op.58: Mandoline
16. Main dominee par le coeur
17. Miroirs brulants No.2: Je nommerai ton front
18. Miroirs brulants No.1: Tu vois le feu du soir
19. Ce doux petit visage

Disc: 8
1. Knoxville: Summer Of 1915, Op.24: Knoxville: Summer Of 1915
2. Frauenliebe und -leben, op.42: Seit ich ihn gesehen
3. Frauenliebe und -leben, op.42: Er, der Herrlichste von allen
4. Frauenliebe und -leben, op.42: Ich kann's nicht fassen
5. Frauenliebe und -leben, op.42: Du Ring an meinem Finger
6. Frauenliebe und -leben, op.42: Helft mir, ihr Schwestern
7. Frauenliebe und -leben, op.42: Susser Freund, du blickest
8. Frauenliebe und -leben, op.42: An meinem Herzen, an meiner Brust
9. Frauenliebe und -leben, op.42: Nun hast du mir den ersten Schmerz getan
10. Widmung (No.1, Myrthen, Op.25): Widmung
11. Mignon (No.28, Liederalbum fur die Jugend, Op.79): Mignon
12. Volksliedchen, Op.51, No.2: Volksliedchen
13. Schone Wiege meiner Leiden (No.5, Liederkreis, Op.24): Schone Wiege meiner Leiden
14. Er ist's (No.23, Liederalbum fur die Jugend, Op.79): Er ist's
15. Heiss mich nicht reden (No.5, Lieder und Gesand aus Wilhelm Meister)
16. Lust der Sturmnacht, Op.35, No.1: Lust der Sturmnacht
17. Allerseelen, Op.10, No.8: Allerseelen
18. Schlagende Herzen
19. Freundliche Vision, Op.48, No.1: Freundliche Vision
20. Wie sollten wir geheim, Op.19, No.4: Wie sollten wir geheim
21. Der Gartner (Morike-Lieder No.17)
22. Lebe wohl (Morike-Lieder No.36)
23. Morgentau (From An Old Songbook)
24. Geh, Geliebter, geh jetzt (Spanisches Liederbuch No.34)

Disc: 9
1. Ev'ry Time I Feel The Spirit - Various Artists
2. Let Us Break Bread Together On Our Knees - Various Artists
3. His Name So Sweet - Various Artists
4. 'Roun' About De Mountain - Various Artists
5. Swing Low, Sweet Chariot - Various Artists
6. Sit Down, Servant - Various Artists
7. Were You There - Various Artists
8. He's Got The Whole World In His Hands - Various Artists
9. Deep River - Various Artists
10. Honor! Honor! - Various Artists
11. My Soul's Been Anchored In De Lord - Various Artists
12. On Ma Journey - Various Artists
13. A City Called Heaven - Various Artists
14. Ride On, King Jesus - Various Artists
15. I Wish I Knew How It Would Feel To Be Free - Various Artists
16. Sinner, Please Don't Let This Harvest Pass - Various Artists
17. Sweet Little Jesus Boy - Various Artists
18. There Is A Balm In Gilead - Various Artists
19. Let Us Cheer The Weary Traveler - Various Artists
20. Ev'ry Time I Feel The Spirit - Various Artists
21. My Way Is Cloudy - Various Artists
22. Nobody Knows The Touble I've Seen - Various Artists
23. I Couldn't Hear Nobody Pray - Various Artists

Disc: 10
1. Holy, Holy, Holy
2. Lead, Kindly Light
3. Blessed Assurance
4. Ave Maria
5. What A Friend We Have In Jesus
6. Amazing Grace
7. The Lord's Prayer
8. Pass Me Not, O Gentle Saviour
9. The Church's One Foundation
10. Bless This House
11. I Need Thee Every Hour
12. Fairest Lord Jesus
13. I Wonder As I Wander
14. Ave Maria
15. Porgy And Bess: Summertime
16. America The Beautiful
17. Lift Ev'ry Voice And Sing
18. A Mighty Fortress Is Our God
19. Battle Hymn Of The Republic

Disc: 11
1. Chants tziganes, Op. 103: He Zigeuner
2. Chants tziganes, Op. 103: Hochgeturmte Rimaflut
3. Chants tziganes, Op. 103: Wisst ihr, wann mein Kindchen
4. Chants tziganes, Op. 103: Lieber Gott, du weisst
5. Chants tziganes, Op. 103: Brauner Bursche
6. Chants tziganes, Op. 103: Roselein dreie in der Reihe
7. Chants tziganes, Op. 103: Kommt dir manchmal in den Sinn
8. Chants tziganes, Op. 103: Rote Abendwolken
9. Adriana Lecouvreur: Act I: Io son l'umile ancella
10. This Little Light O'Mine
11. Interview With Leontyne Price By John Pfeiffer

CD1
Exact Audio Copy V0.99 prebeta 4 from 23. January 2008

Archivo Log de extracciones desde 23. Febrero 2009, 18:13

Leontyne Price / The Essential Leontyne Price CD1ч11

Usar unidad : TSSTcorpCD/DVDW TS-L632D Adapter: 2 ID: 0

Modo de Lectura : Seguro
Utilizar Corriente Exacta : Sн
Descartar Audio cachй : Sн
Utilizar los punteros C2 : No

Correcciуn de Desplazamiento de Lectura : 6
Sobreleer tanto en Lead-In como en Lead-Out : No
Rellenar las muestras faltantes con silencios : Sн
Eliminar silencios inicial y final : No
Se han usado muestras nulas en los cбlculos CRC : Sн
Interfaz usada : Interfaz propio de Win32 para Windowns NT y 2000
Gestiуn de Gaps : Aсadido a la pista previa

Formato de Salida utilizado : Compresor definido por el usuario
Bitrate seleccionado : 128 kBit/s
Calidad : Alta
Aсadir Etiqueta ID3 : No
Compresor de linea de comandos : C:\Program Files\Exact Audio Copy\Flac\flac.exe
Opciones adicionales en lнnea de comandos : -8 -V -T "artist=%a" -T "title=%t" -T "album=%g" -T "date=%y" -T "tracknumber=%n" -T "genre=%m" %s


TOC del CD extraido

Pista | Inicio | Duraciуn | Sector inicial | Sector final
––––––––––––––––––––––––––––––-
1 | 0:00.32 | 1:41.03 | 32 | 7609
2 | 1:41.35 | 1:54.62 | 7610 | 16221
3 | 3:36.22 | 3:30.05 | 16222 | 31976
4 | 7:06.27 | 1:44.28 | 31977 | 39804
5 | 8:50.55 | 5:29.50 | 39805 | 64529
6 | 14:20.30 | 2:16.25 | 64530 | 74754
7 | 16:36.55 | 1:29.17 | 74755 | 81446
8 | 18:05.72 | 5:32.65 | 81447 | 106411
9 | 23:38.62 | 2:16.10 | 106412 | 116621
10 | 25:54.72 | 4:48.50 | 116622 | 138271
11 | 30:43.47 | 2:30.18 | 138272 | 149539
12 | 33:13.65 | 4:29.42 | 149540 | 169756
13 | 37:43.32 | 1:27.68 | 169757 | 176349
14 | 39:11.25 | 2:42.40 | 176350 | 188539
15 | 41:53.65 | 4:05.42 | 188540 | 206956
16 | 45:59.32 | 2:19.50 | 206957 | 217431
17 | 48:19.07 | 4:14.40 | 217432 | 236521
18 | 52:33.47 | 3:30.35 | 236522 | 252306
19 | 56:04.07 | 1:43.38 | 252307 | 260069
20 | 57:47.45 | 4:55.57 | 260070 | 282251
21 | 62:43.27 | 3:32.33 | 282252 | 298184
22 | 66:15.60 | 5:44.65 | 298185 | 324049


Pista 1

Nombre de Archivo D:\_Deposito\_Audio Rips\01 - Verdi,Aida (Act I)- Ritorna vincitor!.wav

Longitud Pre-gap 0:00:02.42

Nivel Pico 85.2 %
Calidad de Pista 100.0 %
Copiar CRC 181D75C1
Extracciуn precisa (nivel de confianza 1) [5A197A27]
Copia OK

Pista 2

Nombre de Archivo D:\_Deposito\_Audio Rips\02 - Verdi,Aida (Act I)- E l'amor mio .wav

Nivel Pico 29.7 %
Calidad de Pista 100.0 %
Copiar CRC 2BD3933F
Extracciуn precisa (nivel de confianza 1) [0A786012]
Copia OK

Pista 3

Nombre de Archivo D:\_Deposito\_Audio Rips\03 - Verdi,Aida (Act I)- I sacri nomi di padre, d'amante.wav

Nivel Pico 43.4 %
Calidad de Pista 100.0 %
Copiar CRC 572DB567
Extracciуn precisa (nivel de confianza 1) [BA074B52]
Copia OK

Pista 4

Nombre de Archivo D:\_Deposito\_Audio Rips\04 - Verdi,Aida (Act III)- Qui Radames verrа!.wav

Longitud Pre-gap 0:00:02.40

Nivel Pico 44.9 %
Calidad de Pista 99.9 %
Copiar CRC F0CC504D
Extracciуn precisa (nivel de confianza 1) [9A064C37]
Copia OK

Pista 5

Nombre de Archivo D:\_Deposito\_Audio Rips\05 - Verdi,Aida (Act III)- O patria mia.wav

Nivel Pico 45.2 %
Calidad de Pista 100.0 %
Copiar CRC 7C7FBAEC
Extracciуn precisa (nivel de confianza 1) [8A07C4E0]
Copia OK

Pista 6

Nombre de Archivo D:\_Deposito\_Audio Rips\06 - Verdi,Un ballo in maschera (Act II)- [Prelude].wav

Longitud Pre-gap 0:00:02.40

Nivel Pico 60.7 %
Calidad de Pista 100.0 %
Copiar CRC B9B0E0E5
Extracciуn precisa (nivel de confianza 1) [7CB39DD3]
Copia OK

Pista 7

Nombre de Archivo D:\_Deposito\_Audio Rips\07 - Verdi,Un ballo in maschera (Act II)- Ecco l'orrido campo.wav

Nivel Pico 61.4 %
Calidad de Pista 100.0 %
Copiar CRC 53FA5B28
Extracciуn precisa (nivel de confianza 1) [0A8972EF]
Copia OK

Pista 8

Nombre de Archivo D:\_Deposito\_Audio Rips\08 - Verdi,Un ballo in maschera (Act II)- Ma dall'arido stelo divulsa.wav

Nivel Pico 86.7 %
Calidad de Pista 100.0 %
Copiar CRC 28152B43
Extracciуn precisa (nivel de confianza 1) [B5BBC5C0]
Copia OK

Pista 9

Nombre de Archivo D:\_Deposito\_Audio Rips\09 - Verdi,Un ballo in maschera (Act III)- A tal colpa e nulla il pianto.wav

Longitud Pre-gap 0:00:02.40

Nivel Pico 71.5 %
Calidad de Pista 99.9 %
Copiar CRC 8B4A0735
Extracciуn precisa (nivel de confianza 1) [3C6D7319]
Copia OK

Pista 10

Nombre de Archivo D:\_Deposito\_Audio Rips\10 - Verdi,Un ballo in maschera (Act III)- Morro, ma prima in grazia.wav

Nivel Pico 58.1 %
Calidad de Pista 100.0 %
Copiar CRC 1B7F9807
Extracciуn precisa (nivel de confianza 1) [41196372]
Copia OK

Pista 11

Nombre de Archivo D:\_Deposito\_Audio Rips\11 - Verdi,Il trovatore (Act I)- Che piu t'arresti .wav

Longitud Pre-gap 0:00:02.40

Nivel Pico 36.1 %
Calidad de Pista 100.0 %
Copiar CRC BFBF2A1E
Extracciуn precisa (nivel de confianza 1) [973ECCF3]
Copia OK

Pista 12

Nombre de Archivo D:\_Deposito\_Audio Rips\12 - Verdi,Il trovatore (Act I)- Tacea la notte placida.wav

Nivel Pico 46.8 %
Calidad de Pista 100.0 %
Copiar CRC 8E0CCFA2
Extracciуn precisa (nivel de confianza 1) [793A7DAD]
Copia OK

Pista 13

Nombre de Archivo D:\_Deposito\_Audio Rips\13 - Verdi,Il trovatore (Act I)- Di tale amor che dirsi.wav

Nivel Pico 45.1 %
Calidad de Pista 100.0 %
Copiar CRC 73124A90
Extracciуn precisa (nivel de confianza 1) [19C9A868]
Copia OK

Pista 14

Nombre de Archivo D:\_Deposito\_Audio Rips\14 - Verdi,Il trovatore (Act IV)- Siam giunti.wav

Longitud Pre-gap 0:00:02.40

Nivel Pico 41.0 %
Calidad de Pista 100.0 %
Copiar CRC FB950D55
Extracciуn precisa (nivel de confianza 1) [4547F044]
Copia OK

Pista 15

Nombre de Archivo D:\_Deposito\_Audio Rips\15 - Verdi,Il trovatore (Act IV)- D'amor sull'ali rosee.wav

Nivel Pico 49.7 %
Calidad de Pista 100.0 %
Copiar CRC F5EDDB2A
Extracciуn precisa (nivel de confianza 1) [48057ADC]
Copia OK

Pista 16

Nombre de Archivo D:\_Deposito\_Audio Rips\16 - Verdi,Ernani (Act I)- Surta e la notte.wav

Longitud Pre-gap 0:00:02.40

Nivel Pico 55.0 %
Calidad de Pista 100.0 %
Copiar CRC 1CCD7C30
Extracciуn precisa (nivel de confianza 1) [AD6DDF27]
Copia OK

Pista 17

Nombre de Archivo D:\_Deposito\_Audio Rips\17 - Verdi,Ernani (Act I)- Ernani! Ernani, involami.wav

Nivel Pico 71.4 %
Calidad de Pista 100.0 %
Copiar CRC 10AF2827
Extracciуn precisa (nivel de confianza 1) [3D9CF9FA]
Copia OK

Pista 18

Nombre de Archivo D:\_Deposito\_Audio Rips\18 - Verdi,Ernani (Act I)- Tutto sprezzo che d'Ernani.wav

Nivel Pico 99.3 %
Calidad de Pista 100.0 %
Copiar CRC EE4995C9
Extracciуn precisa (nivel de confianza 1) [6906D9E7]
Copia OK

Pista 19

Nombre de Archivo D:\_Deposito\_Audio Rips\19 - Verdi,La forza del destino (Act II)- Son giunta! Grazie, o Dio!.wav

Longitud Pre-gap 0:00:02.13

Nivel Pico 73.4 %
Calidad de Pista 100.0 %
Copiar CRC 8268FD5E
Extracciуn precisa (nivel de confianza 1) [0B8E2EFE]
Copia OK

Pista 20

Nombre de Archivo D:\_Deposito\_Audio Rips\20 - Verdi,La forza del destino (Act II)- Madre, madre, pietosa Vergine.wav

Nivel Pico 79.1 %
Calidad de Pista 100.0 %
Copiar CRC 0292E646
Extracciуn precisa (nivel de confianza 1) [ECC2104B]
Copia OK

Pista 21

Nombre de Archivo D:\_Deposito\_Audio Rips\21 - Verdi,La forza del destino (Act II)- La Vergine degli angeli.wav

Longitud Pre-gap 0:00:02.40

Nivel Pico 62.4 %
Calidad de Pista 100.0 %
Copiar CRC 8D73D497
Extracciуn precisa (nivel de confianza 1) [11B8D2F1]
Copia OK

Pista 22

Nombre de Archivo D:\_Deposito\_Audio Rips\22 - Verdi,La forza del destino (Act IV)- Pace, pace, mio Dio.wav

Longitud Pre-gap 0:00:02.40

Nivel Pico 81.0 %
Calidad de Pista 100.0 %
Copiar CRC A118A0C0
Extracciуn precisa (nivel de confianza 1) [0F3BFA86]
Copia OK


Todas las pistas extraidas de modo preciso

Sin Errores

Final del Informe


CD2
Exact Audio Copy V0.99 prebeta 4 from 23. January 2008

Archivo Log de extracciones desde 23. Febrero 2009, 18:36

Leontyne Price / The Essential Leontyne Price CD2ч11

Usar unidad : TSSTcorpCD/DVDW TS-L632D Adapter: 2 ID: 0

Modo de Lectura : Seguro
Utilizar Corriente Exacta : Sн
Descartar Audio cachй : Sн
Utilizar los punteros C2 : No

Correcciуn de Desplazamiento de Lectura : 6
Sobreleer tanto en Lead-In como en Lead-Out : No
Rellenar las muestras faltantes con silencios : Sн
Eliminar silencios inicial y final : No
Se han usado muestras nulas en los cбlculos CRC : Sн
Interfaz usada : Interfaz propio de Win32 para Windowns NT y 2000
Gestiуn de Gaps : Aсadido a la pista previa

Formato de Salida utilizado : Compresor definido por el usuario
Bitrate seleccionado : 128 kBit/s
Calidad : Alta
Aсadir Etiqueta ID3 : No
Compresor de linea de comandos : C:\Program Files\Exact Audio Copy\Flac\flac.exe
Opciones adicionales en lнnea de comandos : -8 -V -T "artist=%a" -T "title=%t" -T "album=%g" -T "date=%y" -T "tracknumber=%n" -T "genre=%m" %s


TOC del CD extraido

Pista | Inicio | Duraciуn | Sector inicial | Sector final
––––––––––––––––––––––––––––––-
1 | 0:00.32 | 4:50.60 | 32 | 21841
2 | 4:51.17 | 4:46.40 | 21842 | 43331
3 | 9:37.57 | 2:48.58 | 43332 | 55989
4 | 12:26.40 | 3:17.15 | 55990 | 70779
5 | 15:43.55 | 2:44.37 | 70780 | 83116
6 | 18:28.17 | 7:05.35 | 83117 | 115026
7 | 25:33.52 | 8:30.65 | 115027 | 153341
8 | 34:04.42 | 3:17.08 | 153342 | 168124
9 | 37:21.50 | 2:56.17 | 168125 | 181341
10 | 40:17.67 | 2:02.73 | 181342 | 190564
11 | 42:20.65 | 5:49.47 | 190565 | 216786
12 | 48:10.37 | 2:32.65 | 216787 | 228251
13 | 50:43.27 | 2:36.20 | 228252 | 239971
14 | 53:19.47 | 7:11.38 | 239972 | 272334
15 | 60:31.10 | 9:20.00 | 272335 | 314334


Pista 1

Nombre de Archivo D:\_Deposito\_Audio Rips\01 - Mozart,Cosi fan tutte (Act I)- Come scoglio immoto resta.wav

Longitud Pre-gap 0:00:02.42

Nivel Pico 83.9 %
Calidad de Pista 100.0 %
Copiar CRC 0E18D422
Extracciуn precisa (nivel de confianza 1) [5E544C02]
Copia OK

Pista 2

Nombre de Archivo D:\_Deposito\_Audio Rips\02 - Puccini,Madama Butterfly (Act II)- Piangi Perche ; Un bel di vedremo.wav

Longitud Pre-gap 0:00:02.38

Nivel Pico 70.6 %
Calidad de Pista 99.9 %
Copiar CRC 544E9129
Extracciуn precisa (nivel de confianza 1) [4E3A352F]
Copia OK

Pista 3

Nombre de Archivo D:\_Deposito\_Audio Rips\03 - Puccini,Madama Butterfly (Act III)- Tu tu piccolo Iddio!.wav

Longitud Pre-gap 0:00:02.40

Nivel Pico 83.2 %
Calidad de Pista 100.0 %
Copiar CRC C6F96529
Extracciуn precisa (nivel de confianza 1) [3A544E70]
Copia OK

Pista 4

Nombre de Archivo D:\_Deposito\_Audio Rips\04 - Puccini,Tosca (Act II)- Vissi d'arte.wav

Longitud Pre-gap 0:00:02.17

Nivel Pico 57.9 %
Calidad de Pista 100.0 %
Copiar CRC 665F8738
Extracciуn precisa (nivel de confianza 1) [64888DEB]
Copia OK

Pista 5

Nombre de Archivo D:\_Deposito\_Audio Rips\05 - Puccini,Manon Lescaut (Act II)- In quelle trine morbide.wav

Longitud Pre-gap 0:00:02.17

Nivel Pico 69.5 %
Calidad de Pista 100.0 %
Copiar CRC D18F4528
Extracciуn precisa (nivel de confianza 1) [F7A92A4B]
Copia OK

Pista 6

Nombre de Archivo D:\_Deposito\_Audio Rips\06 - Puccini,Manon Lescaut (Act IV)- Sola, perduta, abbandonata.wav

Longitud Pre-gap 0:00:02.40

Nivel Pico 63.3 %
Calidad de Pista 100.0 %
Copiar CRC F76840ED
Extracciуn precisa (nivel de confianza 1) [023173D0]
Copia OK

Pista 7

Nombre de Archivo D:\_Deposito\_Audio Rips\07 - Poulenc,Dialogues des Carmelites (Act III)- Mes filles, voila que s'acheve.wav

Longitud Pre-gap 0:00:02.40

Nivel Pico 99.4 %
Calidad de Pista 100.0 %
Copiar CRC DB1E5790
Extracciуn precisa (nivel de confianza 1) [62C22C50]
Copia OK

Pista 8

Nombre de Archivo D:\_Deposito\_Audio Rips\08 - Mozart,Don Giovanni (Act I)- Don Ottavio, son morta!.wav

Longitud Pre-gap 0:00:02.40

Nivel Pico 81.8 %
Calidad de Pista 100.0 %
Copiar CRC F0A638D5
Extracciуn precisa (nivel de confianza 1) [AB01F6C1]
Copia OK

Pista 9

Nombre de Archivo D:\_Deposito\_Audio Rips\09 - Mozart,Don Giovanni (Act I)- Or sai chi l'onore.wav

Nivel Pico 79.9 %
Calidad de Pista 100.0 %
Copiar CRC 9D3C9DF2
Extracciуn precisa (nivel de confianza 1) [9D94AB41]
Copia OK

Pista 10

Nombre de Archivo D:\_Deposito\_Audio Rips\10 - Mozart,Don Giovanni (Act II)- Crudele Ah, no, mio bene!.wav

Longitud Pre-gap 0:00:02.40

Nivel Pico 57.9 %
Calidad de Pista 100.0 %
Copiar CRC D32E2D85
Extracciуn precisa (nivel de confianza 1) [E4A68D63]
Copia OK

Pista 11

Nombre de Archivo D:\_Deposito\_Audio Rips\11 - Mozart,Don Giovanni (Act II)- Non mi dir.wav

Nivel Pico 70.7 %
Calidad de Pista 99.9 %
Copiar CRC D2AC0D36
Extracciуn precisa (nivel de confianza 1) [978ED97D]
Copia OK

Pista 12

Nombre de Archivo D:\_Deposito\_Audio Rips\12 - Puccini,Turandot (Act I)- Signore, ascolta!.wav

Longitud Pre-gap 0:00:02.36

Nivel Pico 54.7 %
Calidad de Pista 100.0 %
Copiar CRC 0E6BAAF2
Extracciуn precisa (nivel de confianza 1) [AFE13D2D]
Copia OK

Pista 13

Nombre de Archivo D:\_Deposito\_Audio Rips\13 - Puccini,Turandot (Act III)- Tu che di gel sei cinta.wav

Longitud Pre-gap 0:00:02.06

Nivel Pico 72.2 %
Calidad de Pista 100.0 %
Copiar CRC 107E81F8
Extracciуn precisa (nivel de confianza 1) [31A60FA3]
Copia OK

Pista 14

Nombre de Archivo D:\_Deposito\_Audio Rips\14 - Richard Strauss,Ariadne auf Naxos- Es gibt ein Reich.wav

Longitud Pre-gap 0:00:02.42

Nivel Pico 100.0 %
Calidad de Pista 100.0 %
Copiar CRC 054E5E12
Extracciуn precisa (nivel de confianza 1) [238894DF]
Copia OK

Pista 15

Nombre de Archivo D:\_Deposito\_Audio Rips\15 - Barber,Antony and Cleopatra (Act III)- Give me my robe.wav

Longitud Pre-gap 0:00:02.40

Nivel Pico 75.8 %
Calidad de Pista 100.0 %
Copiar CRC 311FC23E
Extracciуn precisa (nivel de confianza 1) [7E83E74D]
Copia OK


Todas las pistas extraidas de modo preciso

Sin Errores

Final del Informe


CD3
Exact Audio Copy V0.99 prebeta 4 from 23. January 2008

Archivo Log de extracciones desde 23. Febrero 2009, 19:01

Leontyne Price / The Essential Leontyne Price CD3ч11

Usar unidad : TSSTcorpCD/DVDW TS-L632D Adapter: 2 ID: 0

Modo de Lectura : Seguro
Utilizar Corriente Exacta : Sн
Descartar Audio cachй : Sн
Utilizar los punteros C2 : No

Correcciуn de Desplazamiento de Lectura : 6
Sobreleer tanto en Lead-In como en Lead-Out : No
Rellenar las muestras faltantes con silencios : Sн
Eliminar silencios inicial y final : No
Se han usado muestras nulas en los cбlculos CRC : Sн
Interfaz usada : Interfaz propio de Win32 para Windowns NT y 2000
Gestiуn de Gaps : Aсadido a la pista previa

Formato de Salida utilizado : Compresor definido por el usuario
Bitrate seleccionado : 128 kBit/s
Calidad : Alta
Aсadir Etiqueta ID3 : No
Compresor de linea de comandos : C:\Program Files\Exact Audio Copy\Flac\flac.exe
Opciones adicionales en lнnea de comandos : -8 -V -T "artist=%a" -T "title=%t" -T "album=%g" -T "date=%y" -T "tracknumber=%n" -T "genre=%m" %s


TOC del CD extraido

Pista | Inicio | Duraciуn | Sector inicial | Sector final
––––––––––––––––––––––––––––––-
1 | 0:00.37 | 4:40.35 | 37 | 21071
2 | 4:40.72 | 6:20.55 | 21072 | 49626
3 | 11:01.52 | 4:33.63 | 49627 | 70164
4 | 15:35.40 | 7:45.32 | 70165 | 105071
5 | 23:20.72 | 4:35.48 | 105072 | 125744
6 | 27:56.45 | 4:35.47 | 125745 | 146416
7 | 32:32.17 | 1:31.03 | 146417 | 153244
8 | 34:03.20 | 5:46.12 | 153245 | 179206
9 | 39:49.32 | 3:46.08 | 179207 | 196164
10 | 43:35.40 | 1:43.17 | 196165 | 203906
11 | 45:18.57 | 4:34.58 | 203907 | 224514
12 | 49:53.40 | 4:51.00 | 224515 | 246339
13 | 54:44.40 | 5:36.05 | 246340 | 271544
14 | 60:20.45 | 15:18.10 | 271545 | 340404


Pista 1

Nombre de Archivo D:\_Deposito\_Audio Rips\01 - Verdi,Otello (Act IV)- Era piu calmo .wav

Longitud Pre-gap 0:00:02.49

Nivel Pico 52.7 %
Calidad de Pista 100.0 %
Copiar CRC 992EAD14
Extracciуn precisa (nivel de confianza 1) [90017579]
Copia OK

Pista 2

Nombre de Archivo D:\_Deposito\_Audio Rips\02 - Verdi,Otello (Act IV)- Mia madre aveva una povera ancella (Willow Song).wav

Nivel Pico 83.4 %
Calidad de Pista 100.0 %
Copiar CRC FCF56A52
Extracciуn precisa (nivel de confianza 1) [B64B9FEA]
Copia OK

Pista 3

Nombre de Archivo D:\_Deposito\_Audio Rips\03 - Verdi,Otello (Act IV)- Ave Maria.wav

Longitud Pre-gap 0:00:00.01

Nivel Pico 75.7 %
Calidad de Pista 100.0 %
Copiar CRC B4354200
Extracciуn precisa (nivel de confianza 1) [6F5D41D7]
Copia OK

Pista 4

Nombre de Archivo D:\_Deposito\_Audio Rips\04 - Beethoven,Fidelio (Act I)- Abscheulicher! Wo eilst du hin .wav

Longitud Pre-gap 0:00:02.86

Nivel Pico 98.8 %
Calidad de Pista 100.0 %
Copiar CRC 67AC0FD0
Extracciуn precisa (nivel de confianza 1) [0EC1891A]
Copia OK

Pista 5

Nombre de Archivo D:\_Deposito\_Audio Rips\05 - Puccini,Suor Angelica- Senza mamma, o bimbo, tu sei morto!.wav

Longitud Pre-gap 0:00:02.80

Nivel Pico 63.8 %
Calidad de Pista 100.0 %
Copiar CRC 12703957
Extracciуn precisa (nivel de confianza 1) [0AE95DC4]
Copia OK

Pista 6

Nombre de Archivo D:\_Deposito\_Audio Rips\06 - Bizet,Carmen (Act I)- L'amour est un oiseau rebelle (Habanera).wav

Longitud Pre-gap 0:00:03.12

Nivel Pico 98.5 %
Calidad de Pista 99.9 %
Copiar CRC 48B4C008
Extracciуn precisa (nivel de confianza 1) [4C620A54]
Copia OK

Pista 7

Nombre de Archivo D:\_Deposito\_Audio Rips\07 - Verdi,La traviata (Act I)- E strano, e strano!.wav

Longitud Pre-gap 0:00:01.74

Nivel Pico 89.9 %
Calidad de Pista 100.0 %
Copiar CRC 3089221C
Extracciуn precisa (nivel de confianza 1) [21856600]
Copia OK

Pista 8

Nombre de Archivo D:\_Deposito\_Audio Rips\08 - Verdi,La traviata (Act I)- Ah, fors' e lui.wav

Longitud Pre-gap 0:00:00.01

Nivel Pico 99.6 %
Calidad de Pista 100.0 %
Copiar CRC 433C3597
Extracciуn precisa (nivel de confianza 1) [3E9EF69F]
Copia OK

Pista 9

Nombre de Archivo D:\_Deposito\_Audio Rips\09 - Verdi,La traviata (Act I)- Sempre libera.wav

Longitud Pre-gap 0:00:00.01

Nivel Pico 98.3 %
Calidad de Pista 99.9 %
Copiar CRC F826EFEF
Extracciуn precisa (nivel de confianza 1) [B5E62086]
Copia OK

Pista 10

Nombre de Archivo D:\_Deposito\_Audio Rips\10 - Mozart,Le nozze di Figaro (Act III)- E Susanna non vien!.wav

Longitud Pre-gap 0:00:01.58

Nivel Pico 54.8 %
Calidad de Pista 100.0 %
Copiar CRC C3CEBA26
Extracciуn precisa (nivel de confianza 1) [ED1D279B]
Copia OK

Pista 11

Nombre de Archivo D:\_Deposito\_Audio Rips\11 - Mozart,Le nozze di Figaro (Act III)- Dove sono.wav

Longitud Pre-gap 0:00:00.01

Nivel Pico 84.6 %
Calidad de Pista 100.0 %
Copiar CRC 8A616912
Extracciуn precisa (nivel de confianza 1) [D2F16240]
Copia OK

Pista 12

Nombre de Archivo D:\_Deposito\_Audio Rips\12 - Strauss,Die agyptische Helena (Act II)- Arie der Helena (Awakening Scene).wav

Longitud Pre-gap 0:00:02.68

Nivel Pico 100.0 %
Calidad de Pista 100.0 %
Copiar CRC 5718F432
Extracciуn precisa (nivel de confianza 1) [E7D5DD12]
Copia OK

Pista 13

Nombre de Archivo D:\_Deposito\_Audio Rips\13 - Puccini,La rondine (Act I)- Ore dolci e divine.wav

Longitud Pre-gap 0:00:02.98

Nivel Pico 99.2 %
Calidad de Pista 100.0 %
Copiar CRC A6F8C9B9
Extracciуn precisa (nivel de confianza 1) [CE29C2C9]
Copia OK

Pista 14

Nombre de Archivo D:\_Deposito\_Audio Rips\14 - Strauss,Salome- Finale.wav

Longitud Pre-gap 0:00:02.68

Nivel Pico 99.6 %
Calidad de Pista 100.0 %
Copiar CRC 46F4E0CB
Extracciуn precisa (nivel de confianza 1) [1E136D77]
Copia OK


Todas las pistas extraidas de modo preciso

Sin Errores

Final del Informe


CD4
Exact Audio Copy V0.99 prebeta 4 from 23. January 2008

Archivo Log de extracciones desde 23. Febrero 2009, 19:22

Leontyne Price / The Essential Leontyne Price CD4ч11

Usar unidad : TSSTcorpCD/DVDW TS-L632D Adapter: 2 ID: 0

Modo de Lectura : Seguro
Utilizar Corriente Exacta : Sн
Descartar Audio cachй : Sн
Utilizar los punteros C2 : No

Correcciуn de Desplazamiento de Lectura : 6
Sobreleer tanto en Lead-In como en Lead-Out : No
Rellenar las muestras faltantes con silencios : Sн
Eliminar silencios inicial y final : No
Se han usado muestras nulas en los cбlculos CRC : Sн
Interfaz usada : Interfaz propio de Win32 para Windowns NT y 2000
Gestiуn de Gaps : Aсadido a la pista previa

Formato de Salida utilizado : Compresor definido por el usuario
Bitrate seleccionado : 128 kBit/s
Calidad : Alta
Aсadir Etiqueta ID3 : No
Compresor de linea de comandos : C:\Program Files\Exact Audio Copy\Flac\flac.exe
Opciones adicionales en lнnea de comandos : -8 -V -T "artist=%a" -T "title=%t" -T "album=%g" -T "date=%y" -T "tracknumber=%n" -T "genre=%m" %s


TOC del CD extraido

Pista | Inicio | Duraciуn | Sector inicial | Sector final
––––––––––––––––––––––––––––––-
1 | 0:00.37 | 2:39.60 | 37 | 12021
2 | 2:40.22 | 3:24.70 | 12022 | 27391
3 | 6:05.17 | 4:29.15 | 27392 | 47581
4 | 10:34.32 | 2:33.65 | 47582 | 59121
5 | 13:08.22 | 2:47.40 | 59122 | 71686
6 | 15:55.62 | 1:33.30 | 71687 | 78691
7 | 17:29.17 | 4:25.00 | 78692 | 98566
8 | 21:54.17 | 4:52.23 | 98567 | 120489
9 | 26:46.40 | 1:44.30 | 120490 | 128319
10 | 28:30.70 | 2:14.17 | 128320 | 138386
11 | 30:45.12 | 4:42.38 | 138387 | 159574
12 | 35:27.50 | 7:02.40 | 159575 | 191264
13 | 42:30.15 | 3:18.35 | 191265 | 206149
14 | 45:48.50 | 14:15.35 | 206150 | 270309
15 | 60:04.10 | 0:44.05 | 270310 | 273614
16 | 60:48.15 | 3:52.70 | 273615 | 291084
17 | 64:41.10 | 11:54.30 | 291085 | 344664


Pista 1

Nombre de Archivo D:\_Deposito\_Audio Rips\01 - Tchaikovsky,Eugene Onegin (Act II)- Puskai pogibnu ya.wav

Longitud Pre-gap 0:00:02.49

Nivel Pico 60.0 %
Calidad de Pista 100.0 %
Copiar CRC F18243A9
Extracciуn precisa (nivel de confianza 1) [3D9C7123]
Copia OK

Pista 2

Nombre de Archivo D:\_Deposito\_Audio Rips\02 - Tchaikovsky,Eugene Onegin (Act II)- Ya k vam pishu.wav

Nivel Pico 97.3 %
Calidad de Pista 100.0 %
Copiar CRC 40340F2A
Extracciуn precisa (nivel de confianza 1) [C61F56D5]
Copia OK

Pista 3

Nombre de Archivo D:\_Deposito\_Audio Rips\03 - Tchaikovsky,Eugene Onegin (Act II)- Net, nikomu na svete.wav

Nivel Pico 83.4 %
Calidad de Pista 100.0 %
Copiar CRC FF006AD8
Extracciуn precisa (nivel de confianza 1) [04F872C8]
Copia OK

Pista 4

Nombre de Archivo D:\_Deposito\_Audio Rips\04 - Tchaikovsky,Eugene Onegin (Act II)- No tak i byt'!.wav

Nivel Pico 93.3 %
Calidad de Pista 100.0 %
Copiar CRC 4DC77D2A
Extracciуn precisa (nivel de confianza 1) [93D21B71]
Copia OK

Pista 5

Nombre de Archivo D:\_Deposito\_Audio Rips\05 - Puccini,La rondine (Act I)- Chi il bel sogno di Doretta.wav

Longitud Pre-gap 0:00:02.82

Nivel Pico 56.1 %
Calidad de Pista 100.0 %
Copiar CRC 09AA6675
Extracciуn precisa (nivel de confianza 1) [980E81B1]
Copia OK

Pista 6

Nombre de Archivo D:\_Deposito\_Audio Rips\06 - Barber,Vanessa (Act I)- He has come, he has come!.wav

Longitud Pre-gap 0:00:02.86

Nivel Pico 85.5 %
Calidad de Pista 100.0 %
Copiar CRC 5FB91860
Extracciуn precisa (nivel de confianza 1) [49B62864]
Copia OK

Pista 7

Nombre de Archivo D:\_Deposito\_Audio Rips\07 - Barber,Vanessa (Act I)- Do not utter a word.wav

Longitud Pre-gap 0:00:00.89

Nivel Pico 84.1 %
Calidad de Pista 99.9 %
Copiar CRC CF0469ED
Extracciуn precisa (nivel de confianza 1) [B8C6B1FC]
Copia OK

Pista 8

Nombre de Archivo D:\_Deposito\_Audio Rips\08 - Bizet,Carmen (Act I)- Pres des remparts de Seville (Seguidilla).wav

Longitud Pre-gap 0:00:02.53

Nivel Pico 77.5 %
Calidad de Pista 100.0 %
Copiar CRC 6F73AB0F
Extracciуn precisa (nivel de confianza 1) [41D8DF5E]
Copia OK

Pista 9

Nombre de Archivo D:\_Deposito\_Audio Rips\09 - Massenet,Manon (Act II)- Allons! il le faut!.wav

Longitud Pre-gap 0:00:02.57

Nivel Pico 74.3 %
Calidad de Pista 100.0 %
Copiar CRC EEBEC959
Extracciуn precisa (nivel de confianza 1) [EE9BA9E6]
Copia OK

Pista 10

Nombre de Archivo D:\_Deposito\_Audio Rips\10 - Massenet,Manon (Act II)- Adieu, notre petite table.wav

Longitud Pre-gap 0:00:00.97

Nivel Pico 49.2 %
Calidad de Pista 100.0 %
Copiar CRC FE8BA8D6
Extracciуn precisa (nivel de confianza 1) [9C4F0ACC]
Copia OK

Pista 11

Nombre de Archivo D:\_Deposito\_Audio Rips\11 - Verdi,Macbeth (Act IV)- Vegliammo invan due notti.wav

Longitud Pre-gap 0:00:02.33

Nivel Pico 44.3 %
Calidad de Pista 100.0 %
Copiar CRC 9A1D3F58
Extracciуn precisa (nivel de confianza 1) [11A50BCC]
Copia OK

Pista 12

Nombre de Archivo D:\_Deposito\_Audio Rips\12 - Verdi,Macbeth (Act IV)- Una macchia e qui tuttora.wav

Nivel Pico 82.8 %
Calidad de Pista 100.0 %
Copiar CRC 2397E6EF
Extracciуn precisa (nivel de confianza 1) [20B65D9C]
Copia OK

Pista 13

Nombre de Archivo D:\_Deposito\_Audio Rips\13 - Puccini,La Boheme (Act III)- Addio. Donde lieta usci (Mimi's Addio).wav

Longitud Pre-gap 0:00:02.57

Nivel Pico 70.9 %
Calidad de Pista 100.0 %
Copiar CRC 166301FA
Extracciуn precisa (nivel de confianza 1) [44E23528]
Copia OK

Pista 14

Nombre de Archivo D:\_Deposito\_Audio Rips\14 - Strauss,Die Frau ohne Schatten (Act II)- Erwachensszene der Kaiserin.wav

Longitud Pre-gap 0:00:03.04

Nivel Pico 95.7 %
Calidad de Pista 100.0 %
Copiar CRC 0901E5FA
Extracciуn precisa (nivel de confianza 1) [937FBD81]
Copia OK

Pista 15

Nombre de Archivo D:\_Deposito\_Audio Rips\15 - Purcell,Dido and Aeneas (Act III)- Thy hand, Belinda!.wav

Longitud Pre-gap 0:00:02.60

Nivel Pico 19.9 %
Calidad de Pista 100.0 %
Copiar CRC 4A4E81A8
Extracciуn precisa (nivel de confianza 1) [5B9B854C]
Copia OK

Pista 16

Nombre de Archivo D:\_Deposito\_Audio Rips\16 - Purcell,Dido and Aeneas (Act III)- When I am laid in earth.wav

Nivel Pico 97.7 %
Calidad de Pista 100.0 %
Copiar CRC BE26952F
Extracciуn precisa (nivel de confianza 1) [4EB86923]
Copia OK

Pista 17

Nombre de Archivo D:\_Deposito\_Audio Rips\17 - Verdi,Don Carlo (Act V)- Tu che le vanita conoscesti del mondo.wav

Longitud Pre-gap 0:00:02.17

Nivel Pico 99.9 %
Calidad de Pista 100.0 %
Copiar CRC 0F0EE887
Extracciуn precisa (nivel de confianza 1) [9ADE0EC6]
Copia OK


Todas las pistas extraidas de modo preciso

Sin Errores

Final del Informe


CD5
Exact Audio Copy V0.99 prebeta 4 from 23. January 2008

Archivo Log de extracciones desde 23. Febrero 2009, 19:45

Leontyne Price / The Essential Leontyne Price CD5ч11

Usar unidad : TSSTcorpCD/DVDW TS-L632D Adapter: 2 ID: 0

Modo de Lectura : Seguro
Utilizar Corriente Exacta : Sн
Descartar Audio cachй : Sн
Utilizar los punteros C2 : No

Correcciуn de Desplazamiento de Lectura : 6
Sobreleer tanto en Lead-In como en Lead-Out : No
Rellenar las muestras faltantes con silencios : Sн
Eliminar silencios inicial y final : No
Se han usado muestras nulas en los cбlculos CRC : Sн
Interfaz usada : Interfaz propio de Win32 para Windowns NT y 2000
Gestiуn de Gaps : Aсadido a la pista previa

Formato de Salida utilizado : Compresor definido por el usuario
Bitrate seleccionado : 128 kBit/s
Calidad : Alta
Aсadir Etiqueta ID3 : No
Compresor de linea de comandos : C:\Program Files\Exact Audio Copy\Flac\flac.exe
Opciones adicionales en lнnea de comandos : -8 -V -T "artist=%a" -T "title=%t" -T "album=%g" -T "date=%y" -T "tracknumber=%n" -T "genre=%m" %s


TOC del CD extraido

Pista | Inicio | Duraciуn | Sector inicial | Sector final
––––––––––––––––––––––––––––––-
1 | 0:00.37 | 3:15.48 | 37 | 14709
2 | 3:16.10 | 3:33.15 | 14710 | 30699
3 | 6:49.25 | 4:21.25 | 30700 | 50299
4 | 11:10.50 | 4:46.70 | 50300 | 71819
5 | 15:57.45 | 5:27.55 | 71820 | 96399
6 | 21:25.25 | 3:59.35 | 96400 | 114359
7 | 25:24.60 | 7:05.67 | 114360 | 146301
8 | 32:30.52 | 4:06.08 | 146302 | 164759
9 | 36:36.60 | 5:07.37 | 164760 | 187821
10 | 41:44.22 | 6:23.28 | 187822 | 216574
11 | 48:07.50 | 7:20.07 | 216575 | 249581
12 | 55:27.57 | 2:20.55 | 249582 | 260136
13 | 57:48.37 | 2:34.33 | 260137 | 271719
14 | 60:22.70 | 1:50.47 | 271720 | 280016
15 | 62:13.42 | 2:59.60 | 280017 | 293501
16 | 65:13.27 | 1:59.18 | 293502 | 302444
17 | 67:12.45 | 2:11.45 | 302445 | 312314
18 | 69:24.15 | 1:37.12 | 312315 | 319601
19 | 71:01.27 | 5:01.45 | 319602 | 342221


Pista 1

Nombre de Archivo D:\_Deposito\_Audio Rips\01 - Verdi,Otello (Act I)- Giа nella notte.wav

Longitud Pre-gap 0:00:02.49

Nivel Pico 36.2 %
Calidad de Pista 100.0 %
Copiar CRC 4623AB13
Extracciуn precisa (nivel de confianza 1) [C0B17775]
Copia OK

Pista 2

Nombre de Archivo D:\_Deposito\_Audio Rips\02 - Verdi,Otello (Act I)- Quando narravi.wav

Longitud Pre-gap 0:00:00.44

Nivel Pico 70.2 %
Calidad de Pista 99.9 %
Copiar CRC 74F5A62B
Extracciуn precisa (nivel de confianza 1) [C1A2EC81]
Copia OK

Pista 3

Nombre de Archivo D:\_Deposito\_Audio Rips\03 - Verdi,Otello (Act I)- Venga la morte!.wav

Nivel Pico 60.8 %
Calidad de Pista 99.9 %
Copiar CRC 87F0CFC5
Extracciуn precisa (nivel de confianza 1) [2C5DED7C]
Copia OK

Pista 4

Nombre de Archivo D:\_Deposito\_Audio Rips\04 - Mozart,Cosi fan tutte (Act I)- Ah, guarda, sorella.wav

Longitud Pre-gap 0:00:02.90

Nivel Pico 68.2 %
Calidad de Pista 100.0 %
Copiar CRC 3958F881
Extracciуn precisa (nivel de confianza 1) [FCCB7408]
Copia OK

Pista 5

Nombre de Archivo D:\_Deposito\_Audio Rips\05 - Puccini,Madama Butterfly (Act I)- Bimba, bimba, non piangere.wav

Longitud Pre-gap 0:00:02.57

Nivel Pico 54.0 %
Calidad de Pista 99.9 %
Copiar CRC CFFE4DDD
Extracciуn precisa (nivel de confianza 1) [8E51B0A5]
Copia OK

Pista 6

Nombre de Archivo D:\_Deposito\_Audio Rips\06 - Puccini,Madama Butterfly (Act I)- Bimba dagli occhi.wav

Nivel Pico 73.6 %
Calidad de Pista 100.0 %
Copiar CRC 8DAAF725
Extracciуn precisa (nivel de confianza 1) [6193D3B2]
Copia OK

Pista 7

Nombre de Archivo D:\_Deposito\_Audio Rips\07 - Puccini,Madama Butterfly (Act I)- Vogliatemi bene.wav

Nivel Pico 65.3 %
Calidad de Pista 100.0 %
Copiar CRC 01D8C7BE
Extracciуn precisa (nivel de confianza 1) [AFA227F8]
Copia OK

Pista 8

Nombre de Archivo D:\_Deposito\_Audio Rips\08 - Verdi,Requiem- Recordare.wav

Longitud Pre-gap 0:00:02.56

Nivel Pico 51.2 %
Calidad de Pista 100.0 %
Copiar CRC 3E48C9AE
Extracciуn precisa (nivel de confianza 1) [3C6D007F]
Copia OK

Pista 9

Nombre de Archivo D:\_Deposito\_Audio Rips\09 - Gershwin,Porgy and Bess (Act II)- Bess, you is my woman.wav

Longitud Pre-gap 0:00:02.53

Nivel Pico 40.7 %
Calidad de Pista 99.9 %
Copiar CRC 7764CB32
Extracciуn precisa (nivel de confianza 1) [C7B83E2A]
Copia OK

Pista 10

Nombre de Archivo D:\_Deposito\_Audio Rips\10 - Bellini,Norma (Act III)- Me chiami, o Norma .wav

Longitud Pre-gap 0:00:02.53

Nivel Pico 74.0 %
Calidad de Pista 100.0 %
Copiar CRC B5E6B090
Extracciуn precisa (nivel de confianza 1) [C40C9EC3]
Copia OK

Pista 11

Nombre de Archivo D:\_Deposito\_Audio Rips\11 - Bellini,Norma (Act III)- Mira, o Norma.wav

Nivel Pico 74.0 %
Calidad de Pista 100.0 %
Copiar CRC 065F2BA9
Extracciуn precisa (nivel de confianza 1) [D4F9B330]
Copia OK

Pista 12

Nombre de Archivo D:\_Deposito\_Audio Rips\12 - Verdi,Ernani (Act II)- Tu, perfida!.wav

Longitud Pre-gap 0:00:02.60

Nivel Pico 62.8 %
Calidad de Pista 100.0 %
Copiar CRC C94BB9F4
Extracciуn precisa (nivel de confianza 1) [B18F6472]
Copia OK

Pista 13

Nombre de Archivo D:\_Deposito\_Audio Rips\13 - Verdi,Ernani (Act II)- Ah, morir, potessi adesso.wav

Nivel Pico 46.2 %
Calidad de Pista 100.0 %
Copiar CRC A0529B98
Extracciуn precisa (nivel de confianza 1) [7D1EEBD7]
Copia OK

Pista 14

Nombre de Archivo D:\_Deposito\_Audio Rips\14 - Mozart,Cosi fan tutte (Act II)- Sorella, cosa dici .wav

Longitud Pre-gap 0:00:02.60

Nivel Pico 27.8 %
Calidad de Pista 100.0 %
Copiar CRC 4BA6CB9B
Extracciуn precisa (nivel de confianza 1) [74FD61A0]
Copia OK

Pista 15

Nombre de Archivo D:\_Deposito\_Audio Rips\15 - Mozart,Cosi fan tutte (Act II)- Prendero quel brunettino.wav

Nivel Pico 68.9 %
Calidad de Pista 100.0 %
Copiar CRC 44E705F1
Extracciуn precisa (nivel de confianza 1) [4EBED489]
Copia OK

Pista 16

Nombre de Archivo D:\_Deposito\_Audio Rips\16 - Verdi,Aida (Act IV)- La fatal pietra sovra me si chiuse.wav

Longitud Pre-gap 0:00:02.33

Nivel Pico 75.7 %
Calidad de Pista 100.0 %
Copiar CRC 568D8372
Extracciуn precisa (nivel de confianza 1) [C42026ED]
Copia OK

Pista 17

Nombre de Archivo D:\_Deposito\_Audio Rips\17 - Verdi,Aida (Act IV)- Presago il core della tua condanna.wav

Nivel Pico 64.4 %
Calidad de Pista 100.0 %
Copiar CRC AC79450B
Extracciуn precisa (nivel de confianza 1) [827343C0]
Copia OK

Pista 18

Nombre de Archivo D:\_Deposito\_Audio Rips\18 - Verdi,Aida (Act IV)- Vedi Di morte l'angelo.wav

Nivel Pico 100.0 %
Calidad de Pista 100.0 %
Copiar CRC AF0AD7DA
Extracciуn precisa (nivel de confianza 1) [98BD298D]
Copia OK

Pista 19

Nombre de Archivo D:\_Deposito\_Audio Rips\19 - Verdi,Aida (Act IV)- O terra, addio.wav

Nivel Pico 90.8 %
Calidad de Pista 100.0 %
Copiar CRC C10A4CA0
Extracciуn precisa (nivel de confianza 1) [C50D02D8]
Copia OK


Todas las pistas extraidas de modo preciso

Sin Errores

Final del Informe


CD6
Exact Audio Copy V0.99 prebeta 4 from 23. January 2008

Archivo Log de extracciones desde 23. Febrero 2009, 20:05

Leontyne Price / The Essential Leontyne Price CD6ч11

Usar unidad : TSSTcorpCD/DVDW TS-L632D Adapter: 2 ID: 0

Modo de Lectura : Seguro
Utilizar Corriente Exacta : Sн
Descartar Audio cachй : Sн
Utilizar los punteros C2 : No

Correcciуn de Desplazamiento de Lectura : 6
Sobreleer tanto en Lead-In como en Lead-Out : No
Rellenar las muestras faltantes con silencios : Sн
Eliminar silencios inicial y final : No
Se han usado muestras nulas en los cбlculos CRC : Sн
Interfaz usada : Interfaz propio de Win32 para Windowns NT y 2000
Gestiуn de Gaps : Aсadido a la pista previa

Formato de Salida utilizado : Compresor definido por el usuario
Bitrate seleccionado : 128 kBit/s
Calidad : Alta
Aсadir Etiqueta ID3 : No
Compresor de linea de comandos : C:\Program Files\Exact Audio Copy\Flac\flac.exe
Opciones adicionales en lнnea de comandos : -8 -V -T "artist=%a" -T "title=%t" -T "album=%g" -T "date=%y" -T "tracknumber=%n" -T "genre=%m" %s


TOC del CD extraido

Pista | Inicio | Duraciуn | Sector inicial | Sector final
––––––––––––––––––––––––––––––-
1 | 0:00.37 | 9:49.25 | 37 | 44236
2 | 9:49.62 | 1:17.25 | 44237 | 50036
3 | 11:07.12 | 1:40.35 | 50037 | 57571
4 | 12:47.47 | 2:31.05 | 57572 | 68901
5 | 15:18.52 | 2:40.73 | 68902 | 80974
6 | 17:59.50 | 4:23.32 | 80975 | 100731
7 | 22:23.07 | 9:54.38 | 100732 | 145319
8 | 32:17.45 | 3:21.42 | 145320 | 160436
9 | 35:39.12 | 2:25.20 | 160437 | 171331
10 | 38:04.32 | 0:46.35 | 171332 | 174816
11 | 38:50.67 | 5:14.03 | 174817 | 198369
12 | 44:04.70 | 1:48.52 | 198370 | 206521
13 | 45:53.47 | 2:43.13 | 206522 | 218759
14 | 48:36.60 | 1:43.65 | 218760 | 226549
15 | 50:20.50 | 3:18.32 | 226550 | 241431
16 | 53:39.07 | 2:21.25 | 241432 | 252031
17 | 56:00.32 | 4:55.00 | 252032 | 274156
18 | 60:55.32 | 6:45.38 | 274157 | 304569
19 | 67:40.70 | 3:44.52 | 304570 | 321421


Pista 1

Nombre de Archivo D:\_Deposito\_Audio Rips\01 - Verdi,Un ballo in maschera (Act II)- Teco io sto!.wav

Longitud Pre-gap 0:00:02.49

Nivel Pico 44.3 %
Calidad de Pista 100.0 %
Copiar CRC 1EAF743D
Extracciуn precisa (nivel de confianza 1) [48DEB962]
Copia OK

Pista 2

Nombre de Archivo D:\_Deposito\_Audio Rips\02 - Verdi,Aida (Act III)- Ciel! mio padre!.wav

Longitud Pre-gap 0:00:02.82

Nivel Pico 30.3 %
Calidad de Pista 99.8 %
Copiar CRC D340CAF4
Extracciуn precisa (nivel de confianza 1) [A8C50FAC]
Copia OK

Pista 3

Nombre de Archivo D:\_Deposito\_Audio Rips\03 - Verdi,Aida (Act III)- Rivedrai le fereste imbalsamate.wav

Nivel Pico 38.3 %
Calidad de Pista 100.0 %
Copiar CRC B4D61868
Extracciуn precisa (nivel de confianza 1) [DE24051A]
Copia OK

Pista 4

Nombre de Archivo D:\_Deposito\_Audio Rips\04 - Verdi,Aida (Act III)- In armi ora si desta il popol nostro.wav

Nivel Pico 95.0 %
Calidad de Pista 99.9 %
Copiar CRC F3EA8037
Extracciуn precisa (nivel de confianza 1) [2ECB7DD1]
Copia OK

Pista 5

Nombre de Archivo D:\_Deposito\_Audio Rips\05 - Verdi,Aida (Act III)- Padre! a costoro schiava non sono.wav

Nivel Pico 29.8 %
Calidad de Pista 100.0 %
Copiar CRC 0EB646CD
Extracciуn precisa (nivel de confianza 1) [227E9665]
Copia OK

Pista 6

Nombre de Archivo D:\_Deposito\_Audio Rips\06 - Verdi,Requiem- Agnus Dei.wav

Longitud Pre-gap 0:00:02.64

Nivel Pico 27.7 %
Calidad de Pista 100.0 %
Copiar CRC 62518C45
Extracciуn precisa (nivel de confianza 1) [B3232C89]
Copia OK

Pista 7

Nombre de Archivo D:\_Deposito\_Audio Rips\07 - Puccini,Manon Lescaut (Act I)- Oh, saro la piu bella!; Tu, tu, amore .wav

Longitud Pre-gap 0:00:02.56

Nivel Pico 60.1 %
Calidad de Pista 100.0 %
Copiar CRC B27E8B33
Extracciуn precisa (nivel de confianza 1) [0D7A4A13]
Copia OK

Pista 8

Nombre de Archivo D:\_Deposito\_Audio Rips\08 - Mozart,Cosi fan tutte (Act I)- Soave sia il vento.wav

Longitud Pre-gap 0:00:02.60

Nivel Pico 35.7 %
Calidad de Pista 99.9 %
Copiar CRC 79D0FE76
Extracciуn precisa (nivel de confianza 1) [C4B3A224]
Copia OK

Pista 9

Nombre de Archivo D:\_Deposito\_Audio Rips\09 - Gershwin,Porgy and Bess (Act II)- I loves you, Porgy.wav

Longitud Pre-gap 0:00:02.60

Nivel Pico 36.3 %
Calidad de Pista 100.0 %
Copiar CRC 0A9043A9
Extracciуn precisa (nivel de confianza 1) [4495EDC3]
Copia OK

Pista 10

Nombre de Archivo D:\_Deposito\_Audio Rips\10 - Verdi,Aida (Act II)- Silenzio! Aida verso noi s'avanza.wav

Longitud Pre-gap 0:00:02.60

Nivel Pico 16.9 %
Calidad de Pista 99.7 %
Copiar CRC B4A7C5F0
Extracciуn precisa (nivel de confianza 1) [FA71B6C9]
Copia OK

Pista 11

Nombre de Archivo D:\_Deposito\_Audio Rips\11 - Verdi,Aida (Act II)- Fu la sorte dell'armi.wav

Nivel Pico 57.0 %
Calidad de Pista 100.0 %
Copiar CRC BC3A5EE4
Extracciуn precisa (nivel de confianza 1) [91E4D76A]
Copia OK

Pista 12

Nombre de Archivo D:\_Deposito\_Audio Rips\12 - Verdi,Aida (Act II)- Pietа ti prenda del mio dolor.wav

Nivel Pico 51.2 %
Calidad de Pista 100.0 %
Copiar CRC 79FBEA53
Extracciуn precisa (nivel de confianza 1) [7542B12A]
Copia OK

Pista 13

Nombre de Archivo D:\_Deposito\_Audio Rips\13 - Verdi,Aida (Act II)- Alla prompa che s'appresta.wav

Nivel Pico 58.4 %
Calidad de Pista 100.0 %
Copiar CRC EA3DEAFF
Extracciуn precisa (nivel de confianza 1) [F2B7F4BE]
Copia OK

Pista 14

Nombre de Archivo D:\_Deposito\_Audio Rips\14 - Verdi,Il Trovatore (Act IV)- Udiste .wav

Longitud Pre-gap 0:00:02.60

Nivel Pico 42.6 %
Calidad de Pista 100.0 %
Copiar CRC FBA09AA2
Extracciуn precisa (nivel de confianza 1) [597EC3CA]
Copia OK

Pista 15

Nombre de Archivo D:\_Deposito\_Audio Rips\15 - Verdi,Il Trovatore (Act IV)- Mira, di acerbe lagrime.wav

Nivel Pico 39.8 %
Calidad de Pista 100.0 %
Copiar CRC 83BE2DBA
Extracciуn precisa (nivel de confianza 1) [A1065AF6]
Copia OK

Pista 16

Nombre de Archivo D:\_Deposito\_Audio Rips\16 - Verdi,Il Trovatore (Act IV)- Vivrа! Contende il giubilo.wav

Nivel Pico 43.2 %
Calidad de Pista 100.0 %
Copiar CRC E18741F2
Extracciуn precisa (nivel de confianza 1) [8181DB84]
Copia OK

Pista 17

Nombre de Archivo D:\_Deposito\_Audio Rips\17 - Puccini,Madama Butterfly (Act II)- Scuoti quella fronda di ciliegio (Flower Duet).wav

Longitud Pre-gap 0:00:02.60

Nivel Pico 45.6 %
Calidad de Pista 100.0 %
Copiar CRC 8792368A
Extracciуn precisa (nivel de confianza 1) [99D9EA30]
Copia OK

Pista 18

Nombre de Archivo D:\_Deposito\_Audio Rips\18 - Bizet,Carmen (Act IV)- C'est toi ! –- C'est moi !.wav

Longitud Pre-gap 0:00:02.60

Nivel Pico 68.2 %
Calidad de Pista 100.0 %
Copiar CRC 8B65DA03
Extracciуn precisa (nivel de confianza 1) [70E7BE3A]
Copia OK

Pista 19

Nombre de Archivo D:\_Deposito\_Audio Rips\19 - Bizet,Carmen (Act IV)- Ou vas-tu  –- Laisse moi !.wav

Nivel Pico 83.4 %
Calidad de Pista 100.0 %
Copiar CRC E3F15046
Extracciуn precisa (nivel de confianza 1) [16EA195C]
Copia OK


Todas las pistas extraidas de modo preciso

Sin Errores

Final del Informe


CD7
Exact Audio Copy V0.99 prebeta 4 from 23. January 2008

Archivo Log de extracciones desde 23. Febrero 2009, 20:26

Leontyne Price / The Essential Leontyne Price CD7ч11

Usar unidad : TSSTcorpCD/DVDW TS-L632D Adapter: 2 ID: 0

Modo de Lectura : Seguro
Utilizar Corriente Exacta : Sн
Descartar Audio cachй : Sн
Utilizar los punteros C2 : No

Correcciуn de Desplazamiento de Lectura : 6
Sobreleer tanto en Lead-In como en Lead-Out : No
Rellenar las muestras faltantes con silencios : Sн
Eliminar silencios inicial y final : No
Se han usado muestras nulas en los cбlculos CRC : Sн
Interfaz usada : Interfaz propio de Win32 para Windowns NT y 2000
Gestiуn de Gaps : Aсadido a la pista previa

Formato de Salida utilizado : Compresor definido por el usuario
Bitrate seleccionado : 128 kBit/s
Calidad : Alta
Aсadir Etiqueta ID3 : No
Compresor de linea de comandos : C:\Program Files\Exact Audio Copy\Flac\flac.exe
Opciones adicionales en lнnea de comandos : -8 -V -T "artist=%a" -T "title=%t" -T "album=%g" -T "date=%y" -T "tracknumber=%n" -T "genre=%m" %s


TOC del CD extraido

Pista | Inicio | Duraciуn | Sector inicial | Sector final
––––––––––––––––––––––––––––––-
1 | 0:00.37 | 2:13.50 | 37 | 10061
2 | 2:14.12 | 7:10.40 | 10062 | 42351
3 | 9:24.52 | 6:50.65 | 42352 | 73166
4 | 16:15.42 | 5:06.53 | 73167 | 96169
5 | 21:22.20 | 6:11.37 | 96170 | 124031
6 | 27:33.57 | 3:50.65 | 124032 | 141346
7 | 31:24.47 | 3:23.43 | 141347 | 156614
8 | 34:48.15 | 4:21.57 | 156615 | 176246
9 | 39:09.72 | 4:39.10 | 176247 | 197181
10 | 43:49.07 | 7:02.30 | 197182 | 228861
11 | 50:51.37 | 2:52.70 | 228862 | 241831
12 | 53:44.32 | 1:59.73 | 241832 | 250829
13 | 55:44.30 | 4:33.22 | 250830 | 271326
14 | 60:17.52 | 1:49.33 | 271327 | 279534
15 | 62:07.10 | 1:53.45 | 279535 | 288054
16 | 64:00.55 | 1:17.65 | 288055 | 293894
17 | 65:18.45 | 1:16.62 | 293895 | 299656
18 | 66:35.32 | 4:03.48 | 299657 | 317929
19 | 70:39.05 | 1:43.52 | 317930 | 325706


Pista 1

Nombre de Archivo D:\_Deposito\_Audio Rips\01 - Berlioz,Les Nuits d'ete op.7- Villanelle.wav

Longitud Pre-gap 0:00:02.49

Nivel Pico 91.6 %
Calidad de Pista 100.0 %
Copiar CRC 7E07803B
Extracciуn precisa (nivel de confianza 1) [DCB50381]
Copia OK

Pista 2

Nombre de Archivo D:\_Deposito\_Audio Rips\02 - Berlioz,Les Nuits d'ete op.7- Le Spectre de la rose.wav

Longitud Pre-gap 0:00:01.00

Nivel Pico 98.4 %
Calidad de Pista 100.0 %
Copiar CRC 217BB698
Extracciуn precisa (nivel de confianza 1) [87B24AF9]
Copia OK

Pista 3

Nombre de Archivo D:\_Deposito\_Audio Rips\03 - Berlioz,Les Nuits d'ete op.7- Sur les lagunes.wav

Longitud Pre-gap 0:00:02.26

Nivel Pico 100.0 %
Calidad de Pista 100.0 %
Copiar CRC DBF8EDE4
Extracciуn precisa (nivel de confianza 1) [D7E90E5A]
Copia OK

Pista 4

Nombre de Archivo D:\_Deposito\_Audio Rips\04 - Berlioz,Les Nuits d'ete op.7- Absence.wav

Longitud Pre-gap 0:00:00.86

Nivel Pico 84.5 %
Calidad de Pista 100.0 %
Copiar CRC 1F8B087D
Extracciуn precisa (nivel de confianza 1) [34893B2B]
Copia OK

Pista 5

Nombre de Archivo D:\_Deposito\_Audio Rips\05 - Berlioz,Les Nuits d'ete op.7- Au cimetiere (Clair de lune).wav

Longitud Pre-gap 0:00:01.66

Nivel Pico 86.6 %
Calidad de Pista 100.0 %
Copiar CRC BF1DED52
Extracciуn precisa (nivel de confianza 1) [3D1A987D]
Copia OK

Pista 6

Nombre de Archivo D:\_Deposito\_Audio Rips\06 - Berlioz,Les Nuits d'ete op.7- L'ile inconnue.wav

Longitud Pre-gap 0:00:02.09

Nivel Pico 95.4 %
Calidad de Pista 100.0 %
Copiar CRC 9374666C
Extracciуn precisa (nivel de confianza 1) [3BFE8C14]
Copia OK

Pista 7

Nombre de Archivo D:\_Deposito\_Audio Rips\07 - Strauss,Vier letzte Lieder- Fruhling.wav

Longitud Pre-gap 0:00:04.33

Nivel Pico 99.5 %
Calidad de Pista 100.0 %
Copiar CRC 385DB0E4
Extracciуn precisa (nivel de confianza 1) [CE01206B]
Copia OK

Pista 8

Nombre de Archivo D:\_Deposito\_Audio Rips\08 - Strauss,Vier letzte Lieder- September.wav

Longitud Pre-gap 0:00:01.66

Nivel Pico 98.0 %
Calidad de Pista 100.0 %
Copiar CRC DDE38E9E
Extracciуn precisa (nivel de confianza 1) [98319560]
Copia OK

Pista 9

Nombre de Archivo D:\_Deposito\_Audio Rips\09 - Strauss,Vier letzte Lieder- Beim Schlafengehen.wav

Longitud Pre-gap 0:00:01.66

Nivel Pico 99.1 %
Calidad de Pista 100.0 %
Copiar CRC 7F998206
Extracciуn precisa (nivel de confianza 1) [3DCB9907]
Copia OK

Pista 10

Nombre de Archivo D:\_Deposito\_Audio Rips\10 - Strauss,Vier letzte Lieder- Im Abendrot.wav

Longitud Pre-gap 0:00:01.66

Nivel Pico 80.9 %
Calidad de Pista 99.9 %
Copiar CRC 0CD637A1
Extracciуn precisa (nivel de confianza 1) [AFB7E1F9]
Copia OK

Pista 11

Nombre de Archivo D:\_Deposito\_Audio Rips\11 - Faure,Clair de lune op.46 n°2.wav

Longitud Pre-gap 0:00:04.66

Nivel Pico 62.0 %
Calidad de Pista 100.0 %
Copiar CRC 33E14AA1
Extracciуn precisa (nivel de confianza 1) [1256C459]
Copia OK

Pista 12

Nombre de Archivo D:\_Deposito\_Audio Rips\12 - Faure,Notre amour op.23 n°2.wav

Longitud Pre-gap 0:00:02.93

Nivel Pico 98.4 %
Calidad de Pista 100.0 %
Copiar CRC F6828B2F
Extracciуn precisa (nivel de confianza 1) [5390700B]
Copia OK

Pista 13

Nombre de Archivo D:\_Deposito\_Audio Rips\13 - Faure,Au cimetiere op.51 n°2.wav

Longitud Pre-gap 0:00:02.66

Nivel Pico 98.3 %
Calidad de Pista 99.9 %
Copiar CRC 66ABCC77
Extracciуn precisa (nivel de confianza 1) [C2F3EF99]
Copia OK

Pista 14

Nombre de Archivo D:\_Deposito\_Audio Rips\14 - Faure,Au bord de l'eau op.8 n°1.wav

Longitud Pre-gap 0:00:02.60

Nivel Pico 76.9 %
Calidad de Pista 100.0 %
Copiar CRC 72F38B41
Extracciуn precisa (nivel de confianza 1) [5B853F36]
Copia OK

Pista 15

Nombre de Archivo D:\_Deposito\_Audio Rips\15 - Faure,Mandoline (n°1, Cinq Melodies de Venise op.58).wav

Longitud Pre-gap 0:00:02.57

Nivel Pico 72.7 %
Calidad de Pista 100.0 %
Copiar CRC 0C780F64
Extracciуn precisa (nivel de confianza 1) [E4FC3CDA]
Copia OK

Pista 16

Nombre de Archivo D:\_Deposito\_Audio Rips\16 - Poulenc,Main dominee par le coeur.wav

Longitud Pre-gap 0:00:04.33

Nivel Pico 67.9 %
Calidad de Pista 100.0 %
Copiar CRC F2C35DCF
Extracciуn precisa (nivel de confianza 1) [729B7DED]
Copia OK

Pista 17

Nombre de Archivo D:\_Deposito\_Audio Rips\17 - Poulenc,Je nommerai ton front (Miroirs brulants n°2).wav

Longitud Pre-gap 0:00:02.57

Nivel Pico 98.4 %
Calidad de Pista 100.0 %
Copiar CRC 606B76BB
Extracciуn precisa (nivel de confianza 1) [0BABA594]
Copia OK

Pista 18

Nombre de Archivo D:\_Deposito\_Audio Rips\18 - Poulenc,Tu vois le feu du soir (Miroirs brulants n°1).wav

Longitud Pre-gap 0:00:02.56

Nivel Pico 97.8 %
Calidad de Pista 100.0 %
Copiar CRC 9FD1802D
Extracciуn precisa (nivel de confianza 1) [F1E0C223]
Copia OK

Pista 19

Nombre de Archivo D:\_Deposito\_Audio Rips\19 - Poulenc,Ce doux petit visage.wav

Longitud Pre-gap 0:00:02.57

Nivel Pico 85.5 %
Calidad de Pista 100.0 %
Copiar CRC 841DE34E
Extracciуn precisa (nivel de confianza 1) [B4BF6372]
Copia OK


Todas las pistas extraidas de modo preciso

Sin Errores

Final del Informe


CD8
Exact Audio Copy V0.99 prebeta 4 from 23. January 2008

Archivo Log de extracciones desde 23. Febrero 2009, 20:57

Leontyne Price / The Essential Leontyne Price CD8ч11

Usar unidad : TSSTcorpCD/DVDW TS-L632D Adapter: 2 ID: 0

Modo de Lectura : Seguro
Utilizar Corriente Exacta : Sн
Descartar Audio cachй : Sн
Utilizar los punteros C2 : No

Correcciуn de Desplazamiento de Lectura : 6
Sobreleer tanto en Lead-In como en Lead-Out : No
Rellenar las muestras faltantes con silencios : Sн
Eliminar silencios inicial y final : No
Se han usado muestras nulas en los cбlculos CRC : Sн
Interfaz usada : Interfaz propio de Win32 para Windowns NT y 2000
Gestiуn de Gaps : Aсadido a la pista previa

Formato de Salida utilizado : Compresor definido por el usuario
Bitrate seleccionado : 128 kBit/s
Calidad : Alta
Aсadir Etiqueta ID3 : No
Compresor de linea de comandos : C:\Program Files\Exact Audio Copy\Flac\flac.exe
Opciones adicionales en lнnea de comandos : -8 -V -T "artist=%a" -T "title=%t" -T "album=%g" -T "date=%y" -T "tracknumber=%n" -T "genre=%m" %s


TOC del CD extraido

Pista | Inicio | Duraciуn | Sector inicial | Sector final
––––––––––––––––––––––––––––––-
1 | 0:00.32 | 16:24.53 | 32 | 73884
2 | 16:25.10 | 2:39.70 | 73885 | 85879
3 | 19:05.05 | 3:15.55 | 85880 | 100559
4 | 22:20.60 | 1:53.32 | 100560 | 109066
5 | 24:14.17 | 3:00.13 | 109067 | 122579
6 | 27:14.30 | 2:10.07 | 122580 | 132336
7 | 29:24.37 | 4:43.58 | 132337 | 153619
8 | 34:08.20 | 1:27.20 | 153620 | 160164
9 | 35:35.40 | 4:39.05 | 160165 | 181094
10 | 40:14.45 | 2:09.50 | 181095 | 190819
11 | 42:24.20 | 3:39.70 | 190820 | 207314
12 | 46:04.15 | 1:02.15 | 207315 | 211979
13 | 47:06.30 | 5:01.70 | 211980 | 234624
14 | 52:08.25 | 1:13.67 | 234625 | 240166
15 | 53:22.17 | 3:31.43 | 240167 | 256034
16 | 56:53.60 | 1:38.22 | 256035 | 263406
17 | 58:32.07 | 3:01.58 | 263407 | 277039
18 | 61:33.65 | 2:13.50 | 277040 | 287064
19 | 63:47.40 | 2:38.22 | 287065 | 298936
20 | 66:25.62 | 1:48.40 | 298937 | 307076
21 | 68:14.27 | 1:27.08 | 307077 | 313609
22 | 69:41.35 | 2:17.40 | 313610 | 323924
23 | 71:59.00 | 1:25.67 | 323925 | 330366
24 | 73:24.67 | 3:37.68 | 330367 | 346709


Pista 1

Nombre de Archivo D:\_Deposito\_Audio Rips\01 - Barber,Knoxville, Summer of 1915, op.24.wav

Longitud Pre-gap 0:00:02.42

Nivel Pico 94.9 %
Calidad de Pista 100.0 %
Copiar CRC C45CC5D1
Extracciуn precisa (nivel de confianza 1) [815E8995]
Copia OK

Pista 2

Nombre de Archivo D:\_Deposito\_Audio Rips\02 - Schumann,Frauenliebe & -leben op.42- Seit ich ihn gesehen.wav

Longitud Pre-gap 0:00:04.93

Nivel Pico 30.9 %
Calidad de Pista 100.0 %
Copiar CRC F4324519
Extracciуn precisa (nivel de confianza 1) [976910DE]
Copia OK

Pista 3

Nombre de Archivo D:\_Deposito\_Audio Rips\03 - Schumann,Frauenliebe & -leben op.42- Er, der Herrlichste von allen.wav

Longitud Pre-gap 0:00:01.44

Nivel Pico 56.0 %
Calidad de Pista 100.0 %
Copiar CRC D02214EF
Extracciуn precisa (nivel de confianza 1) [5C78B975]
Copia OK

Pista 4

Nombre de Archivo D:\_Deposito\_Audio Rips\04 - Schumann,Frauenliebe & -leben op.42- Ich kann's nicht fassen.wav

Longitud Pre-gap 0:00:01.40

Nivel Pico 59.3 %
Calidad de Pista 100.0 %
Copiar CRC 539C10A1
Extracciуn precisa (nivel de confianza 1) [993165DE]
Copia OK

Pista 5

Nombre de Archivo D:\_Deposito\_Audio Rips\05 - Schumann,Frauenliebe & -leben op.42- Du Ring an meinem Finger.wav

Longitud Pre-gap 0:00:01.93

Nivel Pico 64.2 %
Calidad de Pista 100.0 %
Copiar CRC 594AA4F6
Extracciуn precisa (nivel de confianza 1) [8CD3E40B]
Copia OK

Pista 6

Nombre de Archivo D:\_Deposito\_Audio Rips\06 - Schumann,Frauenliebe & -leben op.42- Helft mir, ihr Schwestern.wav

Longitud Pre-gap 0:00:01.66

Nivel Pico 53.5 %
Calidad de Pista 100.0 %
Copiar CRC 1BEAA852
Extracciуn precisa (nivel de confianza 1) [571A3F34]
Copia OK

Pista 7

Nombre de Archivo D:\_Deposito\_Audio Rips\07 - Schumann,Frauenliebe & -leben op.42- Suber Freund, du blickest.wav

Longitud Pre-gap 0:00:01.09

Nivel Pico 59.5 %
Calidad de Pista 100.0 %
Copiar CRC D9CD5DF4
Extracciуn precisa (nivel de confianza 1) [EDEDAA3F]
Copia OK

Pista 8

Nombre de Archivo D:\_Deposito\_Audio Rips\08 - Schumann,Frauenliebe & -leben op.42- An meinem Herzen, an meiner Brust.wav

Longitud Pre-gap 0:00:00.64

Nivel Pico 58.8 %
Calidad de Pista 100.0 %
Copiar CRC 696FA1AA
Extracciуn precisa (nivel de confianza 1) [5D5221C9]
Copia OK

Pista 9

Nombre de Archivo D:\_Deposito\_Audio Rips\09 - Schumann,Frauenliebe & -leben op.42- Nun hast du mir den ersten Schmerz getan.wav

Longitud Pre-gap 0:00:01.24

Nivel Pico 43.7 %
Calidad de Pista 100.0 %
Copiar CRC 51A81AF8
Extracciуn precisa (nivel de confianza 1) [A94DA4D9]
Copia OK

Pista 10

Nombre de Archivo D:\_Deposito\_Audio Rips\10 - Schumann,Widmung (n°1, Myrthen, op.25).wav

Longitud Pre-gap 0:00:02.86

Nivel Pico 84.4 %
Calidad de Pista 100.0 %
Copiar CRC 8A8971E2
Extracciуn precisa (nivel de confianza 1) [2CF98742]
Copia OK

Pista 11

Nombre de Archivo D:\_Deposito\_Audio Rips\11 - Schumann,Mignon (n°28, Liederalbum fur die Jugend, op.79).wav

Nivel Pico 83.8 %
Calidad de Pista 100.0 %
Copiar CRC 98D17A8D
Extracciуn precisa (nivel de confianza 1) [6D13B15A]
Copia OK

Pista 12

Nombre de Archivo D:\_Deposito\_Audio Rips\12 - Schumann,Volksliedchen op.51 n°2.wav

Longitud Pre-gap 0:00:02.60

Nivel Pico 70.0 %
Calidad de Pista 100.0 %
Copiar CRC 6BD81473
Extracciуn precisa (nivel de confianza 1) [6A1E989B]
Copia OK

Pista 13

Nombre de Archivo D:\_Deposito\_Audio Rips\13 - Schumann,Schone Wiege meiner Leiden (n°5, Liederkreis, op.24).wav

Longitud Pre-gap 0:00:02.44

Nivel Pico 43.6 %
Calidad de Pista 100.0 %
Copiar CRC 87D61B77
Extracciуn precisa (nivel de confianza 1) [DF146CB9]
Copia OK

Pista 14

Nombre de Archivo D:\_Deposito\_Audio Rips\14 - Schumann,Er ist's (n°23, Liederalbum fur die Jugend, op.79).wav

Longitud Pre-gap 0:00:02.60

Nivel Pico 65.9 %
Calidad de Pista 100.0 %
Copiar CRC 905F219C
Extracciуn precisa (nivel de confianza 1) [E0C4D787]
Copia OK

Pista 15

Nombre de Archivo D:\_Deposito\_Audio Rips\15 - Schumann,Heib' mich nicht reden (n°5, Lieder und Gesang aus Wilhelm Meister).wav

Nivel Pico 69.4 %
Calidad de Pista 100.0 %
Copiar CRC F1006BBA
Extracciуn precisa (nivel de confianza 1) [38CA9F82]
Copia OK

Pista 16

Nombre de Archivo D:\_Deposito\_Audio Rips\16 - Schumann,Lust der Sturmnacht op.35 n°1.wav

Longitud Pre-gap 0:00:01.40

Nivel Pico 58.6 %
Calidad de Pista 99.8 %
Copiar CRC 6A2F039F
Extracciуn precisa (nivel de confianza 1) [51368052]
Copia OK

Pista 17

Nombre de Archivo D:\_Deposito\_Audio Rips\17 - Strauss,Allerseelen op.10 n°8.wav

Longitud Pre-gap 0:00:04.09

Nivel Pico 69.6 %
Calidad de Pista 100.0 %
Copiar CRC 3020F689
Extracciуn precisa (nivel de confianza 1) [C25FE663]
Copia OK

Pista 18

Nombre de Archivo D:\_Deposito\_Audio Rips\18 - Strauss,Schlagende Herzen op.29 n°2.wav

Longitud Pre-gap 0:00:02.33

Nivel Pico 88.8 %
Calidad de Pista 100.0 %
Copiar CRC 159774A3
Extracciуn precisa (nivel de confianza 1) [85B52197]
Copia OK

Pista 19

Nombre de Archivo D:\_Deposito\_Audio Rips\19 - Strauss,Freundliche Vision op.48 n°1.wav

Longitud Pre-gap 0:00:02.33

Nivel Pico 47.4 %
Calidad de Pista 100.0 %
Copiar CRC EC4C19DE
Extracciуn precisa (nivel de confianza 1) [4FD7C29D]
Copia OK

Pista 20

Nombre de Archivo D:\_Deposito\_Audio Rips\20 - Strauss,Wie sollten wir geheim op.19 n°4.wav

Longitud Pre-gap 0:00:02.33

Nivel Pico 97.2 %
Calidad de Pista 100.0 %
Copiar CRC 9BC6F181
Extracciуn precisa (nivel de confianza 1) [D046AA30]
Copia OK

Pista 21

Nombre de Archivo D:\_Deposito\_Audio Rips\21 - Hugo Wolf,Der Gartner.wav

Longitud Pre-gap 0:00:04.33

Nivel Pico 60.9 %
Calidad de Pista 100.0 %
Copiar CRC E58AD73A
Extracciуn precisa (nivel de confianza 1) [A7F3A048]
Copia OK

Pista 22

Nombre de Archivo D:\_Deposito\_Audio Rips\22 - Hugo Wolf,Lebe wohl.wav

Longitud Pre-gap 0:00:03.84

Nivel Pico 82.5 %
Calidad de Pista 100.0 %
Copiar CRC 267B0F1B
Extracciуn precisa (nivel de confianza 1) [1396DB4E]
Copia OK

Pista 23

Nombre de Archivo D:\_Deposito\_Audio Rips\23 - Hugo Wolf,Morgentau.wav

Longitud Pre-gap 0:00:02.33

Nivel Pico 47.6 %
Calidad de Pista 100.0 %
Copiar CRC 44DA7ED6
Extracciуn precisa (nivel de confianza 1) [66D74C21]
Copia OK

Pista 24

Nombre de Archivo D:\_Deposito\_Audio Rips\24 - Hugo Wolf,Geh, Geliebter, geh jetzt.wav

Longitud Pre-gap 0:00:02.82

Nivel Pico 73.3 %
Calidad de Pista 100.0 %
Copiar CRC 99A9089F
Extracciуn precisa (nivel de confianza 1) [FF069A3C]
Copia OK


Todas las pistas extraidas de modo preciso

Sin Errores

Final del Informe


CD9
Exact Audio Copy V0.99 prebeta 4 from 23. January 2008

Archivo Log de extracciones desde 23. Febrero 2009, 21:24

Artista desconocido / Tнtulo desconocido

Usar unidad : TSSTcorpCD/DVDW TS-L632D Adapter: 2 ID: 0

Modo de Lectura : Seguro
Utilizar Corriente Exacta : Sн
Descartar Audio cachй : Sн
Utilizar los punteros C2 : No

Correcciуn de Desplazamiento de Lectura : 6
Sobreleer tanto en Lead-In como en Lead-Out : No
Rellenar las muestras faltantes con silencios : Sн
Eliminar silencios inicial y final : No
Se han usado muestras nulas en los cбlculos CRC : Sн
Interfaz usada : Interfaz propio de Win32 para Windowns NT y 2000
Gestiуn de Gaps : Aсadido a la pista previa

Formato de Salida utilizado : Compresor definido por el usuario
Bitrate seleccionado : 128 kBit/s
Calidad : Alta
Aсadir Etiqueta ID3 : No
Compresor de linea de comandos : C:\Program Files\Exact Audio Copy\Flac\flac.exe
Opciones adicionales en lнnea de comandos : -8 -V -T "artist=%a" -T "title=%t" -T "album=%g" -T "date=%y" -T "tracknumber=%n" -T "genre=%m" %s


TOC del CD extraido

Pista | Inicio | Duraciуn | Sector inicial | Sector final
––––––––––––––––––––––––––––––-
1 | 0:00.32 | 2:15.68 | 32 | 10224
2 | 2:16.25 | 2:24.12 | 10225 | 21036
3 | 4:40.37 | 2:11.33 | 21037 | 30894
4 | 6:51.70 | 2:18.37 | 30895 | 41281
5 | 9:10.32 | 3:22.30 | 41282 | 56461
6 | 12:32.62 | 2:32.33 | 56462 | 67894
7 | 15:05.20 | 4:34.15 | 67895 | 88459
8 | 19:39.35 | 2:15.35 | 88460 | 98619
9 | 21:54.70 | 3:08.42 | 98620 | 112761
10 | 25:03.37 | 2:08.48 | 112762 | 122409
11 | 27:12.10 | 2:13.35 | 122410 | 132419
12 | 29:25.45 | 2:03.60 | 132420 | 141704
13 | 31:29.30 | 4:07.57 | 141705 | 160286
14 | 35:37.12 | 2:42.38 | 160287 | 172474
15 | 38:19.50 | 3:07.72 | 172475 | 186571
16 | 41:27.47 | 3:38.25 | 186572 | 202946
17 | 45:05.72 | 3:15.25 | 202947 | 217596
18 | 48:21.22 | 3:43.40 | 217597 | 234361
19 | 52:04.62 | 1:48.43 | 234362 | 242504
20 | 53:53.30 | 1:35.07 | 242505 | 249636
21 | 55:28.37 | 1:56.28 | 249637 | 258364
22 | 57:24.65 | 3:17.65 | 258365 | 273204
23 | 60:42.55 | 3:47.40 | 273205 | 290269


Pista 1

Nombre de Archivo D:\_Deposito\_Audio Rips\01 - Track01.wav

Longitud Pre-gap 0:00:02.42

Nivel Pico 77.4 %
Calidad de Pista 100.0 %
Copiar CRC 74B65F4E
Pista no presente en la base de datos AccurateRip
Copia OK

Pista 2

Nombre de Archivo D:\_Deposito\_Audio Rips\02 - Track02.wav

Longitud Pre-gap 0:00:02.44

Nivel Pico 95.7 %
Calidad de Pista 100.0 %
Copiar CRC 5B40C190
Pista no presente en la base de datos AccurateRip
Copia OK

Pista 3

Nombre de Archivo D:\_Deposito\_Audio Rips\03 - Track03.wav

Longitud Pre-gap 0:00:02.41

Nivel Pico 85.9 %
Calidad de Pista 100.0 %
Copiar CRC CF23A960
Pista no presente en la base de datos AccurateRip
Copia OK

Pista 4

Nombre de Archivo D:\_Deposito\_Audio Rips\04 - Track04.wav

Longitud Pre-gap 0:00:02.44

Nivel Pico 79.8 %
Calidad de Pista 99.9 %
Copiar CRC 59CDCCD8
Pista no presente en la base de datos AccurateRip
Copia OK

Pista 5

Nombre de Archivo D:\_Deposito\_Audio Rips\05 - Track05.wav

Longitud Pre-gap 0:00:02.40

Nivel Pico 73.0 %
Calidad de Pista 100.0 %
Copiar CRC DFC2F263
Pista no presente en la base de datos AccurateRip
Copia OK

Pista 6

Nombre de Archivo D:\_Deposito\_Audio Rips\06 - Track06.wav

Longitud Pre-gap 0:00:02.42

Nivel Pico 81.2 %
Calidad de Pista 99.9 %
Copiar CRC 47DFD490
Pista no presente en la base de datos AccurateRip
Copia OK

Pista 7

Nombre de Archivo D:\_Deposito\_Audio Rips\07 - Track07.wav

Longitud Pre-gap 0:00:02.40

Nivel Pico 50.7 %
Calidad de Pista 100.0 %
Copiar CRC 7F52A94E
Pista no presente en la base de datos AccurateRip
Copia OK

Pista 8

Nombre de Archivo D:\_Deposito\_Audio Rips\08 - Track08.wav

Longitud Pre-gap 0:00:02.44

Nivel Pico 71.3 %
Calidad de Pista 99.9 %
Copiar CRC E327D33A
Pista no presente en la base de datos AccurateRip
Copia OK

Pista 9

Nombre de Archivo D:\_Deposito\_Audio Rips\09 - Track09.wav

Longitud Pre-gap 0:00:02.42

Nivel Pico 99.4 %
Calidad de Pista 100.0 %
Copiar CRC C9A9F5AC
Pista no presente en la base de datos AccurateRip
Copia OK

Pista 10

Nombre de Archivo D:\_Deposito\_Audio Rips\10 - Track10.wav

Longitud Pre-gap 0:00:02.40

Nivel Pico 98.8 %
Calidad de Pista 100.0 %
Copiar CRC 8D46C212
Pista no presente en la base de datos AccurateRip
Copia OK

Pista 11

Nombre de Archivo D:\_Deposito\_Audio Rips\11 - Track11.wav

Longitud Pre-gap 0:00:02.44

Nivel Pico 85.7 %
Calidad de Pista 99.9 %
Copiar CRC 16747A0A
Pista no presente en la base de datos AccurateRip
Copia OK

Pista 12

Nombre de Archivo D:\_Deposito\_Audio Rips\12 - Track12.wav

Longitud Pre-gap 0:00:02.44

Nivel Pico 74.9 %
Calidad de Pista 100.0 %
Copiar CRC B82EF787
Pista no presente en la base de datos AccurateRip
Copia OK

Pista 13

Nombre de Archivo D:\_Deposito\_Audio Rips\13 - Track13.wav

Longitud Pre-gap 0:00:02.44

Nivel Pico 85.6 %
Calidad de Pista 100.0 %
Copiar CRC DA6E2FF6
Pista no presente en la base de datos AccurateRip
Copia OK

Pista 14

Nombre de Archivo D:\_Deposito\_Audio Rips\14 - Track14.wav

Longitud Pre-gap 0:00:02.42

Nivel Pico 89.3 %
Calidad de Pista 100.0 %
Copiar CRC 4AC1CD3A
Pista no presente en la base de datos AccurateRip
Copia OK

Pista 15

Nombre de Archivo D:\_Deposito\_Audio Rips\15 - Track15.wav

Longitud Pre-gap 0:00:04.17

Nivel Pico 79.8 %
Calidad de Pista 99.9 %
Copiar CRC B228EC56
Pista no presente en la base de datos AccurateRip
Copia OK

Pista 16

Nombre de Archivo D:\_Deposito\_Audio Rips\16 - Track16.wav

Longitud Pre-gap 0:00:02.40

Nivel Pico 99.7 %
Calidad de Pista 100.0 %
Copiar CRC 491DCD3B
Pista no presente en la base de datos AccurateRip
Copia OK

Pista 17

Nombre de Archivo D:\_Deposito\_Audio Rips\17 - Track17.wav

Longitud Pre-gap 0:00:02.40

Nivel Pico 50.6 %
Calidad de Pista 100.0 %
Copiar CRC BBCAB45F
Pista no presente en la base de datos AccurateRip
Copia OK

Pista 18

Nombre de Archivo D:\_Deposito\_Audio Rips\18 - Track18.wav

Longitud Pre-gap 0:00:02.36

Nivel Pico 72.2 %
Calidad de Pista 100.0 %
Copiar CRC 0824380A
Pista no presente en la base de datos AccurateRip
Copia OK

Pista 19

Nombre de Archivo D:\_Deposito\_Audio Rips\19 - Track19.wav

Longitud Pre-gap 0:00:02.36

Nivel Pico 96.9 %
Calidad de Pista 99.9 %
Copiar CRC A5BEE6F1
Pista no presente en la base de datos AccurateRip
Copia OK

Pista 20

Nombre de Archivo D:\_Deposito\_Audio Rips\20 - Track20.wav

Longitud Pre-gap 0:00:02.40

Nivel Pico 99.6 %
Calidad de Pista 100.0 %
Copiar CRC F95A13B0
Pista no presente en la base de datos AccurateRip
Copia OK

Pista 21

Nombre de Archivo D:\_Deposito\_Audio Rips\21 - Track21.wav

Longitud Pre-gap 0:00:02.40

Nivel Pico 70.0 %
Calidad de Pista 100.0 %
Copiar CRC 690A29D9
Pista no presente en la base de datos AccurateRip
Copia OK

Pista 22

Nombre de Archivo D:\_Deposito\_Audio Rips\22 - Track22.wav

Longitud Pre-gap 0:00:02.40

Nivel Pico 58.0 %
Calidad de Pista 100.0 %
Copiar CRC E133678F
Pista no presente en la base de datos AccurateRip
Copia OK

Pista 23

Nombre de Archivo D:\_Deposito\_Audio Rips\23 - Track23.wav

Longitud Pre-gap 0:00:02.40

Nivel Pico 97.0 %
Calidad de Pista 100.0 %
Copiar CRC 56881F03
Pista no presente en la base de datos AccurateRip
Copia OK


Ninguna de las pistas estб presente en la base de datos AccurateRip

Sin Errores

Final del Informe


CD10
Exact Audio Copy V0.99 prebeta 4 from 23. January 2008

Archivo Log de extracciones desde 23. Febrero 2009, 21:50

Leontyne Price / The Essential Leontyne Price CD10ч11

Usar unidad : TSSTcorpCD/DVDW TS-L632D Adapter: 2 ID: 0

Modo de Lectura : Seguro
Utilizar Corriente Exacta : Sн
Descartar Audio cachй : Sн
Utilizar los punteros C2 : No

Correcciуn de Desplazamiento de Lectura : 6
Sobreleer tanto en Lead-In como en Lead-Out : No
Rellenar las muestras faltantes con silencios : Sн
Eliminar silencios inicial y final : No
Se han usado muestras nulas en los cбlculos CRC : Sн
Interfaz usada : Interfaz propio de Win32 para Windowns NT y 2000
Gestiуn de Gaps : Aсadido a la pista previa

Formato de Salida utilizado : Compresor definido por el usuario
Bitrate seleccionado : 128 kBit/s
Calidad : Alta
Aсadir Etiqueta ID3 : No
Compresor de linea de comandos : C:\Program Files\Exact Audio Copy\Flac\flac.exe
Opciones adicionales en lнnea de comandos : -8 -V -T "artist=%a" -T "title=%t" -T "album=%g" -T "date=%y" -T "tracknumber=%n" -T "genre=%m" %s


TOC del CD extraido

Pista | Inicio | Duraciуn | Sector inicial | Sector final
––––––––––––––––––––––––––––––-
1 | 0:00.32 | 2:14.18 | 32 | 10099
2 | 2:14.50 | 3:48.10 | 10100 | 27209
3 | 6:02.60 | 2:28.10 | 27210 | 38319
4 | 8:30.70 | 4:52.17 | 38320 | 60236
5 | 13:23.12 | 2:27.60 | 60237 | 71321
6 | 15:50.72 | 2:41.13 | 71322 | 83409
7 | 18:32.10 | 2:56.50 | 83410 | 96659
8 | 21:28.60 | 2:43.25 | 96660 | 108909
9 | 24:12.10 | 2:11.00 | 108910 | 118734
10 | 26:23.10 | 2:17.50 | 118735 | 129059
11 | 28:40.60 | 2:36.30 | 129060 | 140789
12 | 31:17.15 | 2:28.30 | 140790 | 151919
13 | 33:45.45 | 4:01.15 | 151920 | 170009
14 | 37:46.60 | 2:59.50 | 170010 | 183484
15 | 40:46.35 | 2:29.55 | 183485 | 194714
16 | 43:16.15 | 3:50.57 | 194715 | 212021
17 | 47:06.72 | 4:36.10 | 212022 | 232731
18 | 51:43.07 | 4:20.13 | 232732 | 252244
19 | 56:03.20 | 5:46.62 | 252245 | 278256


Pista 1

Nombre de Archivo D:\_Deposito\_Audio Rips\01 - Holy, Holy, Holy.wav

Longitud Pre-gap 0:00:02.42

Nivel Pico 81.5 %
Calidad de Pista 100.0 %
Copiar CRC E2C1BC81
Extracciуn precisa (nivel de confianza 1) [31100471]
Copia OK

Pista 2

Nombre de Archivo D:\_Deposito\_Audio Rips\02 - Lead, Kindly Light.wav

Longitud Pre-gap 0:00:02.44

Nivel Pico 55.3 %
Calidad de Pista 99.9 %
Copiar CRC E9C278C5
Extracciуn precisa (nivel de confianza 1) [4E02656A]
Copia OK

Pista 3

Nombre de Archivo D:\_Deposito\_Audio Rips\03 - Blessed Assurance.wav

Longitud Pre-gap 0:00:02.44

Nivel Pico 88.7 %
Calidad de Pista 100.0 %
Copiar CRC 83ADC8E3
Extracciуn precisa (nivel de confianza 1) [15179ECA]
Copia OK

Pista 4

Nombre de Archivo D:\_Deposito\_Audio Rips\04 - Schubert,Ave Maria.wav

Longitud Pre-gap 0:00:02.44

Nivel Pico 95.8 %
Calidad de Pista 99.9 %
Copiar CRC F1EF5827
Extracciуn precisa (nivel de confianza 1) [41479CA9]
Copia OK

Pista 5

Nombre de Archivo D:\_Deposito\_Audio Rips\05 - What a Friend We Have in Jesus.wav

Longitud Pre-gap 0:00:02.16

Nivel Pico 83.5 %
Calidad de Pista 100.0 %
Copiar CRC 78E9BF3B
Extracciуn precisa (nivel de confianza 1) [79674582]
Copia OK

Pista 6

Nombre de Archivo D:\_Deposito\_Audio Rips\06 - Amazing Grace.wav

Longitud Pre-gap 0:00:02.40

Nivel Pico 97.4 %
Calidad de Pista 100.0 %
Copiar CRC 9F782BA2
Extracciуn precisa (nivel de confianza 1) [5E7C6961]
Copia OK

Pista 7

Nombre de Archivo D:\_Deposito\_Audio Rips\07 - The Lord's Prayer.wav

Longitud Pre-gap 0:00:01.93

Nivel Pico 99.3 %
Calidad de Pista 99.9 %
Copiar CRC E5D5561E
Extracciуn precisa (nivel de confianza 1) [87614A2C]
Copia OK

Pista 8

Nombre de Archivo D:\_Deposito\_Audio Rips\08 - Pass Me Not, O Gentle Saviour.wav

Longitud Pre-gap 0:00:02.40

Nivel Pico 88.9 %
Calidad de Pista 100.0 %
Copiar CRC 2A83DBAB
Extracciуn precisa (nivel de confianza 1) [92E2DA90]
Copia OK

Pista 9

Nombre de Archivo D:\_Deposito\_Audio Rips\09 - The Church's One Foundation.wav

Longitud Pre-gap 0:00:02.37

Nivel Pico 89.7 %
Calidad de Pista 100.0 %
Copiar CRC 97E5E1D1
Extracciуn precisa (nivel de confianza 1) [8FF0F356]
Copia OK

Pista 10

Nombre de Archivo D:\_Deposito\_Audio Rips\10 - Bless This House.wav

Longitud Pre-gap 0:00:02.10

Nivel Pico 94.9 %
Calidad de Pista 100.0 %
Copiar CRC 97581EB8
Extracciуn precisa (nivel de confianza 1) [294D33EB]
Copia OK

Pista 11

Nombre de Archivo D:\_Deposito\_Audio Rips\11 - I Need Thee Every Hour.wav

Longitud Pre-gap 0:00:02.16

Nivel Pico 67.5 %
Calidad de Pista 99.9 %
Copiar CRC 580FA4D2
Extracciуn precisa (nivel de confianza 1) [73AB9B3A]
Copia OK

Pista 12

Nombre de Archivo D:\_Deposito\_Audio Rips\12 - Fairest Lord Jesus.wav

Longitud Pre-gap 0:00:02.17

Nivel Pico 91.2 %
Calidad de Pista 99.9 %
Copiar CRC 9FEA5EE1
Extracciуn precisa (nivel de confianza 1) [5E452608]
Copia OK

Pista 13

Nombre de Archivo D:\_Deposito\_Audio Rips\13 - I Wonder As I Wander.wav

Longitud Pre-gap 0:00:04.17

Nivel Pico 86.1 %
Calidad de Pista 100.0 %
Copiar CRC 8115F93F
Extracciуn precisa (nivel de confianza 1) [669D1555]
Copia OK

Pista 14

Nombre de Archivo D:\_Deposito\_Audio Rips\14 - Gounod,Ave Maria.wav

Longitud Pre-gap 0:00:02.46

Nivel Pico 85.7 %
Calidad de Pista 99.9 %
Copiar CRC 3E747655
Extracciуn precisa (nivel de confianza 1) [4A3E0EAE]
Copia OK

Pista 15

Nombre de Archivo D:\_Deposito\_Audio Rips\15 - Summertime.wav

Longitud Pre-gap 0:00:02.66

Nivel Pico 75.1 %
Calidad de Pista 99.9 %
Copiar CRC 016C95BA
Extracciуn precisa (nivel de confianza 1) [01569382]
Copia OK

Pista 16

Nombre de Archivo D:\_Deposito\_Audio Rips\16 - America the Beautiful.wav

Longitud Pre-gap 0:00:03.17

Nivel Pico 98.3 %
Calidad de Pista 99.9 %
Copiar CRC F8F13099
Extracciуn precisa (nivel de confianza 1) [BD1B22F3]
Copia OK

Pista 17

Nombre de Archivo D:\_Deposito\_Audio Rips\17 - Lift Ev'ry Voice and Sing.wav

Longitud Pre-gap 0:00:02.42

Nivel Pico 97.1 %
Calidad de Pista 100.0 %
Copiar CRC 5FED6853
Extracciуn precisa (nivel de confianza 1) [EFC08C57]
Copia OK

Pista 18

Nombre de Archivo D:\_Deposito\_Audio Rips\18 - A Mighty Fortress Is Our God.wav

Longitud Pre-gap 0:00:01.26

Nivel Pico 94.2 %
Calidad de Pista 100.0 %
Copiar CRC 7D23472F
Extracciуn precisa (nivel de confianza 1) [0207D8B0]
Copia OK

Pista 19

Nombre de Archivo D:\_Deposito\_Audio Rips\19 - Battle Hymn of the Republic.wav

Longitud Pre-gap 0:00:02.40

Nivel Pico 99.5 %
Calidad de Pista 100.0 %
Copiar CRC 2329B4A5
Extracciуn precisa (nivel de confianza 1) [4F6C8BF0]
Copia OK


Todas las pistas extraidas de modo preciso

Sin Errores

Final del Informe


CD11
Exact Audio Copy V0.99 prebeta 4 from 23. January 2008

Archivo Log de extracciones desde 23. Febrero 2009, 22:09

Artista desconocido / Tнtulo desconocido

Usar unidad : TSSTcorpCD/DVDW TS-L632D Adapter: 2 ID: 0

Modo de Lectura : Seguro
Utilizar Corriente Exacta : Sн
Descartar Audio cachй : Sн
Utilizar los punteros C2 : No

Correcciуn de Desplazamiento de Lectura : 6
Sobreleer tanto en Lead-In como en Lead-Out : No
Rellenar las muestras faltantes con silencios : Sн
Eliminar silencios inicial y final : No
Se han usado muestras nulas en los cбlculos CRC : Sн
Interfaz usada : Interfaz propio de Win32 para Windowns NT y 2000
Gestiуn de Gaps : Aсadido a la pista previa

Formato de Salida utilizado : Compresor definido por el usuario
Bitrate seleccionado : 128 kBit/s
Calidad : Alta
Aсadir Etiqueta ID3 : No
Compresor de linea de comandos : C:\Program Files\Exact Audio Copy\Flac\flac.exe
Opciones adicionales en lнnea de comandos : -8 -V -T "artist=%a" -T "title=%t" -T "album=%g" -T "date=%y" -T "tracknumber=%n" -T "genre=%m" %s


TOC del CD extraido

Pista | Inicio | Duraciуn | Sector inicial | Sector final
––––––––––––––––––––––––––––––-
1 | 0:00.32 | 1:04.55 | 32 | 4886
2 | 1:05.12 | 1:19.38 | 4887 | 10849
3 | 2:24.50 | 1:21.50 | 10850 | 16974
4 | 3:46.25 | 1:10.12 | 16975 | 22236
5 | 4:56.37 | 0:43.20 | 22237 | 25481
6 | 5:39.57 | 1:09.48 | 25482 | 30704
7 | 6:49.30 | 2:01.35 | 30705 | 39814
8 | 8:50.65 | 1:30.67 | 39815 | 46631
9 | 10:21.57 | 2:47.68 | 46632 | 59224
10 | 13:09.50 | 2:43.55 | 59225 | 71504
11 | 15:53.30 | 17:51.65 | 71505 | 151894


Pista 1

Nombre de Archivo D:\_Deposito\_Audio Rips\01 - Track01.wav

Longitud Pre-gap 0:00:02.42

Nivel Pico 85.4 %
Calidad de Pista 99.8 %
Copiar CRC 7FB22DBE
Extracciуn precisa (nivel de confianza 1) [4A62BF5A]
Copia OK

Pista 2

Nombre de Archivo D:\_Deposito\_Audio Rips\02 - Track02.wav

Nivel Pico 89.0 %
Calidad de Pista 100.0 %
Copiar CRC 47A9C254
Extracciуn precisa (nivel de confianza 1) [5C20E16B]
Copia OK

Pista 3

Nombre de Archivo D:\_Deposito\_Audio Rips\03 - Track03.wav

Nivel Pico 78.5 %
Calidad de Pista 99.8 %
Copiar CRC 6BB6F438
Extracciуn precisa (nivel de confianza 1) [B58D62B2]
Copia OK

Pista 4

Nombre de Archivo D:\_Deposito\_Audio Rips\04 - Track04.wav

Nivel Pico 64.6 %
Calidad de Pista 100.0 %
Copiar CRC BE346A56
Extracciуn precisa (nivel de confianza 1) [0180A453]
Copia OK

Pista 5

Nombre de Archivo D:\_Deposito\_Audio Rips\05 - Track05.wav

Nivel Pico 81.7 %
Calidad de Pista 100.0 %
Copiar CRC 336BF6E9
Extracciуn precisa (nivel de confianza 1) [39D66172]
Copia OK

Pista 6

Nombre de Archivo D:\_Deposito\_Audio Rips\06 - Track06.wav

Nivel Pico 89.0 %
Calidad de Pista 100.0 %
Copiar CRC EF95EEB5
Extracciуn precisa (nivel de confianza 1) [9892DB11]
Copia OK

Pista 7

Nombre de Archivo D:\_Deposito\_Audio Rips\07 - Track07.wav

Nivel Pico 89.0 %
Calidad de Pista 100.0 %
Copiar CRC C23FFDDA
Extracciуn precisa (nivel de confianza 1) [7793D7B1]
Copia OK

Pista 8

Nombre de Archivo D:\_Deposito\_Audio Rips\08 - Track08.wav

Nivel Pico 88.0 %
Calidad de Pista 100.0 %
Copiar CRC 6E4D0148
Extracciуn precisa (nivel de confianza 1) [42E03CA2]
Copia OK

Pista 9

Nombre de Archivo D:\_Deposito\_Audio Rips\09 - Track09.wav

Nivel Pico 79.4 %
Calidad de Pista 100.0 %
Copiar CRC 3B48A6F3
Extracciуn precisa (nivel de confianza 1) [9C08E52F]
Copia OK

Pista 10

Nombre de Archivo D:\_Deposito\_Audio Rips\10 - Track10.wav

Nivel Pico 63.9 %
Calidad de Pista 100.0 %
Copiar CRC AB788668
Extracciуn precisa (nivel de confianza 1) [BFFBC1E2]
Copia OK

Pista 11

Nombre de Archivo D:\_Deposito\_Audio Rips\11 - Track11.wav

Nivel Pico 50.2 %
Calidad de Pista 100.0 %
Copiar CRC E8239F40
Extracciуn precisa (nivel de confianza 1) [758120FC]
Copia OK


Todas las pistas extraidas de modo preciso

Sin Errores

Final del Informe


Thanks to the original ripper.

**Follow My Music Blog**