Subcategories

Leslie's Motel - Dirty Sheets (1972) [2009, Gear Fab Records, GF-235]

Posted By: v3122
Leslie's Motel - Dirty Sheets (1972) [2009, Gear Fab Records, GF-235]

Leslie's Motel - Dirty Sheets (1972)
EAC | Flac(Image) + Cue + Log & iPod M4A(Tracks) & MP3 CBR 320Kbps
2009 | Gear Fab Records, GF-235 | ~ 383 or 387 or 140 Mb | Scans Included
Hard Psych Blues Rock

Dirty Sheets album for sale by Leslie's Motel was released Feb 17, 2009 on the Gear Fab label. The Eighth Installment of Gear Fab's Louisville Music Series. Another great band that had members of The Oxfords sprinkled in with Blues Project Drummer Ron Blumenfeld! Recorded in 1970 in Louisville, Kentucky and produced by Oxford's lead guitarist Jay.

~ cduniverse


If you like good old folksy-rock and roll, you'll like this. We popped in this CD at work last night and I couldn't stop tapping my fingers and feet. I told myself I was going to get on here today and buy myself a copy. It's awesome! And I know the singer and he is such a wonderful guy!

By D. Allen


Leslie's Motel - Dirty Sheets (1972) [2009, Gear Fab Records, GF-235]

Folk-tinged, psychedelic, and improvisational, Leslie's Motel skirted the periphery of the jam-band niche during the early '70s. Drummer Roy Blumenfeld (formally of Blues Project and Seatrain) was the group's most notable member. Their previously unreleased concept album, Dirty Sheets, was reissued by psych-garage imprint Gear Fab in 2009.

by J. Scott McClintock


Группа создана музыкантами из "Oxfords", а так же известным барабанщиком из "Blues Project" Роном Блуменфельдом! Альбом вышел в 1972 in Louisville, Kentucky и был спродюсирован гитаристом из "Oxford's" Джеем Петаком. По мнению известного на то время критика и ди джия "Coyote Calhoun" - Альбом этой банды под названием "Грязные простыни" - лучшее творение в Кентукки в 70-ые годы прошлого века. Тем более соло гитарист Майк Сеиболдис смело взял на вооружение рифы Jimi Hendrix. А в теме "Ветрянные мельницы" клавишник (он же и композитор) Ричард Буш показывает технику, напоминающую лучшее из "Дверей".

В 1971-м три совершенно разных музыканта объединились, чтобы сформировать The Leslie's Motel Band. Основателями группы были Ричард Буш, Майк Сейболд, и я, Билл Таллис. Ричард долгое время был клавишником blue eyed soul группы Tom Dooley and the Lovelights.
Майк переехал в Луисвилл из Балтимора на учебу в колледже, и был родственником Феликса Паппилларди, продюсера нескольких альбомов Cream и басиста группы Mountain. Это дало ему очень ярко выраженный стиль, что определило его дальнейшую работу в качестве ведущего гитариста в одной из первых "тяжелых" блюз-групп в Луисвилле, Conception. Я начинал как фолк-певец, играющий в клубах города, таких как The Arts of Louisville House.

Этот клуб позже назывался Changes Unlimited и затем Kaleidoscope, и был первым психоделическим ночным клубом в Луисвилле, Кентукки. Я провел много захватывающих ночей, играя в этих клубах с Джеем Петаком (Jay Petach), звукооператором этого CD, в то время, когда мы были членами Oxfords. Самым незабываемым вечером была наша встреча с Фрэнком Заппой, когда мы беседовали с ним о музыкальном бизнесе.

После The Oxfords я сформировал группу Conception, это было когда Майк и я начинали играть вместе. По настоянию друга я отправился посмотреть на одну группу в Нашвилле в клубе The Briar Patch и я понял, что это была лучшая живая группа, которую я когда-либо слышал. Она называлась The Allman Joys, которая позже стала The Allman Brothers Band, и с этого момента мой музыкальный путь изменился. После выпуска первого альбома ABB Майк и я расформровали Conception и начали искать новых музыкантов, чтобы быть частью этого southern rock саунда.

Мы пошли в клуб под названием The Zanzibar и объяснили Ричарду, во время одного из его очередных разрывов, что мы имели в виду. Он немедленно заинтересовался, и мы начали искать других местных музыкантов, чтобы закончить формирование группы. Даже при том, что более пяти лет группа Leslie's Motel была вместе, мы сменили много различных составов, я полагаю, что LMB на этом CD была на своем пике. Прежде, чем рассказать о трех других невероятных музыкантах, я думаю, что история названия группы требует отдельного рассказа. Когда мы начали репетировать в гараже Dixie Highway в Луисвилле, каждый день мы проходили мимо Leslie's Motel.

Ходили слухи, что это был дом с "плохой репутацией" (главным образом, для солдат, приходящих и уходящих из Форт-Нокса), и существовала примета, что после этого они могли начинать свой бизнес. Эта примета стала темой бесед на на наших репетициях, и в один прекрасный день Майк предложил назвать нашу группу Leslie's Motel. Посмеявшись, мы решили, что это название было ничем не хуже, чем любое другое. На тех первых репетициях мы сделали несколько каверов Allman Brothers, и это сильно повлияло на наше творчество.

Рей Баррикмен, Джей и я все вместе учились в одной и той же средней школе, и у нас была группа под названием The Specters. Та группа позже стала вторым поколением The Oxfords. Рей и я однажды написали совместную песню, с которой выступили на старшем собрании. Это был, предположительно, трибьют нашему "замечательному" опыту средней школы. Вместо этого, это было сильным ударом по руководителю и штату школы, воспоминания о курении в комнате для мальчиков, о прогулах и отращивании длинных волос.
Мы практически были отчислены за ту песню о "нашем прошлом". Во время этих записей Рей был также певцом в The Oxfords на одном сингле, который был превосходным дополнением к LMB. Пол Хоерни был барабанщиком для третьего поколения The Oxfords с Джеем, когда они сделали большую часть своих записей. Он также был ударником в нескольких выдающихся группах города и играл почти как Бутч Тракс из The Allman Joys. Джей и я проводили время с Бутчем в клубе Changes Unlimited, когда он давал концерты со своей группой, The Tiffany System, прежде, чем он стал участником ABB. Мы оба заметили их общие черты и талант.

Таким образом, Пол присоединился к группе, и мы начали играть впятером. The Windmill Club в Луисвилле стал нашей базой, чтобы выработать наши идеи и The Belle Starr Saloon в Буффало, Нью-Йорк, стал нашим вторым домом. Мы играли в клубах, на севере (Бостон), на западе (Сент-Луис), и на юге (Флориду). Много раз мы также получали возможность записываться на национальных студиях.
Leslie's Motel - Dirty Sheets (1972):

Leslie's Motel - Dirty Sheets (1972) [2009, Gear Fab Records, GF-235]

Tracklist:

01. Step Down Baby 03:40
02. Interlude 00:32
03. My Sweet Woman 05:45
04. Blister 07:48
05. Reason Why 04:19
06. Windmills 04:28
07. Latino Motel 08:52
08. Movin' Rock & Roll 03:18
09. Dirty Sheets (Live at the Morefill South) 05:30

Musicians:

Bill Tullis - lead vocals, rhythm guitar, tambourine
Mike Seibold - lead guitar, vocals
Richard Bush - Hammond C3 organ, Fender Rhodes piano
Ray Barrickman - bass, vocals
Paul Hoerni - drums
Roy Blumenfeld - drums, congas, hand clapping

Exact Audio Copy V0.99 prebeta 4 from 23. January 2008

EAC extraction logfile from 27. April 2013, 3:58

Leslie's Motel / Dirty Sheets

Used drive : HL-DT-STDVD-RAM GSA-H58N Adapter: 0 ID: 0

Read mode : Secure
Utilize accurate stream : Yes
Defeat audio cache : Yes
Make use of C2 pointers : No

Read offset correction : 102
Overread into Lead-In and Lead-Out : No
Fill up missing offset samples with silence : Yes
Delete leading and trailing silent blocks : No
Null samples used in CRC calculations : Yes
Used interface : Installed external ASPI interface
Gap handling : Appended to previous track

Used output format : User Defined Encoder
Selected bitrate : 1024 kBit/s
Quality : High
Add ID3 tag : No
Command line compressor : C:\Arquivos de programas\Exact Audio Copy\Flac\flac.exe
Additional command line options : -8 -A tukey(0.25) -A gauss(0.1875) -b 4096 -V -T "artist=%a" -T "title=%t" -T "album=%g" -T "date=%y" -T "tracknumber=%n" -T "genre=%m" %s –sector-align


TOC of the extracted CD

Track | Start | Length | Start sector | End sector
––––––––––––––––––––––––––––-
1 | 0:00.00 | 3:40.16 | 0 | 16515
2 | 3:40.16 | 0:32.49 | 16516 | 18964
3 | 4:12.65 | 5:45.43 | 18965 | 44882
4 | 9:58.33 | 7:48.45 | 44883 | 80027
5 | 17:47.03 | 4:19.05 | 80028 | 99457
6 | 22:06.08 | 4:28.32 | 99458 | 119589
7 | 26:34.40 | 8:52.26 | 119590 | 159515
8 | 35:26.66 | 3:18.16 | 159516 | 174381
9 | 38:45.07 | 5:30.00 | 174382 | 199131
10 | 46:47.07 | 4:06.44 | 210532 | 229025


Track 1

Filename C:\Documents and Settings\Nelson\Meus documentos\My EAC\01 - Leslie's Motel - Step Down Baby.wav

Pre-gap length 0:00:02.00

Peak level 100.0 %
Track quality 99.9 %
Test CRC 188DAFF8
Copy CRC 188DAFF8
Copy OK

Track 2

Filename C:\Documents and Settings\Nelson\Meus documentos\My EAC\02 - Leslie's Motel - Interlude.wav

Pre-gap length 0:00:02.00

Peak level 100.0 %
Track quality 100.0 %
Test CRC FA1CCF26
Copy CRC FA1CCF26
Copy OK

Track 3

Filename C:\Documents and Settings\Nelson\Meus documentos\My EAC\03 - Leslie's Motel - My Sweet Woman.wav

Peak level 100.0 %
Track quality 100.0 %
Test CRC 574E43BC
Copy CRC 574E43BC
Copy OK

Track 4

Filename C:\Documents and Settings\Nelson\Meus documentos\My EAC\04 - Leslie's Motel - Blister.wav

Pre-gap length 0:00:02.00

Peak level 100.0 %
Track quality 100.0 %
Test CRC 5221A969
Copy CRC 5221A969
Copy OK

Track 5

Filename C:\Documents and Settings\Nelson\Meus documentos\My EAC\05 - Leslie's Motel - Reason Why.wav

Pre-gap length 0:00:02.00

Peak level 100.0 %
Track quality 100.0 %
Test CRC 4EB76999
Copy CRC 4EB76999
Copy OK

Track 6

Filename C:\Documents and Settings\Nelson\Meus documentos\My EAC\06 - Leslie's Motel - Windmills.wav

Pre-gap length 0:00:02.00

Peak level 100.0 %
Track quality 100.0 %
Test CRC 90CDBC15
Copy CRC 90CDBC15
Copy OK

Track 7

Filename C:\Documents and Settings\Nelson\Meus documentos\My EAC\07 - Leslie's Motel - Latino Motel.wav

Pre-gap length 0:00:02.00

Peak level 100.0 %
Track quality 100.0 %
Test CRC 5A29FFB1
Copy CRC 5A29FFB1
Copy OK

Track 8

Filename C:\Documents and Settings\Nelson\Meus documentos\My EAC\08 - Leslie's Motel - Movin' Rock & Roll.wav

Pre-gap length 0:00:02.00

Peak level 100.0 %
Track quality 99.9 %
Test CRC CAF2FA3B
Copy CRC CAF2FA3B
Copy OK

Track 9

Filename C:\Documents and Settings\Nelson\Meus documentos\My EAC\09 - Leslie's Motel - Dirty Sheets (Live at the Morefill South).wav

Pre-gap length 0:00:02.00

Peak level 100.0 %
Track quality 100.0 %
Test CRC 653FD5FE
Copy CRC 653FD5FE
Copy OK

No errors occurred

End of status report

foobar2000 1.2.4 / Dynamic Range Meter 1.1.1
log date: 2013-05-03 21:25:45

––––––––––––––––––––––––––––––––––––––––
Analyzed: Leslie's Motel / Dirty Sheets
––––––––––––––––––––––––––––––––––––––––

DR Peak RMS Duration Track
––––––––––––––––––––––––––––––––––––––––
DR7 0.00 dB -8.42 dB 3:40 01-Step Down Baby
DR12 0.00 dB -13.23 dB 0:33 02-Interlude
DR8 0.00 dB -9.82 dB 5:46 03-My Sweet Woman
DR8 0.00 dB -10.55 dB 7:49 04-Blister
DR8 0.00 dB -9.22 dB 4:19 05-Reason Why
DR9 0.00 dB -10.26 dB 4:28 06-Windmills
DR9 0.00 dB -12.39 dB 8:52 07-Latino Motel
DR9 0.00 dB -9.94 dB 3:18 08-Movin' Rock & Roll
DR6 0.00 dB -7.64 dB 5:30 09-Dirty Sheets (Live at the Morefill South)
––––––––––––––––––––––––––––––––––––––––

Number of tracks: 9
Official DR value: DR8

Samplerate: 44100 Hz
Channels: 2
Bits per sample: 16
Bitrate: 1066 kbps
Codec: FLAC

Leslie's Motel - Dirty Sheets (1972) [2009, Gear Fab Records, GF-235]

All thanks go to Nelson

Download Leslie's Motel - Dirty Sheets (1972):