Subcategories

Level 42 - 14. Rockpalast Nacht 1984 (2017) [HDTV, 720p]

Posted By: v3122
Level 42 - 14. Rockpalast Nacht 1984 (2017) [HDTV, 720p]

Level 42 - 14. Rockpalast Nacht 1984 (2017)
TS: Mpeg-4 AVC, 1280x720, 11500 kbps, 50 fps
AC3, 448 kbps, 48 kHz, stereo / MP2, 192 kbps, 48 kHz, stereo
Jazz-funk / Dance-rock/ New wave / Synthpop | 01:19:31 | ~ 7.60 Gb

~ Level 42 Live at Grugahalle, Essen, Germany on October 13, 1984. True Colours Tour ~

Level 42 - 14. Rockpalast Nacht 1984 (2017):

Tracklist:

Almost There
Turn It On
The Chant Has Begun
Mr. Pink
I Want Eyes
Kansas City Milkman
The Pursuit Of Accidents
Kouyate (There Is A Secret Between Us)
The Chinese Way
The Sun Goes Down (Living It Up)
Hot Water
Love Games

General
ID : 1 (0x1)
Complete name : G:\UP\Mix\Level 42. 14. Rockpalast Nacht 1984\Level 42. 14. Rockpalast Nacht 1984.ts
Format : MPEG-TS
File size : 7.20 GiB
Duration : 1h 19mn
Overall bit rate mode : Variable
Overall bit rate : 13.0 Mbps

Video
ID : 5331 (0x14D3)
Menu ID : 10352 (0x2870)
Format : AVC
Format/Info : Advanced Video Codec
Format profile : High@L4.0
Format settings, CABAC : Yes
Format settings, ReFrames : 4 frames
Codec ID : 27
Duration : 1h 19mn
Bit rate : 11.5 Mbps
Width : 1 280 pixels
Height : 720 pixels
Display aspect ratio : 16:9
Frame rate : 50.000 fps
Color space : YUV
Chroma subsampling : 4:2:0
Bit depth : 8 bits
Scan type : Progressive
Bits/(Pixel*Frame) : 0.249
Stream size : 6.38 GiB (89%)

Audio #1
ID : 5332 (0x14D4)
Menu ID : 10352 (0x2870)
Format : AC-3
Format/Info : Audio Coding 3
Mode extension : CM (complete main)
Format settings, Endianness : Big
Codec ID : 6
Duration : 1h 19mn
Bit rate mode : Constant
Bit rate : 448 Kbps
Channel(s) : 2 channels
Channel positions : Front: L R
Sampling rate : 48.0 KHz
Bit depth : 16 bits
Compression mode : Lossy
Delay relative to video : -100ms
Stream size : 255 MiB (3%)
Language : German

Audio #2
ID : 5333 (0x14D5)
Menu ID : 10352 (0x2870)
Format : MPEG Audio
Format version : Version 1
Format profile : Layer 2
Codec ID : 3
Duration : 1h 19mn
Bit rate mode : Constant
Bit rate : 192 Kbps
Channel(s) : 2 channels
Sampling rate : 48.0 KHz
Compression mode : Lossy
Delay relative to video : -100ms
Stream size : 109 MiB (1%)
Language : German

Audio #3
ID : 5334 (0x14D6)
Menu ID : 10352 (0x2870)
Format : MPEG Audio
Format version : Version 1
Format profile : Layer 2
Codec ID : 3
Duration : 1h 19mn
Bit rate mode : Constant
Bit rate : 192 Kbps
Channel(s) : 2 channels
Sampling rate : 48.0 KHz
Compression mode : Lossy
Delay relative to video : -100ms
Stream size : 109 MiB (1%)

Text
ID : 5335 (0x14D7)-100
Menu ID : 10352 (0x2870)
Format : Teletext
Language : German

Menu
ID : 5320 (0x14C8)
Menu ID : 10352 (0x2870)
Duration : 1h 19mn
List : 5331 (0x14D3) (AVC) / 5332 (0x14D4) (AC-3, German) / 5333 (0x14D5) (MPEG Audio, German) / 5334 (0x14D6) (MPEG Audio) / 5335 (0x14D7) ()
Language : / German / German



Level 42 - 14. Rockpalast Nacht 1984 (2017) [HDTV, 720p]

Level 42 - 14. Rockpalast Nacht 1984 (2017) [HDTV, 720p]

Level 42 - 14. Rockpalast Nacht 1984 (2017) [HDTV, 720p]

Level 42 - 14. Rockpalast Nacht 1984 (2017) [HDTV, 720p]

All thanks go to Verue

Level 42 in my Blog

Download Level 42 - 14. Rockpalast Nacht 1984 (2017):