Subcategories

Level 42 - Live At The Apollo, London (2005)

Posted By: popsakov
Level 42 - Live At The Apollo, London (2005)

Level 42 - Live At The Apollo, London (2005)
2CD | EAC Rip | FLAC (Img) + Cue + Log ~ 576 Mb | MP3 CBR320 ~ 204 Mb
Scans (JPG, 600 dpi) ~ 84 Mb | RAR 5% Recovery
Contemporary Pop/Rock, New Wave, Jazz-Funk, Dance-Rock, Jazz Fusion | Iceni #ICNCD2001

Recorded on the final night of their tour at the Hammersmith Apollo in 2003, this special 16 track live package from the Jazz-funk legends Level 42 is packed with classics. The band are at their brilliant best performing hits including 'Lessons in Love' and 'Something About You' that have underlined the reasons why the group have always been at the very top level of modern day music.

Manchester band whose blend of smooth jazz, sophisticated pop, and funk topped the British charts during the 1980s and '90s. At the beginning of their career, Level 42 was squarely a jazz-funk fusion band, contemporaries of fellow Brit funk groups like Atmosfear, Light of the World, Incognito, and Beggar & Co. By the end of the '80s, however, the band – whose music was instantly recognizable from Mark King's thumb-slap bass technique and associate member Wally Badarou's synthesizer flourishes – had crossed over to the point where they were often classified as sophisti-pop and dance-rock, equally likely to be placed in the context of Sade and the Style Council as any group that made polished, upbeat, danceable pop/rock.

***************

Level 42 - Live At The Apollo, London (2005)

Level 42 - Live At The Apollo, London (2005)

Track List CD1:

01. Heaven In My hands [0:05:19.30]
02. To Be With You Again [0:05:41.51]
03. Love Meeting Love [0:06:40.15]
04. Micro Kid [0:04:58.16]
05. Follow Me [0:04:29.41]
06. Leaving Me Now [0:05:52.42]
07. World Machine [0:05:32.55]
08. A Physical Presence [0:06:11.47]

Exact Audio Copy V1.3 from 2. September 2016

EAC extraction logfile from 28. April 2017, 22:41

Level 42 / Live at The Apollo, London (CD1)

Used drive : PLEXTOR DVDR PX-716A Adapter: 1 ID: 0

Read mode : Secure
Utilize accurate stream : Yes
Defeat audio cache : Yes
Make use of C2 pointers : No

Read offset correction : 30
Overread into Lead-In and Lead-Out : No
Fill up missing offset samples with silence : Yes
Delete leading and trailing silent blocks : No
Null samples used in CRC calculations : Yes
Used interface : Native Win32 interface for Win NT & 2000

Used output format : User Defined Encoder
Selected bitrate : 1024 kBit/s
Quality : High
Add ID3 tag : No
Command line compressor : C:\Program Files (x86)\Exact Audio Copy\FLAC\FLAC.EXE
Additional command line options : -6 -V -T "ARTIST=%artist%" -T "TITLE=%title%" -T "ALBUM=%albumtitle%" -T "DATE=%year%" -T "TRACKNUMBER=%tracknr%" -T "GENRE=%genre%" -T "COMMENT=%comment%" -T "BAND=%albuminterpret%" -T "ALBUMARTIST=%albuminterpret%" -T "COMPOSER=%composer%" %haslyrics%–tag-from-file=LYRICS="%lyricsfile%"%haslyrics% -T "DISCNUMBER=%cdnumber%" -T "TOTALDISCS=%totalcds%" -T "TOTALTRACKS=%numtracks%" %hascover%–picture="%coverfile%"%hascover% %source% -o %dest%


TOC of the extracted CD

Track | Start | Length | Start sector | End sector
––––––––––––––––––––––––––––-
1 | 0:00.00 | 5:19.30 | 0 | 23954
2 | 5:19.30 | 5:41.51 | 23955 | 49580
3 | 11:01.06 | 6:40.15 | 49581 | 79595
4 | 17:41.21 | 4:58.16 | 79596 | 101961
5 | 22:39.37 | 4:29.41 | 101962 | 122177
6 | 27:09.03 | 5:52.42 | 122178 | 148619
7 | 33:01.45 | 5:32.55 | 148620 | 173574
8 | 38:34.25 | 6:11.47 | 173575 | 201446


Range status and errors

Selected range

Filename C:\mm\Level42\2005 - Live At The Apollo, London [ICNCD2001]\Level 42 - Live at The Apollo, London (CD1).wav

Peak level 100.0 %
Extraction speed 12.1 X
Range quality 100.0 %
Test CRC 4638A197
Copy CRC 4638A197
Copy OK

No errors occurred


AccurateRip summary

Track 1 accurately ripped (confidence 5) [E5FD3364] (AR v2)
Track 2 accurately ripped (confidence 5) [F0D557DC] (AR v2)
Track 3 accurately ripped (confidence 5) [8B52303A] (AR v2)
Track 4 accurately ripped (confidence 5) [42317CC6] (AR v2)
Track 5 accurately ripped (confidence 5) [DE0EF57D] (AR v2)
Track 6 accurately ripped (confidence 5) [F0F50992] (AR v2)
Track 7 accurately ripped (confidence 5) [49C34469] (AR v2)
Track 8 accurately ripped (confidence 5) [F1CB2E17] (AR v2)

All tracks accurately ripped

End of status report

–– CUETools DB Plugin V2.1.6

[CTDB TOCID: r7GJ3HgtREsEjRVPYo1TsmA9kzk-] found
Submit result: r7GJ3HgtREsEjRVPYo1TsmA9kzk- has been confirmed
Track | CTDB Status
1 | (5/5) Accurately ripped
2 | (5/5) Accurately ripped
3 | (5/5) Accurately ripped
4 | (5/5) Accurately ripped
5 | (5/5) Accurately ripped
6 | (5/5) Accurately ripped
7 | (5/5) Accurately ripped
8 | (5/5) Accurately ripped

foobar2000 1.2.6 / Dynamic Range Meter 1.1.1
log date: 2017-04-29 22:35:54

––––––––––––––––––––––––––––––––––––––––
Analyzed: Level 42 / Live at The Apollo, London (CD1)
––––––––––––––––––––––––––––––––––––––––

DR Peak RMS Duration Track
––––––––––––––––––––––––––––––––––––––––
DR9 0.00 dB -10.25 dB 5:19 01-Heaven In My hands
DR8 0.00 dB -10.02 dB 5:42 02-To Be With You Again
DR10 0.00 dB -12.77 dB 6:40 03-Love Meeting Love
DR10 0.00 dB -11.51 dB 4:58 04-Micro Kid
DR10 0.00 dB -11.65 dB 4:30 05-Follow Me
DR9 0.00 dB -11.83 dB 5:53 06-Leaving Me Now
DR10 0.00 dB -11.62 dB 5:33 07-World Machine
DR10 0.00 dB -12.60 dB 6:12 08-A Physical Presence
––––––––––––––––––––––––––––––––––––––––

Number of tracks: 8
Official DR value: DR10

Samplerate: 44100 Hz
Channels: 2
Bits per sample: 16
Bitrate: 909 kbps
Codec: FLAC
================================================================================

[CUETools log; Date: 29.04.2017 22:36:01; Version: 2.1.5]
[CTDB TOCID: r7GJ3HgtREsEjRVPYo1TsmA9kzk-] found.
Track | CTDB Status
1 | (6/6) Accurately ripped
2 | (6/6) Accurately ripped
3 | (6/6) Accurately ripped
4 | (6/6) Accurately ripped
5 | (6/6) Accurately ripped
6 | (6/6) Accurately ripped
7 | (6/6) Accurately ripped
8 | (6/6) Accurately ripped
[AccurateRip ID: 000dbf32-005b8d07-580a7d08] found.
Track [ CRC | V2 ] Status
01 [e55dacec|e5fd3364] (2+5/7) Accurately ripped
02 [26f0e4e9|f0d557dc] (2+5/7) Accurately ripped
03 [447fa854|8b52303a] (2+5/7) Accurately ripped
04 [e2aca5eb|42317cc6] (2+5/7) Accurately ripped
05 [2c481d86|de0ef57d] (2+5/7) Accurately ripped
06 [82183cf0|f0f50992] (2+5/7) Accurately ripped
07 [271537d3|49c34469] (2+5/7) Accurately ripped
08 [d4fabea2|f1cb2e17] (2+5/7) Accurately ripped

Track Peak [ CRC32 ] [W/O NULL] [ LOG ]
– 100,0 [4638A197] [A584D690] CRC32
01 100,0 [234F3621] [6E99B6FE]
02 100,0 [361F8037] [B89DC574]
03 100,0 [8C3F1A4A] [AF1359E8]
04 100,0 [D4102809] [9267968D]
05 100,0 [499E05CD] [EC3E8B39]
06 100,0 [38E2CA3D] [349D5164]
07 100,0 [9A7023D7] [47C61008]
08 100,0 [E33B4299] [2D4947E8]

Level 42 - Live At The Apollo, London (2005)

Level 42 - Live At The Apollo, London (2005)

Track List CD2:

01. I Sleep On My Heart [0:04:21.70]
02. The Sun Goes Down [0:04:55.03]
03. Starchild [0:02:53.00]
04. Running In The Family [0:05:24.68]
05. Lessons In Love [0:04:31.62]
06. Something About You [0:05:19.23]
07. The Sunbed Song [0:07:31.36]
08. Hot Water [0:05:05.48]

Exact Audio Copy V1.3 from 2. September 2016

EAC extraction logfile from 28. April 2017, 22:53

Level 42 / Live at The Apollo, London (CD2)

Used drive : PLEXTOR DVDR PX-716A Adapter: 1 ID: 0

Read mode : Secure
Utilize accurate stream : Yes
Defeat audio cache : Yes
Make use of C2 pointers : No

Read offset correction : 30
Overread into Lead-In and Lead-Out : No
Fill up missing offset samples with silence : Yes
Delete leading and trailing silent blocks : No
Null samples used in CRC calculations : Yes
Used interface : Native Win32 interface for Win NT & 2000

Used output format : User Defined Encoder
Selected bitrate : 1024 kBit/s
Quality : High
Add ID3 tag : No
Command line compressor : C:\Program Files (x86)\Exact Audio Copy\FLAC\FLAC.EXE
Additional command line options : -6 -V -T "ARTIST=%artist%" -T "TITLE=%title%" -T "ALBUM=%albumtitle%" -T "DATE=%year%" -T "TRACKNUMBER=%tracknr%" -T "GENRE=%genre%" -T "COMMENT=%comment%" -T "BAND=%albuminterpret%" -T "ALBUMARTIST=%albuminterpret%" -T "COMPOSER=%composer%" %haslyrics%–tag-from-file=LYRICS="%lyricsfile%"%haslyrics% -T "DISCNUMBER=%cdnumber%" -T "TOTALDISCS=%totalcds%" -T "TOTALTRACKS=%numtracks%" %hascover%–picture="%coverfile%"%hascover% %source% -o %dest%


TOC of the extracted CD

Track | Start | Length | Start sector | End sector
––––––––––––––––––––––––––––-
1 | 0:00.00 | 4:21.70 | 0 | 19644
2 | 4:21.70 | 4:55.03 | 19645 | 41772
3 | 9:16.73 | 2:53.00 | 41773 | 54747
4 | 12:09.73 | 5:24.68 | 54748 | 79115
5 | 17:34.66 | 4:31.62 | 79116 | 99502
6 | 22:06.53 | 5:19.23 | 99503 | 123450
7 | 27:26.01 | 7:31.36 | 123451 | 157311
8 | 34:57.37 | 5:05.48 | 157312 | 180234


Range status and errors

Selected range

Filename C:\mm\Level42\2005 - Live At The Apollo, London [ICNCD2001]\Level 42 - Live at The Apollo, London (CD2).wav

Peak level 100.0 %
Extraction speed 11.7 X
Range quality 100.0 %
Test CRC 88F42EFD
Copy CRC 88F42EFD
Copy OK

No errors occurred


AccurateRip summary

Track 1 accurately ripped (confidence 5) [E0D6144C] (AR v2)
Track 2 accurately ripped (confidence 5) [080B36B1] (AR v2)
Track 3 accurately ripped (confidence 5) [4DCFBD14] (AR v2)
Track 4 accurately ripped (confidence 5) [6E0D2D8C] (AR v2)
Track 5 accurately ripped (confidence 5) [6A98235C] (AR v2)
Track 6 accurately ripped (confidence 5) [C6A23E44] (AR v2)
Track 7 accurately ripped (confidence 5) [991E6668] (AR v2)
Track 8 accurately ripped (confidence 5) [D35C8EEE] (AR v2)

All tracks accurately ripped

End of status report

–– CUETools DB Plugin V2.1.6

[CTDB TOCID: IGVsD_2aEEdoZUZ_ik92y4oQceg-] found
Submit result: IGVsD_2aEEdoZUZ_ik92y4oQceg- has been confirmed
Track | CTDB Status
1 | (5/5) Accurately ripped
2 | (5/5) Accurately ripped
3 | (5/5) Accurately ripped
4 | (5/5) Accurately ripped
5 | (5/5) Accurately ripped
6 | (5/5) Accurately ripped
7 | (5/5) Accurately ripped
8 | (5/5) Accurately ripped

foobar2000 1.2.6 / Dynamic Range Meter 1.1.1
log date: 2017-04-29 22:36:57

––––––––––––––––––––––––––––––––––––––––
Analyzed: Level 42 / Live at The Apollo, London (CD2)
––––––––––––––––––––––––––––––––––––––––

DR Peak RMS Duration Track
––––––––––––––––––––––––––––––––––––––––
DR13 -1.16 dB -15.28 dB 4:22 01-I Sleep On My Heart
DR9 0.00 dB -11.79 dB 4:55 02-The Sun Goes Down
DR11 0.00 dB -12.67 dB 2:53 03-Starchild
DR9 0.00 dB -11.22 dB 5:25 04-Running In The Family
DR10 0.00 dB -11.77 dB 4:32 05-Lessons In Love
DR9 0.00 dB -11.08 dB 5:19 06-Something About You
DR9 0.00 dB -11.88 dB 7:31 07-The Sunbed Song
DR12 -0.88 dB -14.90 dB 5:06 08-Hot Water
––––––––––––––––––––––––––––––––––––––––

Number of tracks: 8
Official DR value: DR10

Samplerate: 44100 Hz
Channels: 2
Bits per sample: 16
Bitrate: 898 kbps
Codec: FLAC
================================================================================

[CUETools log; Date: 29.04.2017 22:36:57; Version: 2.1.5]
[CTDB TOCID: IGVsD_2aEEdoZUZ_ik92y4oQceg-] found.
Track | CTDB Status
1 | (6/6) Accurately ripped
2 | (6/6) Accurately ripped
3 | (6/6) Accurately ripped
4 | (6/6) Accurately ripped
5 | (6/6) Accurately ripped
6 | (6/6) Accurately ripped
7 | (6/6) Accurately ripped
8 | (6/6) Accurately ripped
[AccurateRip ID: 000b8847-004e23c8-6b096308] found.
Track [ CRC | V2 ] Status
01 [71f43aa8|e0d6144c] (2+5/7) Accurately ripped
02 [cd95f387|080b36b1] (2+5/7) Accurately ripped
03 [62a1d66a|4dcfbd14] (2+5/7) Accurately ripped
04 [e8371505|6e0d2d8c] (2+5/7) Accurately ripped
05 [27c82b97|6a98235c] (2+5/7) Accurately ripped
06 [5777d414|c6a23e44] (2+5/7) Accurately ripped
07 [272b6cb9|991e6668] (2+5/7) Accurately ripped
08 [0b91daaf|d35c8eee] (2+5/7) Accurately ripped

Track Peak [ CRC32 ] [W/O NULL] [ LOG ]
– 100,0 [88F42EFD] [E4E8983F] CRC32
01 87,5 [569E3F40] [2BD2CD6A]
02 100,0 [E7BFC5D4] [7B196286]
03 99,9 [8D6233FB] [D88D736C]
04 100,0 [8840EF80] [FEC840BA]
05 100,0 [35785DF1] [B0E204D1]
06 100,0 [9EC742C5] [B03521B4]
07 100,0 [6B552E03] [97302331]
08 90,3 [07EE42E8] [FD0AD7C3]

Level 42 - Live At The Apollo, London (2005)

See also:
Level 42 - Guaranteed (1991) {2009, Reissue, Deluxe Edition}
Level 42 - Running In The Family (2006)

All thanks go to sergych

>>> My Blog <<<