Subcategories

Level 42 - Running In The Family (2006)

Posted By: popsakov
Level 42 - Running In The Family (2006)

Level 42 - Running In The Family (2006)
2CD | EAC Rip | FLAC (Img) + Cue + Log ~ 919 Mb | MP3 CBR320 ~ 328 Mb
Scans (JPG, 600 dpi) ~ 56 Mb | RAR 5% Recovery
Jazz-Funk, Funk, Soul, Pop, Synth-Pop, Pop Rock | Compilation | Weton-Wesgram / Black Box #8717423030294 / BB2188

Manchester band whose blend of smooth jazz, sophisticated pop, and funk topped the British charts during the 1980s and '90s. At the beginning of their career, Level 42 was squarely a jazz-funk fusion band, contemporaries of fellow Brit funk groups like Atmosfear, Light of the World, Incognito, and Beggar & Co. By the end of the '80s, however, the band – whose music was instantly recognizable from Mark King's thumb-slap bass technique and associate member Wally Badarou's synthesizer flourishes – had crossed over to the point where they were often classified as sophisti-pop and dance-rock, equally likely to be placed in the context of Sade and the Style Council as any group that made polished, upbeat, danceable pop/rock. The band's commercial peak came with 1985's World Machine, but they continued to record and tour sporadically throughout the '90s and 2000s.
~ All Music

Level 42 - Running In The Family (2006)


***************

Level 42 - Running In The Family (2006)

Level 42 - Running In The Family (2006)

Track List CD1:

01. Running In The Family [0:05:25.31]
02. Lessons In Love [0:04:30.16]
03. Something About You [0:05:15.01]
04. Heaven In My hands [0:05:19.31]
05. Starchild [0:02:52.47]
06. Mr. Pink [0:04:55.52]
07. To Be With You Again [0:05:35.57]
08. World Machine [0:05:23.27]
09. Follow Me [0:04:27.59]
10. Physical Presence [0:06:08.10]
11. The Microkid [0:04:55.62]
12. Love Meating Love [0:06:32.67]
13. Laeving Me Now [0:05:52.02]

Exact Audio Copy V1.2 from 12. August 2016

EAC extraction logfile from 2. October 2016, 15:52

Level 42 / Running In The Family (CD1)

Used drive : PLEXTOR DVDR PX-716A Adapter: 1 ID: 0

Read mode : Secure
Utilize accurate stream : Yes
Defeat audio cache : Yes
Make use of C2 pointers : No

Read offset correction : 30
Overread into Lead-In and Lead-Out : No
Fill up missing offset samples with silence : Yes
Delete leading and trailing silent blocks : No
Null samples used in CRC calculations : Yes
Used interface : Native Win32 interface for Win NT & 2000

Used output format : User Defined Encoder
Selected bitrate : 1024 kBit/s
Quality : High
Add ID3 tag : No
Command line compressor : C:\Program Files (x86)\Exact Audio Copy\FLAC\FLAC.EXE
Additional command line options : -6 -V -T "ARTIST=%artist%" -T "TITLE=%title%" -T "ALBUM=%albumtitle%" -T "DATE=%year%" -T "TRACKNUMBER=%tracknr%" -T "GENRE=%genre%" -T "COMMENT=%comment%" -T "BAND=%albuminterpret%" -T "ALBUMARTIST=%albuminterpret%" -T "COMPOSER=%composer%" %haslyrics%–tag-from-file=LYRICS="%lyricsfile%"%haslyrics% -T "DISCNUMBER=%cdnumber%" -T "TOTALDISCS=%totalcds%" -T "TOTALTRACKS=%numtracks%" %hascover%–picture="%coverfile%"%hascover% %source% -o %dest%


TOC of the extracted CD

Track | Start | Length | Start sector | End sector
––––––––––––––––––––––––––––-
1 | 0:00.00 | 5:25.31 | 0 | 24405
2 | 5:25.31 | 4:30.16 | 24406 | 44671
3 | 9:55.47 | 5:15.01 | 44672 | 68297
4 | 15:10.48 | 5:19.31 | 68298 | 92253
5 | 20:30.04 | 2:52.47 | 92254 | 105200
6 | 23:22.51 | 4:55.52 | 105201 | 127377
7 | 28:18.28 | 5:35.57 | 127378 | 152559
8 | 33:54.10 | 5:23.27 | 152560 | 176811
9 | 39:17.37 | 4:27.59 | 176812 | 196895
10 | 43:45.21 | 6:08.10 | 196896 | 224505
11 | 49:53.31 | 4:55.62 | 224506 | 246692
12 | 54:49.18 | 6:32.67 | 246693 | 276159
13 | 61:22.10 | 5:52.02 | 276160 | 302561


Range status and errors

Selected range

Filename C:\mm\Level42\2006 - Running In The Family [8717423030294]\Level 42 - Running In The Family (CD1).wav

Peak level 100.0 %
Extraction speed 3.7 X
Range quality 99.9 %
Test CRC 877B58B0
Copy CRC 877B58B0
Copy OK

No errors occurred


AccurateRip summary

Track 1 accurately ripped (confidence 3) [5CD81919] (AR v2)
Track 2 accurately ripped (confidence 3) [CF7F20A3] (AR v2)
Track 3 accurately ripped (confidence 3) [F4C0E0A2] (AR v2)
Track 4 accurately ripped (confidence 3) [789201CF] (AR v2)
Track 5 accurately ripped (confidence 3) [DEA20F26] (AR v2)
Track 6 accurately ripped (confidence 3) [F735F9D5] (AR v2)
Track 7 accurately ripped (confidence 3) [934A1A70] (AR v2)
Track 8 accurately ripped (confidence 3) [22FDCCE3] (AR v2)
Track 9 accurately ripped (confidence 2) [64ADFCF7] (AR v2)
Track 10 accurately ripped (confidence 3) [22B31E1E] (AR v2)
Track 11 accurately ripped (confidence 3) [9EE39014] (AR v2)
Track 12 accurately ripped (confidence 3) [AF278426] (AR v2)
Track 13 accurately ripped (confidence 3) [0B30F1C5] (AR v2)

All tracks accurately ripped

End of status report

–– CUETools DB Plugin V2.1.6

[CTDB TOCID: tYcLI7_h4Nn5krd5xmvLyfUrZ6U-] found
Submit result: tYcLI7_h4Nn5krd5xmvLyfUrZ6U- has been confirmed
Track | CTDB Status
1 | (3/3) Accurately ripped
2 | (3/3) Accurately ripped
3 | (3/3) Accurately ripped
4 | (3/3) Accurately ripped
5 | (3/3) Accurately ripped
6 | (3/3) Accurately ripped
7 | (3/3) Accurately ripped
8 | (3/3) Accurately ripped
9 | (3/3) Accurately ripped
10 | (3/3) Accurately ripped
11 | (3/3) Accurately ripped
12 | (3/3) Accurately ripped
13 | (3/3) Accurately ripped

foobar2000 1.2.6 / Dynamic Range Meter 1.1.1
log date: 2016-10-03 16:15:53

––––––––––––––––––––––––––––––––––––––––
Analyzed: Level 42 / Running In The Family (CD1)
––––––––––––––––––––––––––––––––––––––––

DR Peak RMS Duration Track
––––––––––––––––––––––––––––––––––––––––
DR9 -0.30 dB -11.46 dB 5:25 01-Running In The Family
DR10 -0.30 dB -12.00 dB 4:30 02-Lessons In Love
DR9 0.00 dB -11.39 dB 5:15 03-Something About You
DR9 -0.30 dB -10.50 dB 5:19 04-Heaven In My hands
DR10 -0.30 dB -12.93 dB 2:53 05-Starchild
DR13 -0.30 dB -14.64 dB 4:56 06-Mr. Pink
DR8 -0.30 dB -10.21 dB 5:36 07-To Be With You Again
DR10 0.00 dB -11.29 dB 5:23 08-World Machine
DR10 -0.30 dB -11.89 dB 4:28 09-Follow Me
DR10 -0.30 dB -12.81 dB 6:08 10-Physical Presence
DR10 -0.30 dB -11.72 dB 4:56 11-The Microkid
DR10 -0.30 dB -12.86 dB 6:33 12-Love Meating Love
DR9 -0.30 dB -12.07 dB 5:52 13-Laeving Me Now
––––––––––––––––––––––––––––––––––––––––

Number of tracks: 13
Official DR value: DR10

Samplerate: 44100 Hz
Channels: 2
Bits per sample: 16
Bitrate: 919 kbps
Codec: FLAC
================================================================================

[CUETools log; Date: 03.10.2016 16:15:47; Version: 2.1.5]
[CTDB TOCID: tYcLI7_h4Nn5krd5xmvLyfUrZ6U-] found.
Track | CTDB Status
1 | (4/4) Accurately ripped
2 | (4/4) Accurately ripped
3 | (4/4) Accurately ripped
4 | (4/4) Accurately ripped
5 | (4/4) Accurately ripped
6 | (4/4) Accurately ripped
7 | (4/4) Accurately ripped
8 | (4/4) Accurately ripped
9 | (4/4) Accurately ripped
10 | (4/4) Accurately ripped
11 | (4/4) Accurately ripped
12 | (4/4) Accurately ripped
13 | (4/4) Accurately ripped
[AccurateRip ID: 001f1a7e-01387331-b40fc20d] found.
Track [ CRC | V2 ] Status
01 [61aba15d|5cd81919] (3+3/6) Accurately ripped
02 [3fb5607e|cf7f20a3] (2+3/5) Accurately ripped
03 [fc7ebb88|f4c0e0a2] (2+3/5) Accurately ripped
04 [36c45dd3|789201cf] (2+3/5) Accurately ripped
05 [5f4a3598|dea20f26] (2+3/5) Accurately ripped
06 [d2907e27|f735f9d5] (2+3/5) Accurately ripped
07 [f7cfc867|934a1a70] (2+3/5) Accurately ripped
08 [211aa12a|22fdcce3] (2+3/5) Accurately ripped
09 [27cefa4e|64adfcf7] (2+2/4) Accurately ripped
10 [844dc363|22b31e1e] (2+3/5) Accurately ripped
11 [ece0ab40|9ee39014] (2+3/5) Accurately ripped
12 [0011c67b|af278426] (2+3/5) Accurately ripped
13 [216511d6|0b30f1c5] (2+3/5) Accurately ripped

Track Peak [ CRC32 ] [W/O NULL] [ LOG ]
– 100,0 [877B58B0] [3508D045] CRC32
01 96,5 [24EC30D7] [90C5D73C]
02 96,5 [C6BF0A43] [8230D7D4]
03 100,0 [342F8AC8] [ED69CC6E]
04 96,5 [B252950D] [86CF41C7]
05 96,5 [E47927D1] [9B730A00]
06 96,5 [533334AD] [B2CEF719]
07 96,5 [A86C05AA] [3BDF81DD]
08 100,0 [7785AEBD] [283A7FE4]
09 96,5 [80433D11] [2BAD37FB]
10 96,5 [326B9EDA] [DE760C47]
11 96,6 [C84B81D0] [BA9CDE36]
12 96,5 [AE2E2B46] [93144D7E]
13 96,5 [54063A55] [AC10AB79]

Level 42 - Running In The Family (2006)

Level 42 - Running In The Family (2006)

Track List CD2:

01. Hot Water [0:04:43.44]
02. Love Games [0:06:19.56]
03. Sooner Or Later [0:04:29.45]
04. Why Are You Leaving [0:04:27.40]
05. Play Me [0:05:56.15]
06. You Can't Blame Louis [0:04:59.71]
07. I Want Eyes [0:04:49.16]
08. The Sunbed Song [0:06:10.55]
09. A Floating Life [0:05:02.70]
10. The Sleepwalkers [0:05:53.20]
11. The Sun Goes Down [0:05:03.33]
12. All Over You [0:04:10.08]
13. Foundations And Empire [0:06:51.36]

Exact Audio Copy V1.2 from 12. August 2016

EAC extraction logfile from 2. October 2016, 17:20

Level 42 / Running In The Family (CD2)

Used drive : PLEXTOR DVDR PX-716A Adapter: 1 ID: 0

Read mode : Secure
Utilize accurate stream : Yes
Defeat audio cache : Yes
Make use of C2 pointers : No

Read offset correction : 30
Overread into Lead-In and Lead-Out : No
Fill up missing offset samples with silence : Yes
Delete leading and trailing silent blocks : No
Null samples used in CRC calculations : Yes
Used interface : Native Win32 interface for Win NT & 2000

Used output format : User Defined Encoder
Selected bitrate : 1024 kBit/s
Quality : High
Add ID3 tag : No
Command line compressor : C:\Program Files (x86)\Exact Audio Copy\FLAC\FLAC.EXE
Additional command line options : -6 -V -T "ARTIST=%artist%" -T "TITLE=%title%" -T "ALBUM=%albumtitle%" -T "DATE=%year%" -T "TRACKNUMBER=%tracknr%" -T "GENRE=%genre%" -T "COMMENT=%comment%" -T "BAND=%albuminterpret%" -T "ALBUMARTIST=%albuminterpret%" -T "COMPOSER=%composer%" %haslyrics%–tag-from-file=LYRICS="%lyricsfile%"%haslyrics% -T "DISCNUMBER=%cdnumber%" -T "TOTALDISCS=%totalcds%" -T "TOTALTRACKS=%numtracks%" %hascover%–picture="%coverfile%"%hascover% %source% -o %dest%


TOC of the extracted CD

Track | Start | Length | Start sector | End sector
––––––––––––––––––––––––––––-
1 | 0:00.00 | 4:43.44 | 0 | 21268
2 | 4:43.44 | 6:19.56 | 21269 | 49749
3 | 11:03.25 | 4:29.45 | 49750 | 69969
4 | 15:32.70 | 4:27.40 | 69970 | 90034
5 | 20:00.35 | 5:56.15 | 90035 | 116749
6 | 25:56.50 | 4:59.71 | 116750 | 139245
7 | 30:56.46 | 4:49.16 | 139246 | 160936
8 | 35:45.62 | 6:10.55 | 160937 | 188741
9 | 41:56.42 | 5:02.70 | 188742 | 211461
10 | 46:59.37 | 5:53.20 | 211462 | 237956
11 | 52:52.57 | 5:03.33 | 237957 | 260714
12 | 57:56.15 | 4:10.08 | 260715 | 279472
13 | 62:06.23 | 6:51.36 | 279473 | 310333


Range status and errors

Selected range

Filename C:\mm\Level42\2006 - Running In The Family [8717423030294]\Level 42 - Running In The Family (CD2).wav

Peak level 96.6 %
Extraction speed 3.8 X
Range quality 100.0 %
Test CRC E96EDED5
Copy CRC E96EDED5
Copy OK

No errors occurred


AccurateRip summary

Track 1 accurately ripped (confidence 3) [7003ABB3] (AR v2)
Track 2 accurately ripped (confidence 3) [A88F4ADD] (AR v2)
Track 3 accurately ripped (confidence 3) [1371A8C3] (AR v2)
Track 4 accurately ripped (confidence 3) [01A29BC0] (AR v2)
Track 5 accurately ripped (confidence 3) [79C18161] (AR v2)
Track 6 accurately ripped (confidence 3) [A160F32A] (AR v2)
Track 7 accurately ripped (confidence 3) [8390E5A0] (AR v2)
Track 8 accurately ripped (confidence 3) [DF122510] (AR v2)
Track 9 accurately ripped (confidence 3) [2131F276] (AR v2)
Track 10 accurately ripped (confidence 3) [B02D4400] (AR v2)
Track 11 accurately ripped (confidence 3) [C3F8F236] (AR v2)
Track 12 accurately ripped (confidence 3) [039F71C7] (AR v2)
Track 13 accurately ripped (confidence 2) [1678032B] (AR v1)

All tracks accurately ripped

End of status report

–– CUETools DB Plugin V2.1.6

[CTDB TOCID: ZbTibxbod8hfycVgi7y_pwD51jk-] found
Submit result: ZbTibxbod8hfycVgi7y_pwD51jk- has been confirmed
Track | CTDB Status
1 | (2/2) Accurately ripped
2 | (2/2) Accurately ripped
3 | (2/2) Accurately ripped
4 | (2/2) Accurately ripped
5 | (2/2) Accurately ripped
6 | (2/2) Accurately ripped
7 | (2/2) Accurately ripped
8 | (2/2) Accurately ripped
9 | (2/2) Accurately ripped
10 | (2/2) Accurately ripped
11 | (2/2) Accurately ripped
12 | (2/2) Accurately ripped
13 | (2/2) Accurately ripped

foobar2000 1.2.6 / Dynamic Range Meter 1.1.1
log date: 2016-10-03 16:18:47

––––––––––––––––––––––––––––––––––––––––
Analyzed: Level 42 / Running In The Family (CD2)
––––––––––––––––––––––––––––––––––––––––

DR Peak RMS Duration Track
––––––––––––––––––––––––––––––––––––––––
DR12 -0.30 dB -13.94 dB 4:44 01-Hot Water
DR13 -0.30 dB -14.64 dB 6:20 02-Love Games
DR13 -0.30 dB -15.08 dB 4:30 03-Sooner Or Later
DR16 -0.34 dB -19.15 dB 4:28 04-Why Are You Leaving
DR13 -0.30 dB -15.06 dB 5:56 05-Play Me
DR14 -0.30 dB -15.38 dB 5:00 06-You Can't Blame Louis
DR14 -0.31 dB -17.09 dB 4:49 07-I Want Eyes
DR12 -0.30 dB -14.34 dB 6:11 08-The Sunbed Song
DR12 -0.30 dB -15.04 dB 5:03 09-A Floating Life
DR14 -0.30 dB -16.58 dB 5:53 10-The Sleepwalkers
DR13 -0.30 dB -14.94 dB 5:03 11-The Sun Goes Down
DR13 -0.30 dB -14.38 dB 4:10 12-All Over You
DR13 -0.30 dB -16.06 dB 6:51 13-Foundations And Empire
––––––––––––––––––––––––––––––––––––––––

Number of tracks: 13
Official DR value: DR13

Samplerate: 44100 Hz
Channels: 2
Bits per sample: 16
Bitrate: 878 kbps
Codec: FLAC
================================================================================

[CUETools log; Date: 03.10.2016 16:18:49; Version: 2.1.5]
[CTDB TOCID: ZbTibxbod8hfycVgi7y_pwD51jk-] found.
Track | CTDB Status
1 | (3/3) Accurately ripped
2 | (3/3) Accurately ripped
3 | (3/3) Accurately ripped
4 | (3/3) Accurately ripped
5 | (3/3) Accurately ripped
6 | (3/3) Accurately ripped
7 | (3/3) Accurately ripped
8 | (3/3) Accurately ripped
9 | (3/3) Accurately ripped
10 | (3/3) Accurately ripped
11 | (3/3) Accurately ripped
12 | (3/3) Accurately ripped
13 | (3/3) Accurately ripped
[AccurateRip ID: 00209a40-0146dee0-c410290d] found.
Track [ CRC | V2 ] Status
01 [963ceb6f|7003abb3] (2+3/5) Accurately ripped
02 [e0711cbd|a88f4add] (2+3/5) Accurately ripped
03 [2e40ecb9|1371a8c3] (2+3/5) Accurately ripped
04 [039445f9|01a29bc0] (2+3/5) Accurately ripped
05 [d462d476|79c18161] (2+3/5) Accurately ripped
06 [745415b7|a160f32a] (2+3/5) Accurately ripped
07 [d4e61c86|8390e5a0] (2+3/5) Accurately ripped
08 [190c8da2|df122510] (2+3/5) Accurately ripped
09 [9d0eaddc|2131f276] (2+3/5) Accurately ripped
10 [4138e1e1|b02d4400] (2+3/5) Accurately ripped
11 [4f0f96e4|c3f8f236] (2+3/5) Accurately ripped
12 [9ba4fe32|039f71c7] (2+3/5) Accurately ripped
13 [1678032b|bf089698] (2+0/2) Accurately ripped

Track Peak [ CRC32 ] [W/O NULL] [ LOG ]
– 96,6 [E96EDED5] [6A2302A9] CRC32
01 96,5 [32125AED] [7495D5FB]
02 96,5 [70F52269] [AE0440EE]
03 96,5 [A64A883F] [06BD3D67]
04 96,1 [EC00D3CE] [027531EC]
05 96,5 [F646E122] [0F68726C]
06 96,5 [43A5F84B] [81361785]
07 96,5 [B45D9ED5] [78FE938C]
08 96,5 [C89359CA] [D7B34F29]
09 96,5 [C8EC1ED2] [810D28DE]
10 96,5 [557BA3A5] [DF023532]
11 96,6 [77C533DA] [9814DDC2]
12 96,5 [B0EF931D] [84E8B77E]
13 96,5 [C79D06C2] [05903F52]

Level 42 - Running In The Family (2006)

See also:
Level 42 - Guaranteed (1991) {2009, Reissue, Deluxe Edition}

All thanks go to sergych

> Visit my blog <

Download: