Subcategories

Level 42 - World Machine (1985) 2CDs Deluxe Edition, Remastered 2007

Posted By: Designol
Level 42 - World Machine (1985) 2CDs Deluxe Edition, Remastered 2007

Level 42 - World Machine (1985) 2CDs Deluxe Edition, Remastered 2007
EAC | FLAC | Image (Cue&Log) ~ 767 Mb | Mp3 (CBR320) ~ 254 Mb | Scans ~ 128 Mb | 01:51:14
Pop/Rock, New Wave, Jazz-Funk, Sophisti-Pop | Label: Polydor | # 9843543

2007 digitally remastered and expanded two CD Deluxe Edition of the band's 1985 commercial breakthrough features a bonus disc. Level 42, led by bassist Mark King, began as a Jazz/Fusion/Pop band in the late '70s and slowly evolved into a Pop/Jazz band with shorter, catchier songs. They scored numerous hit singles in the UK and Europe during the early part of the '80s, but it wasn't until World Machine that they became chart-toppers and began to gain recognition in the U.S. Disc One contains the original album's 10 tracks which includes the band's worldwide hit 'Something About You'. Disc Two features an additional 11 tracks including three BBC recordings, five live performances and three remixes. 21 tracks total.

Level 42 was one of Britain's most successful bands by the time World Machine was released in 1985, but U.S. success was elusive. But that changed with the engaging single "Something About You," which became a Top Ten hit in America and sent this album soaring into the Top 20. World Machine pushes their newfound radio-friendly sound into the forefront, and the result is one of the finest pop albums of the mid-'80s. "Something About You" exemplifies Level 42's sound at the peak of its success. Bassist Mark King's vocals, while limited in range, are soulful and yearning, while keyboardist Mike Lindup's complimentary falsetto backing vocals add just the right ingredient to the mix. Given the group's original guise as an all-instrumental jazz combo, the musicianship is brilliant, and "Something About You" proves how good a song can sound coming from the radio. Unlike most albums that contain one strong single surrounded by duds, World Machine has more than its share of fine tunes. The jazzy, upbeat title track is one of the band's finest moments, the should've-been-a-hit "Leaving Me Now" is an effective ballad, and the midtempo "Good Man in a Storm" is catchy and thought-provoking. While not perfect – "Physical Presence" drags, and "It's Not the Same for Us" is a bit too cutesy for its own good – World Machine is the most successful album in Level 42's career, both in terms of sales and quality.

Review by William Cooper, Allmusic.com

Level 42 - World Machine (1985) 2CDs Deluxe Edition, Remastered 2007



Tracklist:

CD1:

01. World Machine (5:16)
02. Physical Presence (5:28)
03. Something About You (4:26)
04. Leaving Me Now (5:02)
05. I Sleep On My Heart (4:06)
06. It's Not The Same For Us (4:35)
07. Dream Crazy (3:52)
08. Good Man In A Storm (4:36)
09. Coup D'Etat (3:42)
10. Lying Still (5:42)

CD2:

01. World Machine (Live at Hammersmith Odeon - Feb 1986) (5:45)
02. Leaving Me Now (Live at Hammersmith Odeon) (5:32)
03. Something About You (Live at Hammersmith Odeon) (5:20)
04. Coup D'Etat (Backwards Mix) (4:03)
05. Something About You (Shep Pettibone Mix) (8:04)
06. I Sleep On My Heart (Live at Ryde Theatre, Isle Of Wight) (4:15)
07. Dream Crazy (Live at Ryde Theatre, Isle Of Wight) (4:19)
08. Lying Still (Live at Ryde Theatre,Isle Of Wight - Nov 2000) (5:42)
09. Physical Presence (Live at Hammersmith Apollo) (6:10)
10. Leaving Me Now (Live at Hammersmith Apollo) (5:50)
11. World Machine (Phunk Investigation Club Mix) (9:19)


Exact Audio Copy V1.0 beta 3 from 29. August 2011

Отчёт EAC об извлечении, выполненном 26. мая 2017, 9:35

Level 42 / World Machine (UK)

Дисковод: HL-DT-STDVDRAM GH24NSB0 Adapter: 0 ID: 0

Режим чтения : Достоверность
Использование точного потока : Да
Отключение кэша аудио : Да
Использование указателей C2 : Нет

Коррекция смещения при чтении : 6
Способность читать области Lead-in и Lead-out : Нет
Заполнение пропущенных сэмплов тишиной : Да
Удаление блоков с тишиной в начале и конце : Нет
При вычислениях CRC использовались нулевые сэмплы : Да
Интерфейс : Встроенный Win32-интерфейс для Win NT/2000

Выходной формат : Пользовательский кодировщик
Выбранный битрейт : 128 kBit/s
Качество : Высокий
Добавление ID3-тега : Нет
Утилита сжатия : C:\Program Files (x86)\Exact Audio Copy\Flac\flac.exe
Дополнительные параметры : -V -8 -T "Date=%year%" -T "Genre=%genre%" %source%


TOC извлечённого CD

Трек | Старт | Длительность | Начальный сектор | Конечный сектор
––––––––––––––––––––––––––––––––––-
1 | 0:00.00 | 5:16.56 | 0 | 23755
2 | 5:16.56 | 5:28.03 | 23756 | 48358
3 | 10:44.59 | 4:26.20 | 48359 | 68328
4 | 15:11.04 | 5:02.50 | 68329 | 91028
5 | 20:13.54 | 4:06.58 | 91029 | 109536
6 | 24:20.37 | 4:35.34 | 109537 | 130195
7 | 28:55.71 | 3:52.73 | 130196 | 147668
8 | 32:48.69 | 4:36.32 | 147669 | 168400
9 | 37:25.26 | 3:42.39 | 168401 | 185089
10 | 41:07.65 | 5:42.55 | 185090 | 210794


Характеристики диапазона извлечения и сообщения об ошибках

Выбранный диапазон

Имя файла C:\Users\blackriver\Desktop\1\Level 42 - World Machine (UK).wav

Пиковый уровень 99.4 %
Скорость извлечения 1.7 X
Качество диапазона 100.0 %
CRC теста A3B0FC5F
CRC копии A3B0FC5F
Копирование… OK

Ошибок не произошло


AccurateRip: сводка

Трек 1 : извлечено точно (доверие 13) [2A87DA2B] (AR v2)
Трек 2 : извлечено точно (доверие 13) [2261D0E6] (AR v2)
Трек 3 : извлечено точно (доверие 13) [8E7354A7] (AR v2)
Трек 4 : извлечено точно (доверие 13) [4D3B7B7C] (AR v2)
Трек 5 : извлечено точно (доверие 13) [7D5CA375] (AR v2)
Трек 6 : извлечено точно (доверие 13) [69C9F1E8] (AR v2)
Трек 7 : извлечено точно (доверие 13) [52E9586C] (AR v2)
Трек 8 : извлечено точно (доверие 13) [CA5A460B] (AR v2)
Трек 9 : извлечено точно (доверие 13) [DC43A366] (AR v2)
Трек 10 : извлечено точно (доверие 14) [6EED78CB] (AR v2)

Все треки извлечены точно

Конец отчёта

==== Контрольная сумма отчёта DAD140AA8E8CA9F10D35C86070F7B2C0CAC4D7ABCF0FAEA73332D1748B330DA9 ====

foobar2000 1.2 / Dynamic Range Meter 1.1.1
log date: 2017-05-27 01:23:28

––––––––––––––––––––––––––––––––––––––––
Analyzed: Level 42 / World Machine (UK)
––––––––––––––––––––––––––––––––––––––––

DR Peak RMS Duration Track
––––––––––––––––––––––––––––––––––––––––
DR7 -0.06 dB -8.71 dB 5:17 01-World Machine
DR7 -0.06 dB -8.95 dB 5:28 02-Physical Presence
DR9 -0.06 dB -10.64 dB 4:26 03-Something About You
DR9 -0.06 dB -11.22 dB 5:03 04-Leaving Me Now
DR9 -0.07 dB -11.01 dB 4:07 05-I Sleep On My Heart
DR10 -0.08 dB -11.71 dB 4:35 06-It's Not The Same For Us
DR9 -0.05 dB -10.61 dB 3:53 07-Dream-Crazy
DR9 -0.06 dB -10.28 dB 4:36 08-Good Man In A Storm
DR9 -0.06 dB -10.12 dB 3:43 09-Coup D'Etat
DR10 -0.06 dB -12.55 dB 5:43 10-Lying Still
––––––––––––––––––––––––––––––––––––––––

Number of tracks: 10
Official DR value: DR9

Samplerate: 44100 Hz
Channels: 2
Bits per sample: 16
Bitrate: 977 kbps
Codec: FLAC
================================================================================


Exact Audio Copy V1.0 beta 3 from 29. August 2011

Отчёт EAC об извлечении, выполненном 26. мая 2017, 11:16

Level 42 / World Machine (Deluxe Edition) (2 of 2)

Дисковод: HL-DT-STDVDRAM GH24NSB0 Adapter: 0 ID: 0

Режим чтения : Достоверность
Использование точного потока : Да
Отключение кэша аудио : Да
Использование указателей C2 : Нет

Коррекция смещения при чтении : 6
Способность читать области Lead-in и Lead-out : Нет
Заполнение пропущенных сэмплов тишиной : Да
Удаление блоков с тишиной в начале и конце : Нет
При вычислениях CRC использовались нулевые сэмплы : Да
Интерфейс : Встроенный Win32-интерфейс для Win NT/2000

Выходной формат : Пользовательский кодировщик
Выбранный битрейт : 128 kBit/s
Качество : Высокий
Добавление ID3-тега : Нет
Утилита сжатия : C:\Program Files (x86)\Exact Audio Copy\Flac\flac.exe
Дополнительные параметры : -V -8 -T "Date=%year%" -T "Genre=%genre%" %source%


TOC извлечённого CD

Трек | Старт | Длительность | Начальный сектор | Конечный сектор
––––––––––––––––––––––––––––––––––-
1 | 0:00.00 | 5:45.74 | 0 | 25948
2 | 5:45.74 | 5:32.11 | 25949 | 50859
3 | 11:18.10 | 5:20.28 | 50860 | 74887
4 | 16:38.38 | 4:03.59 | 74888 | 93171
5 | 20:42.22 | 8:04.33 | 93172 | 129504
6 | 28:46.55 | 4:15.18 | 129505 | 148647
7 | 33:01.73 | 4:19.11 | 148648 | 168083
8 | 37:21.09 | 5:42.66 | 168084 | 193799
9 | 43:04.00 | 6:10.06 | 193800 | 221555
10 | 49:14.06 | 5:50.16 | 221556 | 247821
11 | 55:04.22 | 9:19.33 | 247822 | 289779


Характеристики диапазона извлечения и сообщения об ошибках

Выбранный диапазон

Имя файла C:\Users\blackriver\Desktop\2\Level 42 - World Machine (Deluxe Edition) (2 of 2).wav

Пиковый уровень 100.0 %
Скорость извлечения 1.9 X
Качество диапазона 100.0 %
CRC теста DB4F7272
CRC копии DB4F7272
Копирование… OK

Ошибок не произошло


AccurateRip: сводка

Трек 1 : извлечено точно (доверие 12) [CE07FA6D] (AR v2)
Трек 2 : извлечено точно (доверие 12) [FCF62ED1] (AR v2)
Трек 3 : извлечено точно (доверие 12) [37926DCA] (AR v2)
Трек 4 : извлечено точно (доверие 12) [177BEDF1] (AR v2)
Трек 5 : извлечено точно (доверие 11) [1544B76E] (AR v2)
Трек 6 : извлечено точно (доверие 11) [4E32B8C9] (AR v2)
Трек 7 : извлечено точно (доверие 11) [93FC2A09] (AR v2)
Трек 8 : извлечено точно (доверие 11) [6A796F6E] (AR v2)
Трек 9 : извлечено точно (доверие 11) [7117E2DB] (AR v2)
Трек 10 : извлечено точно (доверие 11) [7776568A] (AR v2)
Трек 11 : извлечено точно (доверие 11) [D1EFAC1F] (AR v2)

Все треки извлечены точно

Конец отчёта

==== Контрольная сумма отчёта 892141DE9A19711814EAE997A18A0C9A3B39EBBDAF74F7570B007DD6E7E1B2BA ====

foobar2000 1.2 / Dynamic Range Meter 1.1.1
log date: 2017-05-27 01:24:00

––––––––––––––––––––––––––––––––––––––––
Analyzed: Level 42 / World Machine (Deluxe Edition) (2 of 2)
––––––––––––––––––––––––––––––––––––––––

DR Peak RMS Duration Track
––––––––––––––––––––––––––––––––––––––––
DR8 -0.09 dB -9.36 dB 5:46 01-World Machine [Live - Hammersmith Odeon, London, Feb 1986]
DR9 -0.35 dB -11.84 dB 5:32 02-Leaving Me Now [Live - Hammersmith Odeon, London, Feb 1986]
DR8 -0.33 dB -10.02 dB 5:20 03-Something About You [Live - Hammersmith Odeon, London, Feb 1986]
DR11 -0.10 dB -12.89 dB 4:04 04-Coup D'Etat [Backwards Mix]
DR10 -0.17 dB -11.27 dB 8:04 05-Something About You [Shep Pettibone Mix]
DR10 0.00 dB -11.11 dB 4:15 06-I Sleep On My Heart [Live - Ryde Theatre, Isle Of Wight, Nov 2000]
DR10 0.00 dB -10.68 dB 4:19 07-Dream Crazy [Live - Ryde Theatre, Isle Of Wight, Nov 2000]
DR11 0.00 dB -14.10 dB 5:43 08-Lying Still [Live - Ryde Theatre, Isle Of Wight, Nov 2000]
DR8 -1.26 dB -11.23 dB 6:10 09-Physical Presence [Live - Hammershith Apollo, London, Nov 2003]
DR7 -1.26 dB -10.04 dB 5:50 10-Leaving Me Now [Live - Hammershith Apollo, London, Nov 2003]
DR7 -0.12 dB -9.92 dB 9:19 11-World Machine [Phunk Investigation Club Mix] - Electrokingdom feat. Mark King
––––––––––––––––––––––––––––––––––––––––

Number of tracks: 11
Official DR value: DR9

Samplerate: 44100 Hz
Channels: 2
Bits per sample: 16
Bitrate: 954 kbps
Codec: FLAC
================================================================================

Level 42 - World Machine (1985) 2CDs Deluxe Edition, Remastered 2007

Level 42 - World Machine (1985) 2CDs Deluxe Edition, Remastered 2007

All thanks to original releaser - recoil-PREDATOR

More interesting music in My Blog

Level 42 - Level Best (1989)