Subcategories

Level 42 - Running In The Family (1987)

Posted By: uff
Level 42 - Running In The Family (1987)

Level 42 - Running In The Family (1987)
Pop Rock | 1cd | EAC Rip | Flac + Cue + Log | covers
Polygram, 831 593-2 | rel: 1987 | 340Mb

By Running in the Family, Level 42 had almost completely thinned out their early jazz-funk and soul roots in favor of a radio-friendly keyboard pop with a light R&B vibe. The sound lies somewhere between Kool and the Gang and early Tears for Fears. But if early fans might have felt betrayed by the new direction, the band's newfound aptitude for attention-grabbing hooks and airtight instrumental polish attracted more than enough new fans to replace them. Running in the Family included the band's sole number one hit in the U.K. charts, "Lessons in Love." It also featured a handful of other respectable pop nuggets including "Children Say" and "Fashion Fever." The record is a little uneven, faltering especially when the band indulges its taste for sappy ballads like "It's Over." But for the most part, Level 42 was extremely successful in its attempt to create something that would strike a chord with mainstream pop audiences. And they manage to do it without being obnoxiously derivative. Of course, the whole project reeks of 1987. But the solid craftsmanship of the writing as well as the group's ability to adapt to the popular tastes of the time helped them survive the '80s and become one of the more durable bands to have arisen in that era. ~Allmusic

Track listing
01. Lessons in Love (4:04)
02. Children Say (4:54)
03. Running in the Family (6:12)
04. It's Over (6:00)
05. To Be With You Again (5:19)
06. Two Solitudes (everyone's love in the air) (5:37)
07. Fashion Fever (4:34)
08. The Sleepwalkers (tunnel visions) (6:02)
09. Freedom Someday (6:17)

Personnel
- Mark King – bass, lead vocals
- Phil Gould – drums
- Boon Gould – lead and rhythm guitars
- Wally Badarou – keyboards, backing vocals
- Mike Lindup – keyboards, backing vocals
- Gary Barnacle – saxophone (on "Lessons in Love")
- Krys Mach – saxophone (on "Running in the Family")


Exact Audio Copy V0.99 prebeta 4 from 23. January 2008

EAC extraction logfile from 23. June 2008, 23:43

Level 42 / Running in the Family

Used drive : Optiarc DVD RW AD-7173S Adapter: 1 ID: 0

Read mode : Secure
Utilize accurate stream : Yes
Defeat audio cache : Yes
Make use of C2 pointers : No

Read offset correction : 48
Overread into Lead-In and Lead-Out : No
Fill up missing offset samples with silence : Yes
Delete leading and trailing silent blocks : No
Null samples used in CRC calculations : Yes
Used interface : Installed external ASPI interface

Used output format : User Defined Encoder
Selected bitrate : 1024 kBit/s
Quality : High
Add ID3 tag : No
Command line compressor : C:\Program Files\Exact Audio Copy\FLAC\FLAC.EXE
Additional command line options : -6 -V -T "ARTIST=%a" -T "TITLE=%t" -T "ALBUM=%g" -T "DATE=%y" -T "TRACKNUMBER=%n" -T "GENRE=%m" -T "COMMENT=%e" %s -o %d
Use compression offset : 48


TOC of the extracted CD

Track | Start | Length | Start sector | End sector
––––––––––––––––––––––––––––-
1 | 0:00.32 | 4:05.48 | 32 | 18454
2 | 4:06.05 | 4:57.25 | 18455 | 40754
3 | 9:03.30 | 6:14.55 | 40755 | 68859
4 | 15:18.10 | 6:03.25 | 68860 | 96109
5 | 21:21.35 | 5:20.70 | 96110 | 120179
6 | 26:42.30 | 5:39.12 | 120180 | 145616
7 | 32:21.42 | 4:35.70 | 145617 | 166311
8 | 36:57.37 | 6:03.40 | 166312 | 193576
9 | 43:01.02 | 6:17.45 | 193577 | 221896


Range status and errors

Selected range

Filename D:\Level 42_Running In The Family\Level 42 - Running in the Family.wav

Peak level 75.8 %
Range quality 100.0 %
Test CRC C4F8AABE
Copy CRC C4F8AABE
Copy OK

No errors occurred

End of status report



[CUETools log; Date: 2016. 07. 16. 20:39:02; Version: 2.1.6]
Pregap length 00:00:32.
Truncated 4608 extra samples in some input files.
[AccurateRip ID: 00105ab3-007943f7-730b8e09] found.
Track [ CRC | V2 ] Status
01 [826c95ed|341e9e58] (006+000/472) Accurately ripped
02 [35a676d9|88c5ec4f] (005+000/473) Accurately ripped
03 [331255d2|4586429b] (006+000/472) Accurately ripped
04 [2d2bf058|4b7d9ba2] (006+000/472) Accurately ripped
05 [2cfc7627|07cc4057] (006+000/475) Accurately ripped
06 [2a1b862b|6da12576] (006+000/470) Accurately ripped
07 [3e4fa317|5af98528] (006+000/471) Accurately ripped
08 [a6d32b84|aeb188e5] (005+000/461) Accurately ripped
09 [54bb13cd|c5f91257] (005+000/454) Accurately ripped
Offsetted by -2711:
01 [1db30b7f] (000/472) No match (V2 was not tested)
02 [49683155] (000/473) No match
03 [faeeeb17] (000/472) No match
04 [bb29aa36] (000/472) No match
05 [a5856a87] (000/475) No match
06 [01ec5047] (000/470) No match
07 [9e114f4b] (000/471) No match
08 [f99246db] (000/461) No match
09 [58bd7cbd] (000/454) No match
Offsetted by -2446:
01 [9aa7d051] (000/472) No match
02 [60071151] (000/473) No match (V2 was not tested)
03 [2783cd7c] (000/472) No match (V2 was not tested)
04 [49481ad4] (000/472) No match (V2 was not tested)
05 [0838dae7] (000/475) No match (V2 was not tested)
06 [69da43e3] (000/470) No match (V2 was not tested)
07 [9863e3ff] (000/471) No match (V2 was not tested)
08 [52ef4e92] (000/461) No match (V2 was not tested)
09 [0649dbad] (000/454) No match (V2 was not tested)
Offsetted by -1664:
01 [d831a8ed] (000/472) No match (V2 was not tested)
02 [baee40d9] (000/473) No match
03 [a82ca952] (000/472) No match
04 [27984558] (000/472) No match
05 [18298627] (000/475) No match
06 [6e2c402b] (000/470) No match
07 [980f2117] (000/471) No match
08 [48495204] (000/461) No match
09 [ab9cbbcd] (000/454) No match
Offsetted by -1524:
01 [1a356305] (000/472) No match (V2 was not tested)
02 [9b68d429] (000/473) No match
03 [68c899ae] (000/472) No match
04 [5a868a80] (000/472) No match
05 [08aef6a7] (000/475) No match
06 [35fc12fb] (000/470) No match
07 [81bd2c07] (000/471) No match
08 [50db1278] (000/461) No match
09 [63125d0d] (000/454) No match
Offsetted by -1399:
01 [55266dbf] (000/472) No match
02 [d18d20d5] (111/473) Accurately ripped
03 [d4c18bb7] (109/472) Accurately ripped
04 [b5b6b5f6] (110/472) Accurately ripped
05 [7adcf687] (109/475) Accurately ripped
06 [d61a33c7] (111/470) Accurately ripped
07 [9261b5cb] (110/471) Accurately ripped
08 [a1a659bb] (107/461) Accurately ripped
09 [59291abd] (104/454) Accurately ripped
Offsetted by -1259:
01 [972a27d7] (000/472) No match
02 [b207b425] (112/473) Accurately ripped
03 [955d7c13] (112/472) Accurately ripped
04 [e8a4fb1e] (110/472) Accurately ripped
05 [6b626707] (111/475) Accurately ripped
06 [9dea0697] (109/470) Accurately ripped
07 [7c0fc0bb] (111/471) Accurately ripped
08 [aa381a2f] (109/461) Accurately ripped
09 [109ebbfd] (107/454) Accurately ripped

Track Peak [ CRC32 ] [W/O NULL] [ LOG ]
– 75,8 [C4F8AABE] [3D39D996] CRC32
01 69,7 [F2855ADD] [F6C0EFEE]
02 73,9 [C1D75601] [8D836A27]
03 75,8 [2FE4E803] [E1428161]
04 75,8 [E296C9CF] [DFF7706E]
05 67,5 [F73E6247] [969A2F86]
06 73,9 [04C9DA1B] [6DD68569]
07 70,4 [678013CB] [E9F8A3A7]
08 75,8 [6EA9DDE1] [EEB5C677]
09 75,8 [932C9195] [F3A2B2F7]


Thx to Swperformer
Bigfile
Datafile

password: asd