Subcategories

Level 42 - Standing In The Light (1983) {Polydor}

Posted By: tiburon
Level 42 - Standing In The Light (1983) {Polydor}

Level 42 - Standing In The Light (1983) {Polydor}
EAC 0.99pb4 | FLAC tracks level 8 | Cue+Log+M3U+MD5 | Covers 300dpi | 261MB + 5% Recovery
Genre: Jazz Funk

Standing In The Light is the fourth studio album released by the British jazz-funk band Level 42. The album, released in 1983, generated the group's first top 10 in the UK album charts, peaking in #9. The album was well received by critics and fans.
Track List

01. Micro-Kid 4:44
02. The Sun Goes Down (Living It Up) 4:15
03. Out Of Sight, Out Of Mind 5:12
04. Dance On Heavy Weather 4:27
05. A Pharaoh's Dream (Of Endless Time) 4:21
06. Standing In The Light 3:42
07. I Want Eyes 4:59
08. People 4:55
09. The Machine Stops 4:15

musicians

Mark King – vocals, bass guitar, percussion
Mike Lindup – vocals, keyboards, percussion
Boon Gould – guitars
Phil Gould – drums, percussion, background vocals

also featuring

Wally Badarou – keyboards

Produce by Larry Dunn, Verdine White and Wally Badarou


Exact Audio Copy V0.99 prebeta 4 from 23. January 2008

Отчёт EAC об извлечении, выполненном 23. июня 2009, 17:31

Level 42 / Standing In The Light

Дисковод: Optiarc DVD RW AD-7190A Adapter: 0 ID: 0

Режим чтения : Достоверность
Использование точного потока : Да
Отключение кэша аудио : Да
Использование указателей C2 : Нет

Коррекция смещения при чтении : 6
Способность читать области Lead-in и Lead-out : Нет
Заполнение пропущенных сэмплов тишиной : Да
Удаление блоков с тишиной в начале и конце : Нет
При вычислениях CRC использовались нулевые сэмплы : Да
Интерфейс : Встроенный Win32-интерфейс для Win NT/2000

Выходной формат : Внутренние WAV-операции
Формат сэмплов : 44.100 Гц; 16 бит; стерео


TOC извлечённого CD

Трек | Старт | Длительность | Начальный сектор | Конечный сектор
––––––––––––––––––––––––––––––––––-
1 | 0:00.33 | 4:44.32 | 33 | 21364
2 | 4:44.65 | 4:15.40 | 21365 | 40529
3 | 9:00.30 | 5:12.40 | 40530 | 63969
4 | 14:12.70 | 4:27.33 | 63970 | 84027
5 | 18:40.28 | 4:22.67 | 84028 | 103744
6 | 23:03.20 | 3:43.00 | 103745 | 120469
7 | 26:46.20 | 5:00.25 | 120470 | 142994
8 | 31:46.45 | 4:56.05 | 142995 | 165199
9 | 36:42.50 | 4:16.00 | 165200 | 184399


Характеристики диапазона извлечения и сообщения об ошибках

Выбранный диапазон

Имя файла F:\Аудио Lossless\Level 42\1983 - Standing In The Light\Level 42 - Standing In The Light.wav

Пиковый уровень 100.0 %
Качество диапазона 100.0 %
CRC теста B6A8B662
CRC копии B6A8B662
Копирование… OK

Ошибок не произошло


AccurateRip: сводка

Трек 1 точность не определена (достоверность 3) [4A12B310], AccurateRip вернул [5267FE45]
Трек 2 точность не определена (достоверность 3) [272B63BF], AccurateRip вернул [1109C581]
Трек 3 точность не определена (достоверность 3) [8864EC5B], AccurateRip вернул [AAB17ACA]
Трек 4 точность не определена (достоверность 3) [14D35E4C], AccurateRip вернул [812B1770]
Трек 5 точность не определена (достоверность 3) [7AAD7485], AccurateRip вернул [F307F174]
Трек 6 точность не определена (достоверность 3) [8EB0F813], AccurateRip вернул [DD916AD6]
Трек 7 точность не определена (достоверность 3) [B54BF42C], AccurateRip вернул [F7E678BC]
Трек 8 точность не определена (достоверность 3) [CCDAC152], AccurateRip вернул [A384A069]
Трек 9 точность не определена (достоверность 2) [A4CF61F7], AccurateRip вернул [5519A876]

Ни один трек не прошёл проверки на точность
В вашей базе может быть иной вариант штамповки диска

Конец отчёта
Level 42 - Standing In The Light (1983) {Polydor}
Level 42 - Standing In The Light (1983) {Polydor}
Level 42 - Standing In The Light (1983) {Polydor}




The Files Are Interchangeable

Thanks to Черник for the rip!

Lossless convertion from APE Image to FLAC tracks level 8 with foobar2000
Cue and M3u files are generated once again.The Gap structure of the CD is reserved.

Visit My Blog