Subcategories

Leverkusener Jazztage 37: Al Di Meola, Christian Scott Atunde Adjuah, Gregory Porter & ... (2016) [HDTV 720p]

Posted By: v3122
Leverkusener Jazztage 37: Al Di Meola, Christian Scott Atunde Adjuah, Gregory Porter & ... (2016) [HDTV 720p]

Leverkusener Jazztage 37: Al Di Meola, Christian Scott Atunde Adjuah, Gregory Porter & The Stanley Clarke Band (2016)
4xTS: Mpeg4 AVC, 1280x720, 12500 kbps, 50 fps Progressive
AC3, 448 kbps, 48 kHz, stereo / MP2, 256 kbps, 48 kHz, stereo
Jazz / Blues / Soul / Rock / Fusion | 02:09:00 | ~ 25.17 Gb

~ Al Di Meola, Christian Scott Atunde Adjuah, Gregory Porter & The Stanley Clarke Band Live at Leverkusener Jazztage Festival ~

Leverkusener Jazztage 37: Al Di Meola, Christian Scott Atunde Adjuah, Gregory Porter & The Stanley Clarke Band (2016):

Tracklist TS01 - Al Di Meola [TT - 00:59:30]:

Misterio
Mawazine
Esmeralda
Cinema Paradiso
Stephanie
Because
Adour
Double Concerto
She's Leaving Home
Mediterranean Sundance

General
ID : 1 (0x1)
Complete name : G:\UP\Mix\Leverkusener Jazztage 2016\Al Di Meola. Leverkusener Jazztage 2016.ts
Format : MPEG-TS
File size : 5.96 GiB
Duration : 59mn 30s
Overall bit rate mode : Variable
Overall bit rate : 14.3 Mbps

Video
ID : 6510 (0x196E)
Menu ID : 11150 (0x2B8E)
Format : AVC
Format/Info : Advanced Video Codec
Format profile : High@L4.0
Format settings, CABAC : Yes
Format settings, ReFrames : 6 frames
Codec ID : 27
Duration : 59mn 30s
Bit rate : 12.5 Mbps
Width : 1 280 pixels
Height : 720 pixels
Display aspect ratio : 16:9
Frame rate : 50.000 fps
Color space : YUV
Chroma subsampling : 4:2:0
Bit depth : 8 bits
Scan type : Progressive
Bits/(Pixel*Frame) : 0.272
Stream size : 5.21 GiB (87%)
Color primaries : BT.709
Transfer characteristics : BT.709
Matrix coefficients : BT.709

Audio #1
ID : 6520 (0x1978)
Menu ID : 11150 (0x2B8E)
Format : AC-3
Format/Info : Audio Coding 3
Mode extension : CM (complete main)
Format settings, Endianness : Big
Codec ID : 6
Duration : 59mn 30s
Bit rate mode : Constant
Bit rate : 448 Kbps
Channel(s) : 2 channels
Channel positions : Front: L R
Sampling rate : 48.0 KHz
Bit depth : 16 bits
Compression mode : Lossy
Stream size : 191 MiB (3%)
Language : German

Audio #2
ID : 6521 (0x1979)
Menu ID : 11150 (0x2B8E)
Format : MPEG Audio
Format version : Version 1
Format profile : Layer 2
Codec ID : 3
Duration : 59mn 30s
Bit rate mode : Constant
Bit rate : 256 Kbps
Channel(s) : 2 channels
Sampling rate : 48.0 KHz
Compression mode : Lossy
Stream size : 109 MiB (2%)
Language : German

Audio #3
ID : 6522 (0x197A)
Menu ID : 11150 (0x2B8E)
Format : MPEG Audio
Format version : Version 1
Format profile : Layer 2
Codec ID : 3
Duration : 59mn 30s
Bit rate mode : Constant
Bit rate : 192 Kbps
Channel(s) : 2 channels
Sampling rate : 48.0 KHz
Compression mode : Lossy
Stream size : 81.7 MiB (1%)

Audio #4
ID : 6523 (0x197B)
Menu ID : 11150 (0x2B8E)
Format : MPEG Audio
Format version : Version 1
Format profile : Layer 2
Codec ID : 3
Duration : 59mn 30s
Bit rate mode : Constant
Bit rate : 192 Kbps
Channel(s) : 2 channels
Sampling rate : 48.0 KHz
Compression mode : Lossy
Stream size : 81.7 MiB (1%)
Language : Multiple languages

Text
ID : 6524 (0x197C)-100
Menu ID : 11150 (0x2B8E)
Format : Teletext
Language : German

Menu
ID : 6500 (0x1964)
Menu ID : 11150 (0x2B8E)
Duration : 59mn 30s
List : 6510 (0x196E) (AVC) / 6520 (0x1978) (AC-3, German) / 6521 (0x1979) (MPEG Audio, German) / 6522 (0x197A) (MPEG Audio) / 6523 (0x197B) (MPEG Audio, Multiple languages) / 6524 (0x197C) ()
Language : / German / German / / Multiple languages

Leverkusener Jazztage 37: Al Di Meola, Christian Scott Atunde Adjuah, Gregory Porter & ... (2016) [HDTV 720p]

Commando 5046 - Sewer Rat

Commando 5046 - Sewer Rat

Tracklist TS02 - Christian Scott Atunde Adjuah [TT - 00:59:19]:

R. Groid
The Walk
The Reckoning
Diaspora
West Of The West
The Last Chieftain

General
ID : 1 (0x1)
Complete name : G:\UP\Mix\Leverkusener Jazztage 2016\Christian Scott Atunde Adjuah. Leverkusener Jazztage 2016.ts
Format : MPEG-TS
File size : 5.74 GiB
Duration : 59mn 19s
Overall bit rate mode : Variable
Overall bit rate : 13.8 Mbps

Video
ID : 6510 (0x196E)
Menu ID : 11150 (0x2B8E)
Format : AVC
Format/Info : Advanced Video Codec
Format profile : High@L4.0
Format settings, CABAC : Yes
Format settings, ReFrames : 6 frames
Codec ID : 27
Duration : 59mn 19s
Bit rate : 12.1 Mbps
Width : 1 280 pixels
Height : 720 pixels
Display aspect ratio : 16:9
Frame rate : 50.000 fps
Color space : YUV
Chroma subsampling : 4:2:0
Bit depth : 8 bits
Scan type : Progressive
Bits/(Pixel*Frame) : 0.262
Stream size : 5.00 GiB (87%)
Color primaries : BT.709
Transfer characteristics : BT.709
Matrix coefficients : BT.709

Audio #1
ID : 6520 (0x1978)
Menu ID : 11150 (0x2B8E)
Format : AC-3
Format/Info : Audio Coding 3
Mode extension : CM (complete main)
Format settings, Endianness : Big
Codec ID : 6
Duration : 59mn 19s
Bit rate mode : Constant
Bit rate : 448 Kbps
Channel(s) : 2 channels
Channel positions : Front: L R
Sampling rate : 48.0 KHz
Bit depth : 16 bits
Compression mode : Lossy
Stream size : 190 MiB (3%)
Language : German

Audio #2
ID : 6521 (0x1979)
Menu ID : 11150 (0x2B8E)
Format : MPEG Audio
Format version : Version 1
Format profile : Layer 2
Codec ID : 3
Duration : 59mn 19s
Bit rate mode : Constant
Bit rate : 256 Kbps
Channel(s) : 2 channels
Sampling rate : 48.0 KHz
Compression mode : Lossy
Stream size : 109 MiB (2%)
Language : German

Audio #3
ID : 6522 (0x197A)
Menu ID : 11150 (0x2B8E)
Format : MPEG Audio
Format version : Version 1
Format profile : Layer 2
Codec ID : 3
Duration : 59mn 19s
Bit rate mode : Constant
Bit rate : 192 Kbps
Channel(s) : 2 channels
Sampling rate : 48.0 KHz
Compression mode : Lossy
Stream size : 81.5 MiB (1%)

Audio #4
ID : 6523 (0x197B)
Menu ID : 11150 (0x2B8E)
Format : MPEG Audio
Format version : Version 1
Format profile : Layer 2
Codec ID : 3
Duration : 59mn 19s
Bit rate mode : Constant
Bit rate : 192 Kbps
Channel(s) : 2 channels
Sampling rate : 48.0 KHz
Compression mode : Lossy
Stream size : 81.5 MiB (1%)
Language : Multiple languages

Text
ID : 6524 (0x197C)-100
Menu ID : 11150 (0x2B8E)
Format : Teletext
Language : German

Menu
ID : 6500 (0x1964)
Menu ID : 11150 (0x2B8E)
Duration : 59mn 19s
List : 6510 (0x196E) (AVC) / 6520 (0x1978) (AC-3, German) / 6521 (0x1979) (MPEG Audio, German) / 6522 (0x197A) (MPEG Audio) / 6523 (0x197B) (MPEG Audio, Multiple languages) / 6524 (0x197C) ()
Language : / German / German / / Multiple languages

Commando 5046 - Sewer Rat

Commando 5046 - Sewer Rat

Commando 5046 - Sewer Rat

Tracklist TS03 - Gregory Porter [TT - 01:39:47]:

Holding On
On My Way To Harlem
Take Me To The Alley
Don't Lose Your Steam
Hey Laura
Liquid Spirit
Consequence Of Love
Papa Was A Rollin' Stone
Musical Genocide
Water Under Bridges
Work Song
In Fashion
1960 What?
No Love Dying

General
ID : 1 (0x1)
Complete name : G:\UP\Mix\Leverkusener Jazztage 2016\Gregory Porter. Leverkusener Jazztage 2016.ts
Format : MPEG-TS
File size : 6.42 GiB
Duration : 1h 39mn
Overall bit rate mode : Variable
Overall bit rate : 9 214 Kbps

Video
ID : 5501 (0x157D)
Menu ID : 28327 (0x6EA7)
Format : AVC
Format/Info : Advanced Video Codec
Format profile : High@L4.0
Format settings, CABAC : Yes
Format settings, ReFrames : 4 frames
Codec ID : 27
Duration : 1h 39mn
Bit rate : 7 918 Kbps
Width : 1 280 pixels
Height : 720 pixels
Display aspect ratio : 16:9
Frame rate : 50.000 fps
Color space : YUV
Chroma subsampling : 4:2:0
Bit depth : 8 bits
Scan type : Progressive
Bits/(Pixel*Frame) : 0.172
Stream size : 5.52 GiB (86%)

Audio #1
ID : 5502 (0x157E)
Menu ID : 28327 (0x6EA7)
Format : AC-3
Format/Info : Audio Coding 3
Mode extension : CM (complete main)
Format settings, Endianness : Big
Codec ID : 6
Duration : 1h 39mn
Bit rate mode : Constant
Bit rate : 448 Kbps
Channel(s) : 2 channels
Channel positions : Front: L R
Sampling rate : 48.0 KHz
Bit depth : 16 bits
Compression mode : Lossy
Delay relative to video : -20ms
Stream size : 320 MiB (5%)
Language : German

Audio #2
ID : 5503 (0x157F)
Menu ID : 28327 (0x6EA7)
Format : MPEG Audio
Format version : Version 1
Format profile : Layer 2
Codec ID : 3
Duration : 1h 39mn
Bit rate mode : Constant
Bit rate : 192 Kbps
Channel(s) : 2 channels
Sampling rate : 48.0 KHz
Compression mode : Lossy
Delay relative to video : -20ms
Stream size : 137 MiB (2%)
Language : German

Audio #3
ID : 5504 (0x1580)
Menu ID : 28327 (0x6EA7)
Format : MPEG Audio
Format version : Version 1
Format profile : Layer 2
Codec ID : 3
Duration : 1h 39mn
Bit rate mode : Constant
Bit rate : 192 Kbps
Channel(s) : 2 channels
Sampling rate : 48.0 KHz
Compression mode : Lossy
Delay relative to video : -20ms
Stream size : 137 MiB (2%)

Text
ID : 5505 (0x1581)-100
Menu ID : 28327 (0x6EA7)
Format : Teletext
Language : German

Menu
ID : 5520 (0x1590)
Menu ID : 28327 (0x6EA7)
Duration : 1h 39mn
List : 5501 (0x157D) (AVC) / 5502 (0x157E) (AC-3, German) / 5503 (0x157F) (MPEG Audio, German) / 5504 (0x1580) (MPEG Audio) / 5505 (0x1581) ()
Language : / German / German



Commando 5046 - Sewer Rat

Commando 5046 - Sewer Rat

Commando 5046 - Sewer Rat

Tracklist TS04 - The Stanley Clarke Band [TT - 00:57:36]:

School Days
Goodbye Pork Pie Hat
Song To John
Oh Oh

General
ID : 1 (0x1)
Complete name : G:\UP\Mix\Leverkusener Jazztage 2016\The Stanley Clarke Band. Leverkusener Jazztage 2016.ts
Format : MPEG-TS
File size : 5.75 GiB
Duration : 57mn 36s
Overall bit rate mode : Variable
Overall bit rate : 14.3 Mbps

Video
ID : 6510 (0x196E)
Menu ID : 11150 (0x2B8E)
Format : AVC
Format/Info : Advanced Video Codec
Format profile : High@L4.0
Format settings, CABAC : Yes
Format settings, ReFrames : 6 frames
Codec ID : 27
Duration : 57mn 36s
Bit rate : 12.5 Mbps
Width : 1 280 pixels
Height : 720 pixels
Display aspect ratio : 16:9
Frame rate : 50.000 fps
Color space : YUV
Chroma subsampling : 4:2:0
Bit depth : 8 bits
Scan type : Progressive
Bits/(Pixel*Frame) : 0.271
Stream size : 5.02 GiB (87%)
Color primaries : BT.709
Transfer characteristics : BT.709
Matrix coefficients : BT.709

Audio #1
ID : 6520 (0x1978)
Menu ID : 11150 (0x2B8E)
Format : AC-3
Format/Info : Audio Coding 3
Mode extension : CM (complete main)
Format settings, Endianness : Big
Codec ID : 6
Duration : 57mn 36s
Bit rate mode : Constant
Bit rate : 448 Kbps
Channel(s) : 2 channels
Channel positions : Front: L R
Sampling rate : 48.0 KHz
Bit depth : 16 bits
Compression mode : Lossy
Stream size : 185 MiB (3%)
Language : German

Audio #2
ID : 6521 (0x1979)
Menu ID : 11150 (0x2B8E)
Format : MPEG Audio
Format version : Version 1
Format profile : Layer 2
Codec ID : 3
Duration : 57mn 36s
Bit rate mode : Constant
Bit rate : 256 Kbps
Channel(s) : 2 channels
Sampling rate : 48.0 KHz
Compression mode : Lossy
Stream size : 105 MiB (2%)
Language : German

Audio #3
ID : 6522 (0x197A)
Menu ID : 11150 (0x2B8E)
Format : MPEG Audio
Format version : Version 1
Format profile : Layer 2
Codec ID : 3
Duration : 57mn 36s
Bit rate mode : Constant
Bit rate : 192 Kbps
Channel(s) : 2 channels
Sampling rate : 48.0 KHz
Compression mode : Lossy
Stream size : 79.1 MiB (1%)

Audio #4
ID : 6523 (0x197B)
Menu ID : 11150 (0x2B8E)
Format : MPEG Audio
Format version : Version 1
Format profile : Layer 2
Codec ID : 3
Duration : 57mn 36s
Bit rate mode : Constant
Bit rate : 192 Kbps
Channel(s) : 2 channels
Sampling rate : 48.0 KHz
Compression mode : Lossy
Stream size : 79.1 MiB (1%)
Language : Multiple languages

Text
ID : 6524 (0x197C)-100
Menu ID : 11150 (0x2B8E)
Format : Teletext
Language : German

Menu
ID : 6500 (0x1964)
Menu ID : 11150 (0x2B8E)
Duration : 57mn 36s
List : 6510 (0x196E) (AVC) / 6520 (0x1978) (AC-3, German) / 6521 (0x1979) (MPEG Audio, German) / 6522 (0x197A) (MPEG Audio) / 6523 (0x197B) (MPEG Audio, Multiple languages) / 6524 (0x197C) ()
Language : / German / German / / Multiple languages

Commando 5046 - Sewer Rat

Commando 5046 - Sewer Rat

Commando 5046 - Sewer Rat

All thanks go to Verue

Download Leverkusener Jazztage 37: Al Di Meola, Christian Scott Atunde Adjuah, Gregory Porter & The Stanley Clarke Band (2016):