Subcategories

Lindisfarne - The News (1979) [Air Mail Archive AIRAC-1380, Japan]

Posted By: v3122
Lindisfarne - The News (1979) [Air Mail Archive AIRAC-1380, Japan]

Lindisfarne - The News (1979)
EAC | Flac(Image) + Cue + Log & MP3 CBR 320Kbps
2007 | Air Mail Archive, AIRAC-1380 | ~ 281 or 102 Mb | Scans(jpg) -> 47 Mb
Folk Rock

Lindisfarne barely command more than a footnote in most rock reference books. During the early '70s, however, Lindisfarne were one of the hottest folk-based rock bands in England, with chart placements on two of their albums that rivaled Jethro Tull, and had them proclaimed one of the most important groups of the decade. With a sound that mixed plaintive folk-like melodies, earthy but well-sung harmonies, and acoustic and electric textures, the group seemed poised for international success, when a series of unfortunate artistic decisions, followed by a split in their lineup, left them bereft of audience and success….

by Bruce Eder, allmusic
Lindisfarne - The News (1979):

Lindisfarne - The News (1979) [Air Mail Archive AIRAC-1380, Japan]

Tracklist:

01. Call Of The Wild
02. People Say
03. 1983
04. Log On Your Fire
05. Evening
06. Easy And Free
07. Miracles
08. When Friday Comes Along
09. Dedicated Hound
10. This Has Got To End
11. Good To Be Here?

Exact Audio Copy V1.1 from 23. June 2015

Отчёт EAC об извлечении, выполненном 25. июля 2017, 15:42

Lindisfarne / The News

Дисковод: ASUS DRW-24B3ST Adapter: 0 ID: 0

Режим чтения : Достоверность
Использование точного потока : Да
Отключение кэша аудио : Да
Использование указателей C2 : Нет

Коррекция смещения при чтении : 6
Способность читать области Lead-in и Lead-out : Нет
Заполнение пропущенных сэмплов тишиной : Да
Удаление блоков с тишиной в начале и конце : Нет
При вычислениях CRC использовались нулевые сэмплы : Да
Интерфейс : Установленный внешний ASPI-интерфейс

Выходной формат : Пользовательский кодировщик
Выбранный битрейт : 1024 kBit/s
Качество : Высокий
Добавление ID3-тега : Нет
Утилита сжатия : C:\Program Files (x86)\Exact Audio Copy\Flac\flac.exe
Дополнительные параметры : -V -8 -T "Date=%year%" -T "Genre=%genre%" %source%


TOC извлечённого CD

Трек | Старт | Длительность | Начальный сектор | Конечный сектор
––––––––––––––––––––––––––––––––––-
1 | 0:00.00 | 3:40.09 | 0 | 16508
2 | 3:40.09 | 2:27.06 | 16509 | 27539
3 | 6:07.15 | 4:09.02 | 27540 | 46216
4 | 10:16.17 | 2:41.14 | 46217 | 58305
5 | 12:57.31 | 4:16.12 | 58306 | 77517
6 | 17:13.43 | 3:54.43 | 77518 | 95110
7 | 21:08.11 | 4:08.39 | 95111 | 113749
8 | 25:16.50 | 3:00.27 | 113750 | 127276
9 | 28:17.02 | 4:28.26 | 127277 | 147402
10 | 32:45.28 | 3:50.65 | 147403 | 164717
11 | 36:36.18 | 6:24.42 | 164718 | 193559


Характеристики диапазона извлечения и сообщения об ошибках

Выбранный диапазон

Имя файла E:\Torrents\Lindisfarne - 1979 - The News\Lindisfarne - The News.wav

Пиковый уровень 96.5 %
Скорость извлечения 7.9 X
Качество диапазона 100.0 %
CRC теста 72C8F62E
CRC копии 72C8F62E
Копирование… OK

Ошибок не произошло


AccurateRip: сводка

Трек 1 : извлечено точно (доверие 2) [C1F2E2FB] (AR v2)
Трек 2 : извлечено точно (доверие 2) [336D69DB] (AR v2)
Трек 3 : извлечено точно (доверие 2) [35BD038F] (AR v2)
Трек 4 : извлечено точно (доверие 2) [66AD65ED] (AR v2)
Трек 5 : извлечено точно (доверие 2) [BB5AE72C] (AR v2)
Трек 6 : извлечено точно (доверие 2) [FB53D0F6] (AR v2)
Трек 7 : извлечено точно (доверие 2) [87C80F16] (AR v2)
Трек 8 : извлечено точно (доверие 2) [F0E65E69] (AR v2)
Трек 9 : извлечено точно (доверие 2) [96816312] (AR v2)
Трек 10 : извлечено точно (доверие 2) [C96442BB] (AR v2)
Трек 11 : извлечено точно (доверие 2) [4B3043EB] (AR v2)

Все треки извлечены точно

Конец отчёта

==== Контрольная сумма отчёта ECFADC2A20B150CF42404B0DD958AD99CE3FF996524462858476FC6D3EE2A8D4 ====

foobar2000 1.2.9 / Dynamic Range Meter 1.1.1
log date: 2017-07-26 14:15:12

––––––––––––––––––––––––––––––––––––––––
Analyzed: Lindisfarne / The News
––––––––––––––––––––––––––––––––––––––––

DR Peak RMS Duration Track
––––––––––––––––––––––––––––––––––––––––
DR10 -0.30 dB -13.14 dB 3:40 01-Call Of The Wild
DR10 -0.46 dB -12.61 dB 2:27 02-People Say
DR11 -0.56 dB -13.29 dB 4:09 03-1983
DR11 -0.87 dB -13.82 dB 2:41 04-Log On Your Fire
DR11 -0.44 dB -13.72 dB 4:16 05-Evening
DR10 -0.63 dB -13.37 dB 3:55 06-Easy And Free
DR12 -0.52 dB -14.92 dB 4:09 07-Miracles
DR11 -0.62 dB -13.89 dB 3:00 08-When Friday Comes Along
DR12 -0.57 dB -14.89 dB 4:28 09-Dedicated Hound
DR9 -0.83 dB -12.76 dB 3:51 10-This Has Got To End
DR10 -1.01 dB -14.35 dB 6:25 11-Good To Be Here?
––––––––––––––––––––––––––––––––––––––––

Number of tracks: 11
Official DR value: DR11

Samplerate: 44100 Hz
Channels: 2
Bits per sample: 16
Bitrate: 885 kbps
Codec: FLAC

[CUETools log; Date: 26.07.2017 14:11:35; Version: 2.1.4]
[CTDB TOCID: Nbv7AcgCuGGtCrScg8l6mgnn7zo-] disk not present in database.
[AccurateRip ID: 00104b85-008f3c37-a60a140b] found.
Track [ CRC | V2 ] Status
01 [9a34d9e3|c1f2e2fb] (0+2/2) Accurately ripped
02 [aea71eff|336d69db] (0+2/2) Accurately ripped
03 [540a62f5|35bd038f] (0+2/2) Accurately ripped
04 [b330154e|66ad65ed] (0+2/2) Accurately ripped
05 [58893ae9|bb5ae72c] (0+2/2) Accurately ripped
06 [4390c890|fb53d0f6] (0+2/2) Accurately ripped
07 [21c23555|87c80f16] (0+2/2) Accurately ripped
08 [6721563e|f0e65e69] (0+2/2) Accurately ripped
09 [8253db1b|96816312] (0+2/2) Accurately ripped
10 [68f4b078|c96442bb] (0+2/2) Accurately ripped
11 [f57c5707|4b3043eb] (0+2/2) Accurately ripped

Track Peak [ CRC32 ] [W/O NULL] [ LOG ]
– 96,5 [72C8F62E] [379831D6] CRC32
01 96,5 [A9D23CB1] [4F4DDB93]
02 94,8 [988712D9] [4FE12FC0]
03 93,7 [19537350] [40424B3B]
04 90,5 [B0018F70] [B5D80C90]
05 95,1 [7C83C3F3] [702FB0EA]
06 93,0 [B9F8E5A8] [EA426641]
07 94,2 [409D8F23] [B1BD14E0]
08 93,1 [E4034120] [F1D85A0B]
09 93,6 [248D0165] [088BE946]
10 90,9 [6AD3CAF4] [B2BABA1F]
11 89,0 [4FB8FF71] [1422977C]

Lindisfarne - The News (1979) [Air Mail Archive AIRAC-1380, Japan]

All thanks go to Копысов

Lindisfarne in my Blog

Download Lindisfarne - The News (1979):