Subcategories

Lisa Stansfield - Albums Collection 1989-1993 (3CD) [Non-Remastered Japanese Releases] Re-Up

Posted By: Designol
Lisa Stansfield - Albums Collection 1989-1993 (3CD) [Non-Remastered Japanese Releases] Re-Up

Lisa Stansfield - Albums Collection 1989-1993 (3CD) [Non-Remastered Japanese Releases]
EAC | FLAC | Image (Cue&Log) ~ 1.15 Gb | Mp3 (CBR320) ~ 456 Mb | Scans ~ 414 Mb
Adult Contemporary, Vocal Pop, R&B, Urban, Soul, Funk | Time: 03:19:24

English soul-influenced pop singer and actress who mixed modern dance grooves with vintage-style R&B. Collection includes: 'Affection' (1989); 'Real Love' (1991); 'So Natural' (1993).

After nearly a full decade in the music industry, singer and actor Lisa Stansfield reached the mainstream as the featured vocalist and co-songwriter on Coldcut's 1989 single "People Hold On," a number 11 pop hit in the U.K. and a number six hit on the U.S. club chart. Later that year, the solo single "All Around the World" gave Stansfield a tremendous boost by reaching number one in several countries, as well as in the U.K. From that point, throughout her distinguished – if sporadic – recording career, she was known for sophisticated, soul-inspired releases that appealed to a broad audience. She was the most convincing white R&B singer since Teena Marie.

Born in Manchester, England, in 1966, Stansfield grew up listening to soul music. In 1980, she won Search for a Star, a singing competition, and released her first single, "Your Alibis" – a dramatic ballad seemingly made for a film – on the Devil label in 1981. Stansfield sounded significantly older than her age. Subsequently signed to Polydor, she was pushed toward slick new wave pop for a handful of singles released during 1982 and 1983. None of them charted. Longer strides were made with Blue Zone, a short-term group formed with Ian Devaney and Andy Morris. Their biggest hit, a mature dance-pop single titled "Jackie," reached number 54 on the Billboard Hot 100 in 1988.

Stansfield's most momentous year was 1989, when she co-wrote and fronted Coldcut's "People Hold On." Arista signed her as a solo artist, though she continued to record with Devaney and Morris, who co-wrote and produced the majority of her debut album, Affection, released in the U.K. that November (and in the U.S. the following February). "All Around the World," a platinum seller in the U.S. and a gold release in several other territories, was its biggest hit by far, but the Coldcut-produced "This Is the Right Time," along with "Live Together" and the number one U.S. R&B hit "You Can't Deny It," were also successful. Stansfield was nominated for Grammy awards in the categories of Best Female Pop Vocal Performance and Best New Artist.

Stansfield continued to work with Devaney and Morris on Real Love (November 1991) and So Natural (November 1993), both of which reached the Top Ten in the U.K. The latter album, heavier on ballads with less dance-oriented material, wasn't released in the U.S. Stansfield made several appearances on soundtracks and compilations prior to the more widely distributed Lisa Stansfield (March 1997), which featured covers of Barry White's "Never, Never Gonna Give You Up" and Phyllis Hyman's "You Know How to Love Me." The album was produced by Devaney and Peter Mokran and did not involve Morris.

In 1999, Stansfield made her film debut in Swing, for which she recorded ten songs – produced by Devaney – that were included on the soundtrack. After Face Up (June 2001), which barely cracked the U.K. Top 40 and completed her contractual obligation to Arista, she signed with Trevor Horn's ZTT label and worked with the producer on The Moment (September 2004), a set that did not fare well in the U.K. but went gold in Germany. Acting in a wide variety of television series and films, including Monkey Trousers, Gold Plated, Agatha Christie's Marple, The Edge of Love, and Northern Soul, kept Stansfield away from recording studios, but she returned in October 2013 with Seven.

Biography by Ron Wynn, Allmusic.com







Lisa Stansfield - Albums Collection 1989-1993 (3CD) [Non-Remastered Japanese Releases] Re-Up

Lisa Stansfield - Affection (1989) Japanese Release
EAC | FLAC | Image (Cue&Log) ~ 407 Mb | Mp3 (CBR320) ~ 149 Mb | Scans ~ 145 Mb
Label: Arista/BMG Victor Inc. | # A32D-98 | Time: 01:05:00

When Lisa Stansfield took the R&B world by storm with her melancholy, Barry White-influenced single "All Around the World," it was obvious that not since Teena Marie had a white female singer performed R&B so convincingly. Though she didn't shy away from hip-hop and house-music elements, Affection leaves no doubt where the British singer's heart lies – sleek yet gritty '70s R&B. Though the retro leanings of such updated soul treasures as "You Can't Deny It" and "What Did I Do to You" are obvious, Stansfield's producer keeps things very fresh sounding by embracing a decidedly high-tech and very late-'80s/early-'90s production style. Though essentially a soul diva, Stansfield has a disco masterpiece in the love-and-togetherness anthem "This Is the Right Time."

Review by Alex Henderson, Allmusic.com

Tracklist:

01. This Is The Right Time (04:32)
02. Mighty Love (05:12)
03. Sincerity (04:49)
04. The Love In Me (05:02)
05. All Around The World (04:30)
06. What Did I Do To You? (04:51)
07. Live Together (06:11)
08. You Can't Deny It (05:31)
09. Poison (04:19)
10. When Are You Coming Back? (05:16)
11. Affection (05:43)
12. Wake Up Baby (03:55)
13. The Way You Want It (05:04)


Exact Audio Copy V1.0 beta 3 from 29. August 2011

EAC extraction logfile from 11. February 2012, 21:55

Lisa Stansfield / Affection

Used drive : PLEXTOR DVDR PX-716A Adapter: 0 ID: 0

Read mode : Secure
Utilize accurate stream : Yes
Defeat audio cache : Yes
Make use of C2 pointers : No

Read offset correction : 30
Overread into Lead-In and Lead-Out : Yes
Fill up missing offset samples with silence : Yes
Delete leading and trailing silent blocks : No
Null samples used in CRC calculations : Yes
Used interface : Native Win32 interface for Win NT & 2000

Used output format : User Defined Encoder
Selected bitrate : 1024 kBit/s
Quality : High
Add ID3 tag : No
Command line compressor : C:\Program Files (x86)\FLAC\flac.exe
Additional command line options : -8 -V -T "ARTIST=%artist%" -T "TITLE=%title%" -T "ALBUM=%albumtitle%" -T "DATE=%year%" -T "TRACKNUMBER=%tracknr%" -T "GENRE=%genre%" -T "COMMENT=EAC FLAC -8" %source%


TOC of the extracted CD

Track | Start | Length | Start sector | End sector
––––––––––––––––––––––––––––-
1 | 0:00.37 | 4:32.08 | 37 | 20444
2 | 4:32.45 | 5:12.25 | 20445 | 43869
3 | 9:44.70 | 4:49.42 | 43870 | 65586
4 | 14:34.37 | 5:02.58 | 65587 | 88294
5 | 19:37.20 | 4:30.12 | 88295 | 108556
6 | 24:07.32 | 4:51.18 | 108557 | 130399
7 | 28:58.50 | 6:11.32 | 130400 | 158256
8 | 35:10.07 | 5:31.68 | 158257 | 183149
9 | 40:42.00 | 4:19.52 | 183150 | 202626
10 | 45:01.52 | 5:16.38 | 202627 | 226364
11 | 50:18.15 | 5:43.50 | 226365 | 252139
12 | 56:01.65 | 3:55.10 | 252140 | 269774
13 | 59:57.00 | 5:04.37 | 269775 | 292611


Range status and errors

Selected range

Filename E:\mtorrent_flac\Lisa Stansfield - Affection (Japan)\Lisa Stansfield - Affection.wav

Peak level 100.0 %
Extraction speed 1.7 X
Range quality 100.0 %
Test CRC 61F9D8E1
Copy CRC 61F9D8E1
Copy OK

No errors occurred


AccurateRip summary

Track 1 not present in database
Track 2 not present in database
Track 3 not present in database
Track 4 not present in database
Track 5 not present in database
Track 6 not present in database
Track 7 not present in database
Track 8 not present in database
Track 9 not present in database
Track 10 not present in database
Track 11 not present in database
Track 12 not present in database
Track 13 not present in database

None of the tracks are present in the AccurateRip database

End of status report

–– CUETools DB Plugin V2.1.3

[CTDB TOCID: j3eK14ArJGOBQzl1zctstNaM9f8-] disk not present in database, Submit result: discs with pregaps not supported in this protocol version


==== Log checksum 609D91F108C8FA42C86FA9E97017D05F66DE7BBC8BE480030E3027482F591156 ====

[CUETools log; Date: 14.09.2017 0:01:06; Version: 2.1.4]
Pregap length 00:00:37.
[CTDB TOCID: j3eK14ArJGOBQzl1zctstNaM9f8-] found.
Track | CTDB Status
1 | (17/17) Accurately ripped
2 | (17/17) Accurately ripped
3 | (17/17) Accurately ripped
4 | (17/17) Accurately ripped
5 | (17/17) Accurately ripped
6 | (17/17) Accurately ripped
7 | (17/17) Accurately ripped
8 | (16/17) Accurately ripped
9 | (17/17) Accurately ripped
10 | (17/17) Accurately ripped
11 | (17/17) Accurately ripped
12 | (17/17) Accurately ripped
13 | (17/17) Accurately ripped
[AccurateRip ID: 001f2905-0138d024-b50f3d0d] found.
Track [ CRC | V2 ] Status
01 [6bb58aca|0d56c947] (0+4/6) Accurately ripped
02 [9eadae50|352c7dd6] (0+4/6) Accurately ripped
03 [16726f6f|ca15d1a9] (0+4/6) Accurately ripped
04 [76c2f3bd|87e353e5] (0+4/6) Accurately ripped
05 [1bcf8441|49b33d58] (0+4/6) Accurately ripped
06 [4a5a1424|7f4e0a11] (0+4/6) Accurately ripped
07 [0ffee053|56932b3a] (0+4/6) Accurately ripped
08 [d52e27ce|b8afc9c4] (0+4/6) Accurately ripped
09 [bd09c81f|f4af918f] (0+4/6) Accurately ripped
10 [59452390|7b450c00] (0+4/6) Accurately ripped
11 [0f8bd07e|65e94f24] (0+4/6) Accurately ripped
12 [263553e1|3cd0cd38] (0+4/6) Accurately ripped
13 [c1d8f00d|71e21f2f] (0+4/4) Accurately ripped
Offsetted by 241:
01 [945184a3] (2/6) Accurately ripped
02 [fb0e36f9] (2/6) Accurately ripped
03 [9f355703] (2/6) Accurately ripped
04 [a6ecbaf6] (2/6) Accurately ripped
05 [d780f73b] (2/6) Accurately ripped
06 [32d51b7d] (2/6) Accurately ripped
07 [5ed6b9bd] (2/6) Accurately ripped
08 [6f1b3e08] (2/6) Accurately ripped
09 [61692cf2] (2/6) Accurately ripped
10 [59a767d0] (2/6) Accurately ripped
11 [66210e11] (2/6) Accurately ripped
12 [0d70e1a1] (2/6) Accurately ripped
13 [42df905d] (0/4) No match (V2 was not tested)

Track Peak [ CRC32 ] [W/O NULL] [ LOG ]
– 100,0 [61F9D8E1] [EBB516F2] CRC32
01 80,0 [587B1C65] [D3722A58]
02 96,1 [62373D45] [C1C6E9BA]
03 90,8 [9748CCD7] [949C745D]
04 100,0 [4795898F] [3F2DE02B]
05 99,8 [13CE7309] [2D077D67]
06 100,0 [602CD8C5] [C9BD8B03]
07 100,0 [F45A4072] [165F7E3B]
08 90,6 [B2DD9868] [DCA45561]
09 80,0 [5F912754] [8F0E6B2C]
10 92,9 [3EB37364] [C8D20B29]
11 100,0 [627D3CCC] [40415A78]
12 89,2 [B8D5B713] [298B73BB]
13 80,3 [C6B10E4A] [B19687C1]

foobar2000 1.2 / Dynamic Range Meter 1.1.1
log date: 2017-09-14 00:00:09

––––––––––––––––––––––––––––––––––––––––
Analyzed: Lisa Stansfield / Affection
––––––––––––––––––––––––––––––––––––––––

DR Peak RMS Duration Track
––––––––––––––––––––––––––––––––––––––––
DR12 -1.93 dB -15.62 dB 4:32 01-This Is The Right Time
DR14 -0.34 dB -18.04 dB 5:12 02-Mighty Love
DR15 -0.84 dB -18.53 dB 4:50 03-Sincerity
DR15 0.00 dB -16.59 dB 5:03 04-The Love In Me
DR15 -0.01 dB -17.13 dB 4:30 05-All Around The World
DR15 0.00 dB -16.85 dB 4:51 06-What Did I Do To You?
DR14 0.00 dB -16.13 dB 6:11 07-Live Together
DR15 -0.85 dB -18.47 dB 5:32 08-You Can't Deny It
DR14 -1.93 dB -17.99 dB 4:20 09-Poison
DR15 -0.63 dB -18.08 dB 5:17 10-When Are You Coming Back?
DR15 0.00 dB -16.96 dB 5:44 11-Affection
DR14 -0.99 dB -19.42 dB 3:55 12-Wake Up Baby
DR14 -1.90 dB -18.14 dB 5:04 13-The Way You Want It
––––––––––––––––––––––––––––––––––––––––

Number of tracks: 13
Official DR value: DR14

Samplerate: 44100 Hz
Channels: 2
Bits per sample: 16
Bitrate: 875 kbps
Codec: FLAC
================================================================================

Lisa Stansfield - Albums Collection 1989-1993 (3CD) [Non-Remastered Japanese Releases] Re-Up

Lisa Stansfield - Albums Collection 1989-1993 (3CD) [Non-Remastered Japanese Releases] Re-Up






Lisa Stansfield - Albums Collection 1989-1993 (3CD) [Non-Remastered Japanese Releases] Re-Up

Lisa Stansfield - Real Love (1991) Japanese Release
EAC | FLAC | Image (Cue&Log) ~ 388 Mb | Mp3 (CBR320) ~ 153 Mb | Scans ~ 143 Mb
Label: Arista/BMG Victor Inc. | # BVCA-124 | Time: 01:06:56

Expectations ran incredibly high when the time came for Lisa Stansfield to deliver a second album, but unfortunately, she didn't escape the infamous sophomore slump. Real Love, although far from a bad album, clearly falls short of Affection's unmitigated excellence. Nonetheless, there are some definite gems here – including the poigant and heartbreaking ballad "All Woman," the spunky "Soul Deep," and the sleek "Set Your Loving Free." While most of Real Love is at least decent and is far superior to most '90s R&B, Stansfield is a major talent who – as the outstanding Affection quite clearly demonstrated – can do much better than "merely" good.

Review by Alex Henderson, Allmusic.com

Tracklist:

01. Change (05:39)
02. Real Love (05:02)
03. Set Your Loving Free (05:04)
04. I Will Be Waiting (05:06)
05. All Woman (05:17)
06. Soul Deep (04:14)
07. Make Love To Ya (04:55)
08. Time To Make You Mine (04:59)
09. Symptoms Of Loneliness & Heartache (04:44)
10. It's Got To Be Real (05:18)
11. First Joy (04:26)
12. Tenderly (03:22)
13. A Little More Love (04:36)
Bonus Track:
14. Whenever You're Gone (04:08)


Exact Audio Copy V1.0 beta 3 from 29. August 2011

EAC extraction logfile from 12. February 2012, 0:33

Lisa Stansfield / Real Love

Used drive : PLEXTOR DVDR PX-716A Adapter: 0 ID: 0

Read mode : Secure
Utilize accurate stream : Yes
Defeat audio cache : Yes
Make use of C2 pointers : No

Read offset correction : 30
Overread into Lead-In and Lead-Out : Yes
Fill up missing offset samples with silence : Yes
Delete leading and trailing silent blocks : No
Null samples used in CRC calculations : Yes
Used interface : Native Win32 interface for Win NT & 2000

Used output format : User Defined Encoder
Selected bitrate : 1024 kBit/s
Quality : High
Add ID3 tag : No
Command line compressor : C:\Program Files (x86)\FLAC\flac.exe
Additional command line options : -8 -V -T "ARTIST=%artist%" -T "TITLE=%title%" -T "ALBUM=%albumtitle%" -T "DATE=%year%" -T "TRACKNUMBER=%tracknr%" -T "GENRE=%genre%" -T "COMMENT=EAC FLAC -8" %source%


TOC of the extracted CD

Track | Start | Length | Start sector | End sector
––––––––––––––––––––––––––––-
1 | 0:00.37 | 5:39.03 | 37 | 25464
2 | 5:39.40 | 5:02.52 | 25465 | 48166
3 | 10:42.17 | 5:04.20 | 48167 | 70986
4 | 15:46.37 | 5:06.05 | 70987 | 93941
5 | 20:52.42 | 5:17.43 | 93942 | 117759
6 | 26:10.10 | 4:14.12 | 117760 | 136821
7 | 30:24.22 | 4:55.73 | 136822 | 159019
8 | 35:20.20 | 4:59.50 | 159020 | 181494
9 | 40:19.70 | 4:44.37 | 181495 | 202831
10 | 45:04.32 | 5:18.18 | 202832 | 226699
11 | 50:22.50 | 4:26.45 | 226700 | 246694
12 | 54:49.20 | 3:22.17 | 246695 | 261861
13 | 58:11.37 | 4:36.28 | 261862 | 282589
14 | 62:47.65 | 4:08.65 | 282590 | 301254


Range status and errors

Selected range

Filename E:\mtorrent_flac\Lisa Stansfield - Real Love (Japan)\Lisa Stansfield - Real Love.wav

Peak level 95.1 %
Extraction speed 1.7 X
Range quality 100.0 %
Test CRC 8693909F
Copy CRC 8693909F
Copy OK

No errors occurred


AccurateRip summary

Track 1 accurately ripped (confidence 1) [C1D40013] (AR v1)
Track 2 accurately ripped (confidence 1) [7DDA78D1] (AR v1)
Track 3 accurately ripped (confidence 1) [9ABAD90F] (AR v1)
Track 4 accurately ripped (confidence 1) [AF1F0BD6] (AR v1)
Track 5 accurately ripped (confidence 1) [0655EC06] (AR v1)
Track 6 accurately ripped (confidence 1) [7BDD96EE] (AR v1)
Track 7 accurately ripped (confidence 1) [587B62CA] (AR v1)
Track 8 accurately ripped (confidence 1) [ABAECEB9] (AR v1)
Track 9 accurately ripped (confidence 1) [49CE68C3] (AR v1)
Track 10 accurately ripped (confidence 1) [20FF5812] (AR v1)
Track 11 accurately ripped (confidence 1) [DEF0FCE9] (AR v1)
Track 12 accurately ripped (confidence 1) [DB86198E] (AR v1)
Track 13 accurately ripped (confidence 1) [7284DAF7] (AR v1)
Track 14 accurately ripped (confidence 1) [64B77201] (AR v1)

All tracks accurately ripped

End of status report

–– CUETools DB Plugin V2.1.3

[CTDB TOCID: i1YFlDajinM6wnwTE0ph6aLTaoY-] disk not present in database, Submit result: discs with pregaps not supported in this protocol version


==== Log checksum 60F8249F8DE19886BBA72B64A3909D16A79CF83EABBF8E811940DFA71DEDC16B ====

[CUETools log; Date: 14.09.2017 0:01:26; Version: 2.1.4]
Pregap length 00:00:37.
[CTDB TOCID: i1YFlDajinM6wnwTE0ph6aLTaoY-] found.
Track | CTDB Status
1 | (19/19) Accurately ripped
2 | (19/19) Accurately ripped
3 | (19/19) Accurately ripped
4 | (19/19) Accurately ripped
5 | (19/19) Accurately ripped
6 | (19/19) Accurately ripped
7 | (19/19) Accurately ripped
8 | (19/19) Accurately ripped
9 | (19/19) Accurately ripped
10 | (19/19) Accurately ripped
11 | (19/19) Accurately ripped
12 | (19/19) Accurately ripped
13 | (19/19) Accurately ripped
14 | (19/19) Accurately ripped
[AccurateRip ID: 0023f1ad-017ba642-bc0fb00e] found.
Track [ CRC | V2 ] Status
01 [c1d40013|89b4ba2f] (04+08/12) Accurately ripped
02 [7dda78d1|3d7a0bfe] (04+08/12) Accurately ripped
03 [9abad90f|a5ae387a] (04+08/12) Accurately ripped
04 [af1f0bd6|05a2c52b] (04+08/12) Accurately ripped
05 [0655ec06|eb5bb438] (04+08/12) Accurately ripped
06 [7bdd96ee|89a6013e] (04+08/12) Accurately ripped
07 [587b62ca|924d6172] (04+08/12) Accurately ripped
08 [abaeceb9|f30fc0a7] (04+08/12) Accurately ripped
09 [49ce68c3|cd13db7b] (04+08/12) Accurately ripped
10 [20ff5812|3fc20497] (04+08/12) Accurately ripped
11 [def0fce9|c5169a41] (04+08/12) Accurately ripped
12 [db86198e|ed449830] (04+08/12) Accurately ripped
13 [7284daf7|58f2251d] (04+08/12) Accurately ripped
14 [64b77201|a21276a9] (04+08/12) Accurately ripped

Track Peak [ CRC32 ] [W/O NULL] [ LOG ]
– 95,1 [8693909F] [40C5A962] CRC32
01 74,6 [B9B77512] [14756354]
02 74,0 [1FC9E2AF] [1FB59492]
03 90,6 [E6A2EE22] [E49D0325]
04 95,1 [63A250E7] [E52A9D98]
05 80,5 [B8957BC0] [0DFB1078]
06 72,1 [04047B08] [820D3593]
07 89,2 [7BD73365] [F35FACFC]
08 79,9 [E0ED9368] [8A7C0952]
09 94,6 [B93323BB] [E987310E]
10 82,6 [98341168] [42B4D076]
11 70,3 [93DB7DDC] [91902AF3]
12 77,4 [4BF4D05C] [EB6AFAB7]
13 93,0 [62788C3D] [95C6D35D]
14 74,6 [AC07A73E] [6195FE69]

foobar2000 1.2 / Dynamic Range Meter 1.1.1
log date: 2017-09-14 00:00:36

––––––––––––––––––––––––––––––––––––––––
Analyzed: Lisa Stansfield / Real Love
––––––––––––––––––––––––––––––––––––––––

DR Peak RMS Duration Track
––––––––––––––––––––––––––––––––––––––––
DR13 -2.54 dB -17.92 dB 5:39 01-Change
DR12 -2.60 dB -17.27 dB 5:03 02-Real Love
DR15 -0.85 dB -17.32 dB 5:04 03-Set Your Loving Free
DR13 -0.43 dB -17.17 dB 5:06 04-I Will Be Waiting
DR13 -1.88 dB -17.86 dB 5:18 05-All Woman
DR12 -2.84 dB -17.50 dB 4:14 06-Soul Deep
DR14 -0.98 dB -17.25 dB 4:56 07-Make Love To Ya
DR13 -1.95 dB -17.43 dB 5:00 08-Time To Make You Mine
DR15 -0.47 dB -17.52 dB 4:44 09-Symptoms Of Loneliness & Heartache
DR14 -1.66 dB -18.26 dB 5:18 10-It's Got To Be Real
DR13 -3.05 dB -18.11 dB 4:27 11-First Joy
DR13 -2.22 dB -19.70 dB 3:22 12-Tenderly
DR12 -0.63 dB -15.93 dB 4:36 13-A Little More Love
DR13 -2.54 dB -18.60 dB 4:09 14-Whenever You're Gone
––––––––––––––––––––––––––––––––––––––––

Number of tracks: 14
Official DR value: DR13

Samplerate: 44100 Hz
Channels: 2
Bits per sample: 16
Bitrate: 809 kbps
Codec: FLAC
================================================================================

Lisa Stansfield - Albums Collection 1989-1993 (3CD) [Non-Remastered Japanese Releases] Re-Up

Lisa Stansfield - Albums Collection 1989-1993 (3CD) [Non-Remastered Japanese Releases] Re-Up






Lisa Stansfield - Albums Collection 1989-1993 (3CD) [Non-Remastered Japanese Releases] Re-Up

Lisa Stansfield - So Natural (1993) Japanese Release
EAC | FLAC | Image (Cue&Log) ~ 388 Mb | Mp3 (CBR320) ~ 154 Mb | Scans ~ 126 Mb
Label: Arista/BMG Victor Inc. | # BVCA-626 | Time: 01:07:26

After achieving minor success as the lead singer of the U.K. trio Blue Zone and providing vocals for Coldcut's dancefloor classic "People Hold On," Lisa Stansfield established herself as a solo artist with her immensely successful 1989 debut album Affection. The combination of lush, Barry White-influenced arrangements and Stansfield's soulful voice proved wildly popular, and Stansfield became one of the hottest new international artists of the late '80s. Unfortunately, Stansfield's popularity slipped a bit with the follow-up, 1991's Real Love, but the album was still a respectable seller. So Natural, from 1993, failed to reestablish Stansfield as a major commercial force, but since the album was never released in the U.S., it's easy to understand why. Though So Natural pales in comparison to Affection and even Real Love, it certainly isn't bad, and the lack of an American release remains a mystery.

Stansfield almost abandons the R&B-flavored dance-pop of her debut with So Natural. The album is definitely consistent, but the ballad-heavy approach wears thin. So Natural also lacks a surefire hit single, like Affection's "All Around the World" and "This Is the Right Time" or Real Love's "Change." But So Natural still offers many pleasant moments. The steamy ballads "Never Set Me Free" and "Be Mine" rank with Stansfield's best work, and the album does offer a couple of sunny, up-tempo numbers with "Too Much Love Makin'" and "Marvelous and Mine." So Natural does flow along quite nicely – the only real clunker here is the bland, dated-sounding synth pop throwback "Little Bit of Heaven" – but the album fails to deliver the memorable hooks of her biggest hits. Still, So Natural could have easily found an American audience, considering the success of her previous work. So Natural is only available in America as an import release. The album is certainly a worthy find for Lisa Stansfield fans willing to search the import bins. The casual fan, however, is better off with the considerably easier to find Affection or her 1997 American comeback effort, simply titled Lisa Stansfield.

Review by William Cooper, Allmusic.com

Tracklist:

01. So Natural (05:06)
02. Never Set Me Free (05:01)
03. I Give You Everything (04:40)
04. Marvellous & Mine (04:16)
05. Goodbye (04:37)
06. Little Bit of Heaven (04:29)
07. Sweet Memories (05:34)
08. She's Always There (05:05)
09. Too Much Lovemakin' (04:35)
10. Turn Me On (04:41)
11. Be Mine (04:33)
12. In All The Right Places (06:03)
13. Wish It Could Always Be This Way (04:45)
Bonus track:
14. Gonna Try It Anyway (03:55)


Exact Audio Copy V1.0 beta 3 from 29. August 2011

EAC extraction logfile from 12. February 2012, 2:15

Lisa Stansfield / So Natural

Used drive : PLEXTOR DVDR PX-716A Adapter: 0 ID: 0

Read mode : Secure
Utilize accurate stream : Yes
Defeat audio cache : Yes
Make use of C2 pointers : No

Read offset correction : 30
Overread into Lead-In and Lead-Out : Yes
Fill up missing offset samples with silence : Yes
Delete leading and trailing silent blocks : No
Null samples used in CRC calculations : Yes
Used interface : Native Win32 interface for Win NT & 2000

Used output format : User Defined Encoder
Selected bitrate : 1024 kBit/s
Quality : High
Add ID3 tag : No
Command line compressor : C:\Program Files (x86)\FLAC\flac.exe
Additional command line options : -8 -V -T "ARTIST=%artist%" -T "TITLE=%title%" -T "ALBUM=%albumtitle%" -T "DATE=%year%" -T "TRACKNUMBER=%tracknr%" -T "GENRE=%genre%" -T "COMMENT=EAC FLAC -8" %source%


TOC of the extracted CD

Track | Start | Length | Start sector | End sector
––––––––––––––––––––––––––––-
1 | 0:00.37 | 5:06.40 | 37 | 23026
2 | 5:07.02 | 5:01.57 | 23027 | 45658
3 | 10:08.59 | 4:40.60 | 45659 | 66718
4 | 14:49.44 | 4:16.48 | 66719 | 85966
5 | 19:06.17 | 4:37.32 | 85967 | 106773
6 | 23:43.49 | 4:29.25 | 106774 | 126973
7 | 28:12.74 | 5:34.10 | 126974 | 152033
8 | 33:47.09 | 5:05.58 | 152034 | 174966
9 | 38:52.67 | 4:35.02 | 174967 | 195593
10 | 43:27.69 | 4:41.43 | 195594 | 216711
11 | 48:09.37 | 4:33.27 | 216712 | 237213
12 | 52:42.64 | 6:03.68 | 237214 | 264506
13 | 58:46.57 | 4:45.27 | 264507 | 285908
14 | 63:32.09 | 3:55.28 | 285909 | 303561


Range status and errors

Selected range

Filename E:\mtorrent_flac\Lisa Stansfield - So Natural (Japan)\Lisa Stansfield - So Natural.wav

Peak level 100.0 %
Extraction speed 1.7 X
Range quality 100.0 %
Test CRC 4EA2847E
Copy CRC 4EA2847E
Copy OK

No errors occurred


AccurateRip summary

Track 1 accurately ripped (confidence 2) [D658A059] (AR v1)
Track 2 accurately ripped (confidence 2) [C4844E66] (AR v1)
Track 3 accurately ripped (confidence 2) [42679FB4] (AR v1)
Track 4 accurately ripped (confidence 2) [48B1226F] (AR v1)
Track 5 accurately ripped (confidence 2) [69B80E43] (AR v1)
Track 6 accurately ripped (confidence 2) [3F5C3355] (AR v1)
Track 7 accurately ripped (confidence 2) [5EC08AE6] (AR v1)
Track 8 accurately ripped (confidence 2) [CE115BA4] (AR v1)
Track 9 accurately ripped (confidence 2) [7F2770D9] (AR v1)
Track 10 accurately ripped (confidence 2) [ADBE7050] (AR v1)
Track 11 accurately ripped (confidence 2) [211768C7] (AR v1)
Track 12 accurately ripped (confidence 2) [7BDEBD08] (AR v1)
Track 13 accurately ripped (confidence 2) [A78098C9] (AR v1)
Track 14 accurately ripped (confidence 2) [E4393054] (AR v1)

All tracks accurately ripped

End of status report

–– CUETools DB Plugin V2.1.3

[CTDB TOCID: kYzZxdMzang2xq0Dz3RaqpypmHM-] disk not present in database, Submit result: discs with pregaps not supported in this protocol version


==== Log checksum A75156EF5E8F11EC4B86BF97AE75841BE9088318B7AAE4D87A680A71D1C4A185 ====

[CUETools log; Date: 14.09.2017 0:01:44; Version: 2.1.4]
Pregap length 00:00:37.
[CTDB TOCID: kYzZxdMzang2xq0Dz3RaqpypmHM-] found.
Track | CTDB Status
1 | (11/11) Accurately ripped
2 | (11/11) Accurately ripped
3 | (11/11) Accurately ripped
4 | (11/11) Accurately ripped
5 | (11/11) Accurately ripped
6 | (11/11) Accurately ripped
7 | (11/11) Accurately ripped
8 | (11/11) Accurately ripped
9 | (11/11) Accurately ripped
10 | (11/11) Accurately ripped
11 | (11/11) Accurately ripped
12 | (11/11) Accurately ripped
13 | (11/11) Accurately ripped
14 | (11/11) Accurately ripped
[AccurateRip ID: 0022e058-01740777-c30fcf0e] found.
Track [ CRC | V2 ] Status
01 [d658a059|ce43c0f3] (2+5/7) Accurately ripped
02 [c4844e66|0b92a21a] (2+5/7) Accurately ripped
03 [42679fb4|4e98ba30] (2+5/7) Accurately ripped
04 [48b1226f|97efa827] (2+5/7) Accurately ripped
05 [69b80e43|afa58bcc] (2+5/7) Accurately ripped
06 [3f5c3355|31c4c9b0] (2+5/7) Accurately ripped
07 [5ec08ae6|f7a20446] (2+5/7) Accurately ripped
08 [ce115ba4|fe332cb7] (2+5/7) Accurately ripped
09 [7f2770d9|eda74499] (2+5/7) Accurately ripped
10 [adbe7050|a2f620b1] (2+5/7) Accurately ripped
11 [211768c7|160f1ed2] (2+5/7) Accurately ripped
12 [7bdebd08|50c761ac] (2+5/7) Accurately ripped
13 [a78098c9|e4ba4063] (2+5/7) Accurately ripped
14 [e4393054|9fd84a63] (2+5/7) Accurately ripped

Track Peak [ CRC32 ] [W/O NULL] [ LOG ]
– 100,0 [4EA2847E] [E81CAFA7] CRC32
01 97,3 [ED7B83CF] [121F3FE0]
02 98,2 [A2839600] [56BB5D60]
03 95,5 [FD927020] [1C4C9BFE]
04 89,2 [76BC55EB] [BB456839]
05 87,5 [5F218C9E] [3E53716F]
06 100,0 [01F13E23] [066AAC6C]
07 93,9 [55FADCF7] [EB0FE009]
08 95,9 [56F56139] [BFEB2707]
09 95,3 [70091138] [7C2BC8D9]
10 100,0 [38A0E47B] [888F9652]
11 97,7 [C5E9D174] [C387E2CE]
12 99,8 [F5B524F7] [D56FD11E]
13 98,6 [F85B6D71] [5BD29C2C]
14 99,9 [B9039B43] [D039E702]

foobar2000 1.2 / Dynamic Range Meter 1.1.1
log date: 2017-09-14 00:01:20

––––––––––––––––––––––––––––––––––––––––
Analyzed: Lisa Stansfield / So Natural
––––––––––––––––––––––––––––––––––––––––

DR Peak RMS Duration Track
––––––––––––––––––––––––––––––––––––––––
DR15 -0.23 dB -18.22 dB 5:07 01-So Natural
DR13 -0.16 dB -15.36 dB 5:02 02-Never Set Me Free
DR12 -0.40 dB -15.26 dB 4:41 03-I Give You Everything
DR13 -0.99 dB -16.01 dB 4:17 04-Marvellous & Mine
DR12 -1.16 dB -16.01 dB 4:37 05-Goodbye
DR13 0.00 dB -14.51 dB 4:29 06-Little Bit of Heaven
DR13 -0.55 dB -16.68 dB 5:34 07-Sweet Memories
DR12 -0.36 dB -15.88 dB 5:06 08-She's Always There
DR13 -0.41 dB -15.22 dB 4:35 09-Too Much Lovemakin'
DR14 0.00 dB -15.46 dB 4:42 10-Turn Me On
DR13 -0.20 dB -16.04 dB 4:33 11-Be Mine
DR14 -0.01 dB -15.48 dB 6:04 12-In All The Right Places
DR12 -0.11 dB -14.84 dB 4:45 13-Wish It Could Always Be This Way
DR13 0.00 dB -15.18 dB 3:55 14-Gonna Try It Anyway
––––––––––––––––––––––––––––––––––––––––

Number of tracks: 14
Official DR value: DR13

Samplerate: 44100 Hz
Channels: 2
Bits per sample: 16
Bitrate: 805 kbps
Codec: FLAC
================================================================================

Lisa Stansfield - Albums Collection 1989-1993 (3CD) [Non-Remastered Japanese Releases] Re-Up

Lisa Stansfield - Albums Collection 1989-1993 (3CD) [Non-Remastered Japanese Releases] Re-Up