Subcategories

Lita Ford - Dancin' On The Edge (1984)

Posted By: popsakov
Lita Ford - Dancin' On The Edge (1984)

Lita Ford - Dancin' On The Edge (1984)
EAC Rip | FLAC (Img) + Cue + Log ~ 326 Mb | MP3 CBR320 ~ 151 Mb
Full Scans | RAR 5% Recovery
Hard Rock, Glam Metal | Mercury #818 864-2

Dancin' on the Edge is second solo album by Lita Ford. It is also her last release with Mercury Records before she left to sign with RCA/Dreamland Records. This album featured Ford's new back up band made up of drummer Randy Castillo (who later played for Ozzy Osbourne and Motley Crue), Aldo Nova on keyboards and featured the bassist Hugh McDonald, who is currently the hired studio/live session bassist for Bon Jovi. Dancin' on the Edge surpassed the success of her debut Out For Blood in both sales and airplay. Her videos for the singles, "Gotta Let Go" and "Dressed to Kill" were also featured in heavy rotation on MTV. The latter video featured a cameo by Ford's then fiancee, Tony Iommi. Ford did heavy touring in support of the album for most of 1984 culminating in a pre- Headbanger's Ball concert special for MTV. The album reached No. 66 of the US Billboard 200 chart. The title track, "Dancin' on the Edge", resulted in Ford's first Grammy Award for Best Female Rock Vocal Performance in 1984.

~ Wiki

***************

Lita Ford - Dancin' On The Edge (1984)

Lita Ford - Dancin' On The Edge (1984)

Track List:

01. Gotta Let Go [04:40]
02. Dancin' On The Edge [05:01]
03. Dressed To Kill [03:45]
04. Hit 'N Run [03:55]
05. Lady Killer [03:42]
06. Still Waitin' [04:21]
07. Fire In My Heart [03:47]
08. Don't Let Me Down Tonight [04:43]
09. Run With The $ [04:22]

Exact Audio Copy V1.0 beta 3 from 29. August 2011

EAC extraction logfile from 11. March 2015, 18:56

Lita Ford / Dancin' On The Edge

Used drive : HL-DT-STDVDRAM GH22NS40 Adapter: 4 ID: 0

Read mode : Secure
Utilize accurate stream : Yes
Defeat audio cache : Yes
Make use of C2 pointers : No

Read offset correction : 667
Overread into Lead-In and Lead-Out : No
Fill up missing offset samples with silence : Yes
Delete leading and trailing silent blocks : No
Null samples used in CRC calculations : Yes
Used interface : Native Win32 interface for Win NT & 2000

Used output format : User Defined Encoder
Selected bitrate : 1024 kBit/s
Quality : High
Add ID3 tag : No
Command line compressor : C:\Program Files\FLAC\flac.exe
Additional command line options : -V -8 -T "Date=%year%" -T "Genre=%genre%" %source%


TOC of the extracted CD

Track | Start | Length | Start sector | End sector
––––––––––––––––––––––––––––-
1 | 0:00.32 | 4:39.40 | 32 | 20996
2 | 4:39.72 | 5:00.05 | 20997 | 43501
3 | 9:40.02 | 3:44.65 | 43502 | 60366
4 | 13:24.67 | 3:54.63 | 60367 | 77979
5 | 17:19.55 | 3:41.45 | 77980 | 94599
6 | 21:01.25 | 4:20.50 | 94600 | 114149
7 | 25:22.00 | 3:46.72 | 114150 | 131171
8 | 29:08.72 | 4:42.15 | 131172 | 152336
9 | 33:51.12 | 4:21.58 | 152337 | 171969


Range status and errors

Selected range

Filename I:\Rips\Lita Ford - Dancin' On The Edge.wav

Peak level 100.0 %
Extraction speed 1.8 X
Range quality 100.0 %
Test CRC D84C7BAC
Copy CRC D84C7BAC
Copy OK

No errors occurred


AccurateRip summary

Track 1 accurately ripped (confidence 4) [D379BA2B] (AR v2)
Track 2 accurately ripped (confidence 5) [33C537AB] (AR v2)
Track 3 accurately ripped (confidence 5) [B87580DA] (AR v2)
Track 4 accurately ripped (confidence 5) [B1509928] (AR v2)
Track 5 accurately ripped (confidence 5) [BC93D51B] (AR v2)
Track 6 accurately ripped (confidence 5) [15E48200] (AR v2)
Track 7 accurately ripped (confidence 5) [D83E6C4A] (AR v2)
Track 8 accurately ripped (confidence 5) [20BAD632] (AR v2)
Track 9 accurately ripped (confidence 5) [705882FD] (AR v2)

All tracks accurately ripped

End of status report

==== Log checksum 09DB353DFA122AE943E441F5C2F149A715DD159A21361B2EF4586C6597277067 ====

[CUETools log; Date: 10.09.2019 19:28:01; Version: 2.1.6]
Pregap length 00:00:32.
[CTDB TOCID: JMd7pgfABmNoyLxEgiUt3gl.Cn4-] found.
Track | CTDB Status
1 | (16/16) Accurately ripped
2 | (16/16) Accurately ripped
3 | (16/16) Accurately ripped
4 | (16/16) Accurately ripped
5 | (16/16) Accurately ripped
6 | (16/16) Accurately ripped
7 | (16/16) Accurately ripped
8 | (16/16) Accurately ripped
9 | (16/16) Accurately ripped
[AccurateRip ID: 000d3b23-00604b03-5d08f409] found.
Track [ CRC | V2 ] Status
01 [853abac8|d379ba2b] (06+09/15) Accurately ripped
02 [e96d7361|33c537ab] (06+09/15) Accurately ripped
03 [e31df2e3|b87580da] (06+10/16) Accurately ripped
04 [454e0a64|b1509928] (06+10/16) Accurately ripped
05 [4a93f6d3|bc93d51b] (06+10/16) Accurately ripped
06 [3405fb6b|15e48200] (06+10/16) Accurately ripped
07 [ed32dce6|d83e6c4a] (06+10/16) Accurately ripped
08 [cc8f8cdc|20bad632] (06+10/16) Accurately ripped
09 [dea808d0|705882fd] (06+10/16) Accurately ripped

Track Peak [ CRC32 ] [W/O NULL] [ LOG ]
– 100,0 [D84C7BAC] [D65BA7D0] CRC32
01 94,9 [8691A9DE] [E89FC6DC]
02 100,0 [8DFD8412] [C0A7FECA]
03 89,0 [7CB2F744] [68A4010A]
04 98,1 [150ED884] [BDE3F55E]
05 100,0 [EA90B73A] [89EC9E85]
06 87,5 [B77A1C1C] [BB896668]
07 99,0 [AE74EE79] [4F508E10]
08 82,3 [19E9AE53] [205AEBCF]
09 100,0 [5224424F] [51A2209C]

Lita Ford - Dancin' On The Edge (1984)


All thanks go to powermet

>>> Lita Ford in my Blog <<<

DOWNLOAD: