Subcategories

Little Axe - Champagne & Grits - 2004

Posted By: mfrwiz
Little Axe - Champagne & Grits - 2004

Little Axe - Champagne & Grits - 2004
Loseless (Flac Image File + Cue + Log + Audiochecker Log): 378 Mb | EAC Secure Mode Rip | Mp3 (CBR 320 kbps): 155 Mb | HQ Scans
Audio CD (September 21, 2004) - Number of Discs: 1 - Label: Real World Records (Cat. # CDRW119) - ASIN: B0002PZQ52
Blues, Modern Acoustic Blues, Dub

Product Description here

Little Axe - Champagne & Grits - 2004

Review: Another fierce offering from Little Axe AKA Skip McDonald, whose lyrical guitar style has graced many recordings over the years (check out early SugarHill, and with the On-U Sound posse, multiple recordings with Dub Syndicate, African Head Charge and Tackhead). Blends the blues-sampling of earlier recordings (The Wolf that House Built, Hard Grind) with more vocals (similar to the sadly discontinued second CD, Slow Fuse) courtesy of Bernard Fowler, Shara Nelson and - surprise! - Chris Gifford from Squeeze. The Gifford track initially seems a but anomalous, but grows on you and would probably make a great single. Highly recommended.
Track listing
01. People Grinning In Your Face
02. Finger On The Trigger
03. Mean Things
04. The Way I See
05. Walk On Water
06. Go Away Devil
07. Say My Name
08. Take Me Back To The Country
09. All In The Same Boat
10. Living And Sleeping In A Dangerous Time
11. Will I Ever Get Back Home Again?
12. Cloud
13. Run Sinners

Personnel
Skip McDonald - vocals, guitar
Also: Doug Wimbish, Bernard Fowler, Keith LeBlanc, Chris Difford, Shara Nelson, Dave Foster, Dorie Jackson, Junior Delgado, Alan Glen, Denise Sherwood, Ghetto Priest

Loseless
Part1
Part2
Part3
Part4

Mp3
Part1
Part2

Pass: guaza
Have a nice day.

AUDIOCHECKER v2.0 beta (build 457) - by Dester - opdester@freemail.hu
~~~~~~~~~~~~~~~~~~~~~~~~~~~~~~~~~~
-=== NON MODIFICARE QUESTO FILE! ===-

Percorso: …\Little Axe - Champagne & Grits - 2004 @ Flac

1 -=- Little Axe - Champagne & Grits.flac -=- CDDA (100%)

95102580

Exact Audio Copy V0.99 prebeta 5 from 4. May 2009

EAC extraction logfile from 24. June 2009, 9:44

Little Axe / Champagne & Grits

Used drive : Pioneer BDR-203BK Adapter: 7 ID: 0

Read mode : Secure
Utilize accurate stream : Yes
Defeat audio cache : Yes
Make use of C2 pointers : No

Read offset correction : 6
Overread into Lead-In and Lead-Out : No
Fill up missing offset samples with silence : Yes
Delete leading and trailing silent blocks : No
Null samples used in CRC calculations : Yes
Used interface : Native Win32 interface for Win NT & 2000

Used output format : User Defined Encoder
Selected bitrate : 128 kBit/s
Quality : High
Add ID3 tag : No
Command line compressor : C:\Programmi\FLAC\flac.exe
Additional command line options : -T "artist=%a" -T "title=%t" -T "album=%g" -T "date=%y" -T "tracknumber=%n" -T "genre=%m" -5 %s


TOC of the extracted CD

Track | Start | Length | Start sector | End sector
––––––––––––––––––––––––––––-
1 | 0:00.00 | 3:59.07 | 0 | 17931
2 | 3:59.07 | 5:11.30 | 17932 | 41286
3 | 9:10.37 | 6:19.09 | 41287 | 69720
4 | 15:29.46 | 0:39.63 | 69721 | 72708
5 | 16:09.34 | 4:51.11 | 72709 | 94544
6 | 21:00.45 | 4:45.48 | 94545 | 115967
7 | 25:46.18 | 4:46.52 | 115968 | 137469
8 | 30:32.70 | 1:02.19 | 137470 | 142138
9 | 31:35.14 | 4:12.05 | 142139 | 161043
10 | 35:47.19 | 5:46.25 | 161044 | 187018
11 | 41:33.44 | 4:23.63 | 187019 | 206806
12 | 45:57.32 | 3:12.60 | 206807 | 221266
13 | 49:10.17 | 4:42.26 | 221267 | 242442


Range status and errors

Selected range

Filename E:\Musica da condividere\Little Axe - Champagne & Grits - 2004\Nuova Cartella\LACAG\Little Axe - Champagne & Grits - 2004 @ Flac\Little Axe - Champagne & Grits.wav

Peak level 99.8 %
Range quality 100.0 %
Copy CRC 3790C79F
Copy OK

No errors occurred

End of status report