Subcategories

Dave Matthews Band - Live Trax Vol. 44: 2016-09-04 - The Gorge Amphitheatre - George, WA (2017) {4CD}

Posted By: SERTiL
Dave Matthews Band - Live Trax Vol. 44: 2016-09-04 - The Gorge Amphitheatre - George, WA (2017) {4CD}

Dave Matthews Band - Live Trax Vol. 44: 2016-09-04 - The Gorge Amphitheatre - George, WA (2017)
EAC Rip | FLAC (tracks)+cue, log, m3u, front cover | 1.51 GB
Label: Bama Rags ‎– DMCD160 / DMAM668 | Tracks: 28 | Time: 238:50 min
Alternative Rock

With the spectacular river gorge as the backdrop, Dave Matthews Band took their final bow of the 2016 tour at the Gorge Amphitheatre before heading into an extended hiatus. The weekend, which has been affectionately dubbed “Labor Dave Weekend,” was full of incredible energy and solid performances that covered the breadth of the band’s catalogue. This show from September 4th kicked off with “The Stone,” complete with an audience sing-along, and ended with a two-song encore of “Pig” and “Stay (Wasting Time).” Special guests included Carlos Malta on woodwinds on “Say Goodbye,” “The Maker,” and “Typical Situation,” while touring crew member Joe Lawlor played guitar on a fiery performance of “Rhyme & Reason."

Tracklist:

Disc 1:
1. The Stone
2. Proudest Monkey
3. Crash Into Me
4. Old Dirt Hill (Bring That Beat Back)
5. The Idea of You
6. Burning Down the House
7. #41

Disc 2:
1. Say Goodbye
2. So Damn Lucky
3. Minarets
4. Where Are You Going?
5. Rhyme & Reason
6. Lie In Our Graves
7. The Maker

Disc 3:
1. You Might Die Trying
2. Typical Situation
3. The Last Stop
4. Ants Marching
5. Pig
6. Stay (Wasting Time)

Encore Trax:
1. Big Eyed Fish
2. Satellite
3. Granny
4. Recently
5. Cry Freedom
6. Rooftop
7. One Sweet World
8. Why I Am

Exact Audio Copy V1.3 from 2. September 2016

EAC extraction logfile from 2. December 2017, 15:06

Dave Matthews Band / Live Trax Vol. 44: The Gorge Amphitheatre - George, WA (2016.9.4)

Used drive : Optiarc BD RW BD-5300S Adapter: 1 ID: 0

Read mode : Secure
Utilize accurate stream : Yes
Defeat audio cache : Yes
Make use of C2 pointers : No

Read offset correction : 6
Overread into Lead-In and Lead-Out : No
Fill up missing offset samples with silence : Yes
Delete leading and trailing silent blocks : No
Null samples used in CRC calculations : Yes
Used interface : Native Win32 interface for Win NT & 2000
Gap handling : Appended to previous track

Used output format : User Defined Encoder
Selected bitrate : 1024 kBit/s
Quality : High
Add ID3 tag : No
Command line compressor : C:\Program Files (x86)\Exact Audio Copy\Flac\flac.exe
Additional command line options : -8 -e -p -V -T "ARTIST=%artist%" -T "TITLE=%title%" -T "ALBUM=%albumtitle%" -T "DATE=%year%" -T "TRACKNUMBER=%tracknr%" -T "GENRE=%genre%" -T "PERFORMER=%albuminterpret%" -T "COMPOSER=%composer%" %haslyrics%–tag-from-file=LYRICS="%lyricsfile%"%haslyrics% -T "ALBUMARTIST=%albumartist%" -T "DISCNUMBER=%cdnumber%" -T "TOTALDISCS=%totalcds%" -T "TOTALTRACKS=%numtracks%" -T "COMMENT=%comment%" %source% -o %dest%


TOC of the extracted CD

Track | Start | Length | Start sector | End sector
––––––––––––––––––––––––––––-
1 | 0:00.00 | 12:26.24 | 0 | 55973
2 | 12:26.24 | 9:04.67 | 55974 | 96840
3 | 21:31.16 | 5:30.72 | 96841 | 121662
4 | 27:02.13 | 9:12.09 | 121663 | 163071
5 | 36:14.22 | 4:49.21 | 163072 | 184767
6 | 41:03.43 | 5:22.03 | 184768 | 208920
7 | 46:25.46 | 11:07.03 | 208921 | 258948


Track 1

Filename E:\EAC\Dave Matthews Band - Live Trax Vol. 44 - 2016.9.4 - The Gorge Amphitheatre - George, WA (2017) [FLAC]\Disc 1\01. The Stone.wav

Pre-gap length 0:00:02.00

Peak level 90.6 %
Extraction speed 5.0 X
Track quality 99.9 %
Test CRC 2908630F
Copy CRC 2908630F
Track not present in AccurateRip database
Copy OK

Track 2

Filename E:\EAC\Dave Matthews Band - Live Trax Vol. 44 - 2016.9.4 - The Gorge Amphitheatre - George, WA (2017) [FLAC]\Disc 1\02. Proudest Monkey.wav

Peak level 91.9 %
Extraction speed 6.4 X
Track quality 100.0 %
Test CRC 7A5B043E
Copy CRC 7A5B043E
Track not present in AccurateRip database
Copy OK

Track 3

Filename E:\EAC\Dave Matthews Band - Live Trax Vol. 44 - 2016.9.4 - The Gorge Amphitheatre - George, WA (2017) [FLAC]\Disc 1\03. Crash Into Me.wav

Peak level 91.6 %
Extraction speed 6.8 X
Track quality 100.0 %
Test CRC 3314166B
Copy CRC 3314166B
Track not present in AccurateRip database
Copy OK

Track 4

Filename E:\EAC\Dave Matthews Band - Live Trax Vol. 44 - 2016.9.4 - The Gorge Amphitheatre - George, WA (2017) [FLAC]\Disc 1\04. Old Dirt Hill (Bring That Beat Back).wav

Peak level 90.1 %
Extraction speed 7.0 X
Track quality 99.9 %
Test CRC A09E27EC
Copy CRC A09E27EC
Track not present in AccurateRip database
Copy OK

Track 5

Filename E:\EAC\Dave Matthews Band - Live Trax Vol. 44 - 2016.9.4 - The Gorge Amphitheatre - George, WA (2017) [FLAC]\Disc 1\05. The Idea of You.wav

Peak level 90.2 %
Extraction speed 7.8 X
Track quality 100.0 %
Test CRC 4E56222D
Copy CRC 4E56222D
Track not present in AccurateRip database
Copy OK

Track 6

Filename E:\EAC\Dave Matthews Band - Live Trax Vol. 44 - 2016.9.4 - The Gorge Amphitheatre - George, WA (2017) [FLAC]\Disc 1\06. Burning Down the House.wav

Peak level 90.4 %
Extraction speed 7.1 X
Track quality 99.9 %
Test CRC D956C4E0
Copy CRC D956C4E0
Track not present in AccurateRip database
Copy OK

Track 7

Filename E:\EAC\Dave Matthews Band - Live Trax Vol. 44 - 2016.9.4 - The Gorge Amphitheatre - George, WA (2017) [FLAC]\Disc 1\07. #41.wav

Peak level 93.4 %
Extraction speed 9.3 X
Track quality 100.0 %
Test CRC 6A9E18DA
Copy CRC 6A9E18DA
Track not present in AccurateRip database
Copy OK


None of the tracks are present in the AccurateRip database

No errors occurred

End of status report

–– CUETools DB Plugin V2.1.6

[CTDB TOCID: X9IT8njOnkuRtAxae6rheD4y0pc-] disk not present in database
Submit result: X9IT8njOnkuRtAxae6rheD4y0pc- has been uploaded


==== Log checksum 2456EC87CE5014A263C448B68826B57611C6982B9A1683E36171418837F18F6C ====

Exact Audio Copy V1.3 from 2. September 2016

EAC extraction logfile from 2. December 2017, 15:35

Dave Matthews Band / Live Trax Vol. 44: The Gorge Amphitheatre - George, WA (2016.9.4)

Used drive : Optiarc BD RW BD-5300S Adapter: 1 ID: 0

Read mode : Secure
Utilize accurate stream : Yes
Defeat audio cache : Yes
Make use of C2 pointers : No

Read offset correction : 6
Overread into Lead-In and Lead-Out : No
Fill up missing offset samples with silence : Yes
Delete leading and trailing silent blocks : No
Null samples used in CRC calculations : Yes
Used interface : Native Win32 interface for Win NT & 2000
Gap handling : Appended to previous track

Used output format : User Defined Encoder
Selected bitrate : 1024 kBit/s
Quality : High
Add ID3 tag : No
Command line compressor : C:\Program Files (x86)\Exact Audio Copy\Flac\flac.exe
Additional command line options : -8 -e -p -V -T "ARTIST=%artist%" -T "TITLE=%title%" -T "ALBUM=%albumtitle%" -T "DATE=%year%" -T "TRACKNUMBER=%tracknr%" -T "GENRE=%genre%" -T "PERFORMER=%albuminterpret%" -T "COMPOSER=%composer%" %haslyrics%–tag-from-file=LYRICS="%lyricsfile%"%haslyrics% -T "ALBUMARTIST=%albumartist%" -T "DISCNUMBER=%cdnumber%" -T "TOTALDISCS=%totalcds%" -T "TOTALTRACKS=%numtracks%" -T "COMMENT=%comment%" %source% -o %dest%


TOC of the extracted CD

Track | Start | Length | Start sector | End sector
––––––––––––––––––––––––––––-
1 | 0:00.00 | 9:55.05 | 0 | 44629
2 | 9:55.05 | 11:02.60 | 44630 | 94339
3 | 20:57.65 | 7:13.67 | 94340 | 126881
4 | 28:11.57 | 3:42.61 | 126882 | 143592
5 | 31:54.43 | 12:35.00 | 143593 | 200217
6 | 44:29.43 | 14:44.08 | 200218 | 266525
7 | 59:13.51 | 9:29.48 | 266526 | 309248


Track 1

Filename E:\EAC\Dave Matthews Band - Live Trax Vol. 44 - 2016.9.4 - The Gorge Amphitheatre - George, WA (2017) [FLAC]\Disc 2\01. Say Goodbye.wav

Pre-gap length 0:00:02.00

Peak level 89.8 %
Extraction speed 5.0 X
Track quality 100.0 %
Test CRC 6CDDFBBE
Copy CRC 6CDDFBBE
Track not present in AccurateRip database
Copy OK

Track 2

Filename E:\EAC\Dave Matthews Band - Live Trax Vol. 44 - 2016.9.4 - The Gorge Amphitheatre - George, WA (2017) [FLAC]\Disc 2\02. So Damn Lucky.wav

Peak level 89.9 %
Extraction speed 6.3 X
Track quality 100.0 %
Test CRC 26ABAC39
Copy CRC 26ABAC39
Track not present in AccurateRip database
Copy OK

Track 3

Filename E:\EAC\Dave Matthews Band - Live Trax Vol. 44 - 2016.9.4 - The Gorge Amphitheatre - George, WA (2017) [FLAC]\Disc 2\03. Minarets.wav

Peak level 89.4 %
Extraction speed 6.1 X
Track quality 99.9 %
Test CRC 927DF6A7
Copy CRC 927DF6A7
Track not present in AccurateRip database
Copy OK

Track 4

Filename E:\EAC\Dave Matthews Band - Live Trax Vol. 44 - 2016.9.4 - The Gorge Amphitheatre - George, WA (2017) [FLAC]\Disc 2\04. Where Are You Going.wav

Peak level 89.5 %
Extraction speed 6.8 X
Track quality 100.0 %
Test CRC 5F29EEDC
Copy CRC 5F29EEDC
Track not present in AccurateRip database
Copy OK

Track 5

Filename E:\EAC\Dave Matthews Band - Live Trax Vol. 44 - 2016.9.4 - The Gorge Amphitheatre - George, WA (2017) [FLAC]\Disc 2\05. Rhyme & Reason.wav

Peak level 89.6 %
Extraction speed 8.2 X
Track quality 100.0 %
Test CRC 6B9E0CDA
Copy CRC 6B9E0CDA
Track not present in AccurateRip database
Copy OK

Track 6

Filename E:\EAC\Dave Matthews Band - Live Trax Vol. 44 - 2016.9.4 - The Gorge Amphitheatre - George, WA (2017) [FLAC]\Disc 2\06. Lie In Our Graves.wav

Peak level 89.5 %
Extraction speed 8.6 X
Track quality 99.9 %
Test CRC A7AC52DA
Copy CRC A7AC52DA
Track not present in AccurateRip database
Copy OK

Track 7

Filename E:\EAC\Dave Matthews Band - Live Trax Vol. 44 - 2016.9.4 - The Gorge Amphitheatre - George, WA (2017) [FLAC]\Disc 2\07. The Maker.wav

Peak level 91.0 %
Extraction speed 9.7 X
Track quality 100.0 %
Test CRC D6221EA9
Copy CRC D6221EA9
Track not present in AccurateRip database
Copy OK


None of the tracks are present in the AccurateRip database

No errors occurred

End of status report

–– CUETools DB Plugin V2.1.6

[CTDB TOCID: fT2PDEYPH4OtLU4.lmmYPmBK9FI-] disk not present in database
Submit result: fT2PDEYPH4OtLU4.lmmYPmBK9FI- has been uploaded


==== Log checksum 65EE795E544A326F1A311951EFD2A689C80F9C68CE6B45755B7E543D0C3B0240 ====


Exact Audio Copy V1.3 from 2. September 2016

EAC extraction logfile from 2. December 2017, 16:02

Dave Matthews Band / Live Trax Vol. 44: The Gorge Amphitheatre - George, WA (2016.9.4)

Used drive : Optiarc BD RW BD-5300S Adapter: 1 ID: 0

Read mode : Secure
Utilize accurate stream : Yes
Defeat audio cache : Yes
Make use of C2 pointers : No

Read offset correction : 6
Overread into Lead-In and Lead-Out : No
Fill up missing offset samples with silence : Yes
Delete leading and trailing silent blocks : No
Null samples used in CRC calculations : Yes
Used interface : Native Win32 interface for Win NT & 2000
Gap handling : Appended to previous track

Used output format : User Defined Encoder
Selected bitrate : 1024 kBit/s
Quality : High
Add ID3 tag : No
Command line compressor : C:\Program Files (x86)\Exact Audio Copy\Flac\flac.exe
Additional command line options : -8 -e -p -V -T "ARTIST=%artist%" -T "TITLE=%title%" -T "ALBUM=%albumtitle%" -T "DATE=%year%" -T "TRACKNUMBER=%tracknr%" -T "GENRE=%genre%" -T "PERFORMER=%albuminterpret%" -T "COMPOSER=%composer%" %haslyrics%–tag-from-file=LYRICS="%lyricsfile%"%haslyrics% -T "ALBUMARTIST=%albumartist%" -T "DISCNUMBER=%cdnumber%" -T "TOTALDISCS=%totalcds%" -T "TOTALTRACKS=%numtracks%" -T "COMMENT=%comment%" %source% -o %dest%


TOC of the extracted CD

Track | Start | Length | Start sector | End sector
––––––––––––––––––––––––––––-
1 | 0:00.00 | 8:14.13 | 0 | 37062
2 | 8:14.13 | 14:06.43 | 37063 | 100555
3 | 22:20.56 | 11:52.35 | 100556 | 153990
4 | 34:13.16 | 13:44.08 | 153991 | 215798
5 | 47:57.24 | 6:57.04 | 215799 | 247077
6 | 54:54.28 | 7:26.65 | 247078 | 280592


Track 1

Filename E:\EAC\Dave Matthews Band - Live Trax Vol. 44 - 2016.9.4 - The Gorge Amphitheatre - George, WA (2017) [FLAC]\Disc 3\01. You Might Die Trying.wav

Pre-gap length 0:00:02.00

Peak level 89.6 %
Extraction speed 4.9 X
Track quality 100.0 %
Test CRC 662B9D46
Copy CRC 662B9D46
Track not present in AccurateRip database
Copy OK

Track 2

Filename E:\EAC\Dave Matthews Band - Live Trax Vol. 44 - 2016.9.4 - The Gorge Amphitheatre - George, WA (2017) [FLAC]\Disc 3\02. Typical Situation.wav

Peak level 89.7 %
Extraction speed 6.0 X
Track quality 99.9 %
Test CRC 3096A489
Copy CRC 3096A489
Track not present in AccurateRip database
Copy OK

Track 3

Filename E:\EAC\Dave Matthews Band - Live Trax Vol. 44 - 2016.9.4 - The Gorge Amphitheatre - George, WA (2017) [FLAC]\Disc 3\03. The Last Stop.wav

Peak level 89.6 %
Extraction speed 7.0 X
Track quality 99.9 %
Test CRC 045F8C76
Copy CRC 045F8C76
Track not present in AccurateRip database
Copy OK

Track 4

Filename E:\EAC\Dave Matthews Band - Live Trax Vol. 44 - 2016.9.4 - The Gorge Amphitheatre - George, WA (2017) [FLAC]\Disc 3\04. Ants Marching.wav

Peak level 89.6 %
Extraction speed 8.6 X
Track quality 100.0 %
Test CRC FA183DE5
Copy CRC FA183DE5
Track not present in AccurateRip database
Copy OK

Track 5

Filename E:\EAC\Dave Matthews Band - Live Trax Vol. 44 - 2016.9.4 - The Gorge Amphitheatre - George, WA (2017) [FLAC]\Disc 3\05. Pig.wav

Peak level 89.7 %
Extraction speed 9.0 X
Track quality 100.0 %
Test CRC 07064B6E
Copy CRC 07064B6E
Track not present in AccurateRip database
Copy OK

Track 6

Filename E:\EAC\Dave Matthews Band - Live Trax Vol. 44 - 2016.9.4 - The Gorge Amphitheatre - George, WA (2017) [FLAC]\Disc 3\06. Stay (Wasting Time).wav

Peak level 89.7 %
Extraction speed 8.2 X
Track quality 99.9 %
Test CRC FE0DDD01
Copy CRC FE0DDD01
Track not present in AccurateRip database
Copy OK


None of the tracks are present in the AccurateRip database

No errors occurred

End of status report

–– CUETools DB Plugin V2.1.6

[CTDB TOCID: Dyl4BpYDjROm2NZjsfq0GZB.ANM-] disk not present in database
Submit result: Dyl4BpYDjROm2NZjsfq0GZB.ANM- has been uploaded


==== Log checksum 99694DD1C314211BA90B7608BE38E550FFF70CC879ED8B6515C06245E782A8EB ====

Exact Audio Copy V1.3 from 2. September 2016

EAC extraction logfile from 2. December 2017, 14:34

Dave Matthews Band / Encore Trax: The Gorge Extended

Used drive : Optiarc BD RW BD-5300S Adapter: 1 ID: 0

Read mode : Secure
Utilize accurate stream : Yes
Defeat audio cache : Yes
Make use of C2 pointers : No

Read offset correction : 6
Overread into Lead-In and Lead-Out : No
Fill up missing offset samples with silence : Yes
Delete leading and trailing silent blocks : No
Null samples used in CRC calculations : Yes
Used interface : Native Win32 interface for Win NT & 2000
Gap handling : Appended to previous track

Used output format : User Defined Encoder
Selected bitrate : 1024 kBit/s
Quality : High
Add ID3 tag : No
Command line compressor : C:\Program Files (x86)\Exact Audio Copy\Flac\flac.exe
Additional command line options : -8 -e -p -V -T "ARTIST=%artist%" -T "TITLE=%title%" -T "ALBUM=%albumtitle%" -T "DATE=%year%" -T "TRACKNUMBER=%tracknr%" -T "GENRE=%genre%" -T "PERFORMER=%albuminterpret%" -T "COMPOSER=%composer%" %haslyrics%–tag-from-file=LYRICS="%lyricsfile%"%haslyrics% -T "ALBUMARTIST=%albumartist%" -T "DISCNUMBER=%cdnumber%" -T "TOTALDISCS=%totalcds%" -T "TOTALTRACKS=%numtracks%" -T "COMMENT=%comment%" %source% -o %dest%


TOC of the extracted CD

Track | Start | Length | Start sector | End sector
––––––––––––––––––––––––––––-
1 | 0:00.00 | 5:48.00 | 0 | 26099
2 | 5:48.00 | 5:19.55 | 26100 | 50079
3 | 11:07.55 | 4:11.27 | 50080 | 68931
4 | 15:19.07 | 10:42.44 | 68932 | 117125
5 | 26:01.51 | 7:35.20 | 117126 | 151270
6 | 33:36.71 | 5:53.38 | 151271 | 177783
7 | 39:30.34 | 6:45.19 | 177784 | 208177
8 | 46:15.53 | 4:08.29 | 208178 | 226806


Track 1

Filename E:\EAC\Dave Matthews Band - Encore Trax - The Gorge Extended (Warehouse Edition) Bonus Disc (2017) [FLAC]\01. Big Eyed Fish.wav

Pre-gap length 0:00:02.00

Peak level 99.5 %
Extraction speed 2.1 X
Track quality 100.0 %
Test CRC 13C6CAC0
Copy CRC 13C6CAC0
Track not present in AccurateRip database
Copy OK

Track 2

Filename E:\EAC\Dave Matthews Band - Encore Trax - The Gorge Extended (Warehouse Edition) Bonus Disc (2017) [FLAC]\02. Satellite.wav

Peak level 99.7 %
Extraction speed 2.4 X
Track quality 100.0 %
Test CRC 6F0A6A38
Copy CRC 6F0A6A38
Track not present in AccurateRip database
Copy OK

Track 3

Filename E:\EAC\Dave Matthews Band - Encore Trax - The Gorge Extended (Warehouse Edition) Bonus Disc (2017) [FLAC]\03. Granny.wav

Peak level 100.0 %
Extraction speed 2.5 X
Track quality 100.0 %
Test CRC F734759E
Copy CRC F734759E
Track not present in AccurateRip database
Copy OK

Track 4

Filename E:\EAC\Dave Matthews Band - Encore Trax - The Gorge Extended (Warehouse Edition) Bonus Disc (2017) [FLAC]\04. Recently.wav

Peak level 99.6 %
Extraction speed 3.1 X
Track quality 100.0 %
Test CRC F93E7F3A
Copy CRC F93E7F3A
Track not present in AccurateRip database
Copy OK

Track 5

Filename E:\EAC\Dave Matthews Band - Encore Trax - The Gorge Extended (Warehouse Edition) Bonus Disc (2017) [FLAC]\05. Cry Freedom.wav

Peak level 99.5 %
Extraction speed 3.4 X
Track quality 100.0 %
Test CRC 8FD0BB19
Copy CRC 8FD0BB19
Track not present in AccurateRip database
Copy OK

Track 6

Filename E:\EAC\Dave Matthews Band - Encore Trax - The Gorge Extended (Warehouse Edition) Bonus Disc (2017) [FLAC]\06. Rooftop.wav

Peak level 100.0 %
Extraction speed 3.6 X
Track quality 100.0 %
Test CRC E2F27BC2
Copy CRC E2F27BC2
Track not present in AccurateRip database
Copy OK

Track 7

Filename E:\EAC\Dave Matthews Band - Encore Trax - The Gorge Extended (Warehouse Edition) Bonus Disc (2017) [FLAC]\07. One Sweet World.wav

Peak level 99.4 %
Extraction speed 3.8 X
Track quality 100.0 %
Test CRC 48B1C922
Copy CRC 48B1C922
Track not present in AccurateRip database
Copy OK

Track 8

Filename E:\EAC\Dave Matthews Band - Encore Trax - The Gorge Extended (Warehouse Edition) Bonus Disc (2017) [FLAC]\08. Why I Am.wav

Peak level 99.5 %
Extraction speed 3.8 X
Track quality 100.0 %
Test CRC 8EDBCE61
Copy CRC 8EDBCE61
Track not present in AccurateRip database
Copy OK


None of the tracks are present in the AccurateRip database

No errors occurred

End of status report

–– CUETools DB Plugin V2.1.6

[CTDB TOCID: KP_qNJFKhFZenUcAR2tZfIX3LUU-] disk not present in database
Submit result: KP_qNJFKhFZenUcAR2tZfIX3LUU- has been uploaded


==== Log checksum 2286F17694DAE4F8A05986F3121CFED254E9B9D89286A62FEC64E82F88F225DD ====


Thanks to the Original customer.