Subcategories

Liza Minnelli - Results (1989) with Pet Shop Boys [Non-Remastered, US Press] Re-Up

Posted By: Designol
Liza Minnelli - Results (1989) with Pet Shop Boys [Non-Remastered, US Press] Re-Up

Liza Minnelli - Results (1989) with Pet Shop Boys
EAC | FLAC | Image (Cue&Log) ~ 307 Mb | Mp3 (CBR320) ~ 119 Mb | Scans included
Pop, Electronic, Synthpop | Label: Epic | # EK 45098 | Time: 00:45:28

Liza Minnelli's career as a recording artist essentially lapsed after the commercial failure of her 1977 album Tropical Nights, but recording was never one of her real priorities, taking a back seat to her work as a live performer and film star. After early records on which she was positioned as a middle-of-the-road pop singer in the '60s, she made some attempts to perform contemporary, rock-informed material, but her heart wasn't in that, and eventually she contented herself with occasionally updating her stage act on record, notably with 1987's Liza Minnelli at Carnegie Hall. Thus, Results, her first studio album in 12 years, seemed to come out of the blue. And for Minnelli's old-time fans, it was very different from what they might have expected. Simply put, the album was a Pet Shop Boys electronic dance disc with Minnelli serving as vocalist. Pet Shop Boys, the duo of Neil Tennant and Chris Lowe, were all over the record, writing seven of the songs (including a cover of their hit "Rent"), producing, and contributing synthesizer programming, with Tennant even chiming in on vocals here and there. Although they did place Minnelli in front of an orchestra on "Tonight Is Forever" and give her a jazzy arrangement for "I Can't Say Goodnight" at the end of the disc, for the most part the singer was swamped by the electronically generated beats and sounds. Sometimes, as on "Love Pains," she was even forced to compete with other female voices more accustomed to making themselves heard through such arrangements. Among the more interesting, if odd, tracks was a version of Stephen Sondheim's "Losing My Mind" from the musical Follies, which might have seemed a good song choice for a more conventional Minnelli collection, but that here was made to sound like Laura Branigan's 1982 hit "Gloria." That track, released in advance of the album, hit the Top Ten in the U.K. and made the dance charts in the U.S. The full LP made the U.S. charts, but its greatest success occurred in Great Britain, where it made the Top Ten and threw off three more chart singles. It was, however, a one-off. Pet Shop Boys went back to their career, and Minnelli went back to singing "Cabaret" in theaters around the world. Although she held her own against the arrangements, Results is more a Pet Shop Boys album than a Liza Minnelli disc.

Review by William Ruhlmann, Allmusic.com

Liza Minnelli at Allmusic
Liza Minnelli at Wiki

Tracklist:

01. I Want You Now (04:41)
02. Losing My Mind (04:11)
03. If There Was Love (06:47)
04. So Sorry, I Said (03:14)
05. Don't Drop Bombs (03:39)
06. Twist In My Sobriety (04:51)
07. Rent (03:54)
08. Love Pains (04:11)
09. Tonight Is Forever (05:04)
10. I Can't Say Goodnight (04:53)


Exact Audio Copy V1.0 beta 1 from 15. November 2010

Отчёт EAC об извлечении, выполненном 18. мая 2011, 20:24

Liza Minelli / Results

Дисковод: PIONEER DVD-RW DVRKD08RS Adapter: 0 ID: 0

Режим чтения : Достоверность
Использование точного потока : Да
Отключение кэша аудио : Да
Использование указателей C2 : Нет

Коррекция смещения при чтении : 48
Способность читать области Lead-in и Lead-out : Нет
Заполнение пропущенных сэмплов тишиной : Да
Удаление блоков с тишиной в начале и конце : Нет
При вычислениях CRC использовались нулевые сэмплы : Да
Интерфейс : Встроенный Win32-интерфейс для Win NT/2000

Выходной формат : Monkey's Audio (без потерь)
Выбранный битрейт : Normal Lossless Compression
Качество : Высокий
Добавление ID3-тега : Нет
Утилита сжатия : C:\Program Files (x86)\Monkey's Audio\MAC.exe


TOC извлечённого CD

Трек | Старт | Длительность | Начальный сектор | Конечный сектор
––––––––––––––––––––––––––––––––––-
1 | 0:00.00 | 4:41.37 | 0 | 21111
2 | 4:41.37 | 4:11.58 | 21112 | 39994
3 | 8:53.20 | 6:47.10 | 39995 | 70529
4 | 15:40.30 | 3:14.25 | 70530 | 85104
5 | 18:54.55 | 3:39.07 | 85105 | 101536
6 | 22:33.62 | 4:51.38 | 101537 | 123399
7 | 27:25.25 | 3:54.40 | 123400 | 140989
8 | 31:19.65 | 4:11.02 | 140990 | 159816
9 | 35:30.67 | 5:04.18 | 159817 | 182634
10 | 40:35.10 | 4:53.57 | 182635 | 204666


Характеристики диапазона извлечения и сообщения об ошибках

Выбранный диапазон

Имя файла C:\Users\Sermin\Music\EAC\Liza Minelli - Results.wav

Пиковый уровень 97.7 %
Скорость извлечения 0.4 X
Качество диапазона 99.9 %
CRC теста EC247B5C
CRC копии EC247B5C
Копирование… OK

Ошибок не произошло


AccurateRip: сводка

Трек 1 : извлечено точно (доверие 3) [84DB810C]
Трек 2 : извлечено точно (доверие 3) [010DBC2C]
Трек 3 : извлечено точно (доверие 3) [1EC816F7]
Трек 4 : извлечено точно (доверие 3) [FD9DA206]
Трек 5 : извлечено точно (доверие 3) [8B9A9FD3]
Трек 6 : извлечено точно (доверие 3) [7629909F]
Трек 7 : извлечено точно (доверие 3) [670EE658]
Трек 8 : извлечено точно (доверие 3) [5375D5B5]
Трек 9 : извлечено точно (доверие 3) [E345AD69]
Трек 10 : извлечено точно (доверие 2) [C809F408]

Все треки извлечены точно

Конец отчёта

[CUETools log; Date: 23.02.2018 0:59:27; Version: 2.1.4]
[CTDB TOCID: IwMm4uLQ9SPGiZXP..RIOHv4f_s-] found.
Track | CTDB Status
1 | ( 8/12) Accurately ripped
2 | ( 8/12) Accurately ripped
3 | ( 8/12) Accurately ripped
4 | ( 8/12) Accurately ripped
5 | ( 8/12) Accurately ripped
6 | ( 8/12) Accurately ripped
7 | ( 8/12) Accurately ripped
8 | ( 8/12) Accurately ripped
9 | ( 8/12) Accurately ripped
10 | ( 8/12) Accurately ripped
[AccurateRip ID: 00113d3c-008920d5-800aa80a] found.
Track [ CRC | V2 ] Status
01 [84db810c|6328a6fc] (03+00/16) Accurately ripped
02 [010dbc2c|1c37a9c7] (03+00/18) Accurately ripped
03 [1ec816f7|b658e290] (03+00/16) Accurately ripped
04 [fd9da206|ef9840c1] (03+00/18) Accurately ripped
05 [8b9a9fd3|d97533b6] (03+00/16) Accurately ripped
06 [7629909f|376e58a1] (03+00/16) Accurately ripped
07 [670ee658|78231744] (03+00/16) Accurately ripped
08 [5375d5b5|1040c784] (03+00/16) Accurately ripped
09 [e345ad69|d69c0842] (03+00/16) Accurately ripped
10 [c809f408|01ba316e] (02+00/15) Accurately ripped
Offsetted by -778:
01 [b20c1b8d] (00/16) No match (V2 was not tested)
02 [2e1fd989] (00/18) No match (V2 was not tested)
03 [de0193b9] (00/16) No match (V2 was not tested)
04 [1310d768] (00/18) No match (V2 was not tested)
05 [e2927be1] (00/16) No match (V2 was not tested)
06 [c5960ca6] (00/16) No match (V2 was not tested)
07 [731f37c7] (00/16) No match (V2 was not tested)
08 [e4979f59] (00/16) No match (V2 was not tested)
09 [2bb74525] (00/16) No match (V2 was not tested)
10 [3b0a446a] (00/15) No match (V2 was not tested)
Offsetted by -659:
01 [e42c4acb] (00/16) No match
02 [3c17d2dc] (02/18) Accurately ripped
03 [c9cf98f4] (00/16) No match
04 [6de4910d] (02/18) Accurately ripped
05 [39a13854] (00/16) No match
06 [5adef0dc] (00/16) No match
07 [2592c9fd] (00/16) No match
08 [01863667] (00/16) No match
09 [0437f2e1] (00/16) No match
10 [d75fb4a8] (00/15) No match
Offsetted by 1018:
01 [84104bf2] (00/16) No match (V2 was not tested)
02 [2dc32bd0] (00/18) No match (V2 was not tested)
03 [8897c68d] (00/16) No match (V2 was not tested)
04 [1c1e9374] (00/18) No match (V2 was not tested)
05 [87b5ba75] (00/16) No match (V2 was not tested)
06 [bf45c1a7] (00/16) No match (V2 was not tested)
07 [832130c6] (00/16) No match (V2 was not tested)
08 [d040445b] (00/16) No match (V2 was not tested)
09 [b7decde0] (00/16) No match (V2 was not tested)
10 [7de34c75] (00/15) No match (V2 was not tested)

Track Peak [ CRC32 ] [W/O NULL] [ LOG ]
– 97,7 [EC247B5C] [6BCCBE94] CRC32
01 96,9 [0EBBDEBA] [D040265F]
02 97,7 [09D66DE2] [E8CB031B]
03 86,4 [68FB43CB] [B0FA8968]
04 83,5 [05B25D41] [2431B5DA]
05 95,4 [6E65F5CB] [D503D387]
06 97,7 [A0C79819] [66E20B4D]
07 78,5 [96F29CFE] [6A4A26B0]
08 93,1 [0A5E6CB9] [83A4B2BD]
09 70,6 [4B853B8D] [A4917777]
10 89,8 [99682076] [F978BB47]

foobar2000 1.2 / Dynamic Range Meter 1.1.1
log date: 2018-02-23 01:00:39

––––––––––––––––––––––––––––––––––––––––
Analyzed: Liza Minelli / Results
––––––––––––––––––––––––––––––––––––––––

DR Peak RMS Duration Track
––––––––––––––––––––––––––––––––––––––––
DR12 -0.27 dB -14.18 dB 4:41 01-I Want You Now
DR12 -0.20 dB -13.81 dB 4:12 02-Losing My Mind
DR13 -1.26 dB -16.46 dB 6:47 03-If There Was Love
DR12 -1.56 dB -16.92 dB 3:14 04-So Sorry, I Said
DR12 -0.40 dB -13.58 dB 3:39 05-Don't Drop Bombs
DR12 -0.20 dB -14.56 dB 4:52 06-Twist In My Sobriety
DR10 -2.10 dB -15.92 dB 3:55 07-Rent
DR12 -0.62 dB -14.82 dB 4:11 08-Love Pains
DR11 -3.02 dB -17.83 dB 5:04 09-Tonight Is Forever
DR12 -0.93 dB -14.38 dB 4:54 10-I Can't Say Goodnight
––––––––––––––––––––––––––––––––––––––––

Number of tracks: 10
Official DR value: DR12

Samplerate: 44100 Hz
Channels: 2
Bits per sample: 16
Bitrate: 897 kbps
Codec: FLAC
================================================================================

Liza Minnelli - Results (1989) with Pet Shop Boys [Non-Remastered, US Press] Re-Up

Liza Minnelli - Results (1989) with Pet Shop Boys [Non-Remastered, US Press] Re-Up