Subcategories

VA - Lives (1997) {The Billy Tipton Memorial Saxophone Quartet, Pointless Orchestra, etc.} **[RE-UP]**

Posted By: TestTickles
VA - Lives (1997) {The Billy Tipton Memorial Saxophone Quartet, Pointless Orchestra, etc.} **[RE-UP]**

VA - Lives (1997) {Proving Ground Productions/Without Fear}
EAC Rip | FLAC with CUE and log | scans | 357 mb
MP3 CBR 320kbps | RAR | 159 mb
Genre: free jazz, improvisational jazz

A compilation taking a look at some of the best music and performances from the "Pointless Night Out" concert series in 1997. New jazz, free jazz, improvisation, you will find all of this here. This was released by Proving Ground Productions/Without Fear.

This album is a live compilation of music from the Billy Tipton Memorial Saxophone Quartet, Pointless Orchestra, New Family, Siamese Twins, John Hajeski and Umbilical Trio. In their different styles, many of these artists follow a given common path. Taking the most experimental areas of Jazz as their main starting point, the musicians break with many moulds and explore new musical continents. Touches of New Music are present, and even come to have a leading role in different parts of the album. This is the case of such pieces as for instance "Improvisation Excerpt 1" and "Improvisation Excerpt 2" by Siamese Twins. Likewise, certain traits of World Music can be detected in some pieces, such as for instance "Az Du Furst Avec" by the Billy Tipton Memorial Saxophone Quartet, and "Obligatory abstract piece" by the Pointless Orchestra. There also are mysterious passages, including the theme "Yet another abstract piece" by the Pointless Orchestra. Though there are slow parts, much of the music has a lively rhythm. Prophetic urban folklore, or oniric surrealism as real as life itself, the fact is that the music has a pleasant freshness.

VA - Lives (1997) {The Billy Tipton Memorial Saxophone Quartet, Pointless Orchestra, etc.} **[RE-UP]**

01. The Umbilical Trio - Mojo's Rhythm
02. Billy Tipton Memorial Saxophone Quartet - Az Du Furst Avec
03. The New Family - Inspired Relations
04. Siamese Twins - Improvisation Excerpt #1
05. Pointless Orchestra - Obligatory Abstract Piece
06. John Hajeski - Rabbit Ears
07. Siamese Twins - Improvisation Excerpt #2
08. Pointless Orchestra - Yet Another Abstract Piece
09. Billy Tipton Memorial Saxophone Quartet - Air Drone
10. The Umbilical Trio - Running

EAC extraction logfile from 22. June 2006, 15:59 for CD
Various / Lives

Used drive : LITE-ON DVDRW SOHW-1633S Adapter: 0 ID: 0
Read mode : Secure with NO C2, accurate stream, disable cache
Read offset correction : 12
Overread into Lead-In and Lead-Out : No

Used output format : Internal WAV Routines
44.100 Hz; 16 Bit; Stereo

Other options :
Fill up missing offset samples with silence : Yes
Delete leading and trailing silent blocks : No
Installed external ASPI interface


Track 1
Filename D:\FLAC\VA - Lives (1997) [FLAC]\01 - The Umbilical Trio - Mojo's Rhythm.wav

Pre-gap length 0:00:02.00

Peak level 96.6 %
Track quality 100.0 %
Test CRC AEF90DED
Copy CRC AEF90DED
Copy OK

Track 2
Filename D:\FLAC\VA - Lives (1997) [FLAC]\02 - Billy Tipton Memorial Saxophone Quartet - Az Du Furst Avec.wav

Pre-gap length 0:00:02.60

Peak level 96.6 %
Track quality 100.0 %
Test CRC 47236CD8
Copy CRC 47236CD8
Copy OK

Track 3
Filename D:\FLAC\VA - Lives (1997) [FLAC]\03 - The New Family - Inspired Relations.wav

Pre-gap length 0:00:02.60

Peak level 96.6 %
Track quality 100.0 %
Test CRC 7A7AAD71
Copy CRC 7A7AAD71
Copy OK

Track 4
Filename D:\FLAC\VA - Lives (1997) [FLAC]\04 - Siamese Twins - Improvisation Excerpt #1.wav

Pre-gap length 0:00:02.60

Peak level 96.6 %
Track quality 100.0 %
Test CRC 014A6035
Copy CRC 014A6035
Copy OK

Track 5
Filename D:\FLAC\VA - Lives (1997) [FLAC]\05 - Pointless Orchestra - Obligatory Abstract Piece.wav

Pre-gap length 0:00:02.60

Peak level 96.6 %
Track quality 100.0 %
Test CRC 9244D246
Copy CRC 9244D246
Copy OK

Track 6
Filename D:\FLAC\VA - Lives (1997) [FLAC]\06 - John Hajeski - Rabbit Ears.wav

Pre-gap length 0:00:02.60

Peak level 96.6 %
Track quality 100.0 %
Test CRC 61B2EEBD
Copy CRC 61B2EEBD
Copy OK

Track 7
Filename D:\FLAC\VA - Lives (1997) [FLAC]\07 - Siamese Twins - Improvisation Excerpt #2.wav

Pre-gap length 0:00:02.60

Peak level 96.6 %
Track quality 100.0 %
Test CRC A1DF3324
Copy CRC A1DF3324
Copy OK

Track 8
Filename D:\FLAC\VA - Lives (1997) [FLAC]\08 - Pointless Orchestra - Yet Another Abstract Piece.wav

Pre-gap length 0:00:02.60

Peak level 96.6 %
Track quality 100.0 %
Test CRC 5204009D
Copy CRC 5204009D
Copy OK

Track 9
Filename D:\FLAC\VA - Lives (1997) [FLAC]\09 - Billy Tipton Memorial Saxophone Quartet - Air Drone.wav

Peak level 96.6 %
Track quality 100.0 %
Test CRC 2B0DA5B1
Copy CRC 2B0DA5B1
Copy OK

Track 10
Filename D:\FLAC\VA - Lives (1997) [FLAC]\10 - The Umbilical Trio - Running.wav

Pre-gap length 0:00:02.60

Peak level 96.6 %
Track quality 100.0 %
Test CRC B5C84836
Copy CRC B5C84836
Copy OK

No errors occured


End of status report


VA - Lives (1997) {The Billy Tipton Memorial Saxophone Quartet, Pointless Orchestra, etc.} **[RE-UP]**