Subcategories

Lollapalooza Brazil 2019 [12 x HDTV, 1080i/1080p]

Posted By: v3122
Lollapalooza Brazil 2019 [12 x HDTV, 1080i/1080p]

Lollapalooza Brazil 2019
12xHDTV: MPEG4 Video (H264) 1920x1080 29.97fps
Dolby AC3 48000Hz, 6ch, 384kbps / MPEG Audio 48000Hz, stereo, 192kbps
Pop, Synth-pop, Hip-Hop, Rock, Metal | ~ 79.81 Gb

~ Arctic Monkeys, Bring Me The Horizon, Foals, Greta Van Fleet, Portugal. The Man, Sam Smith, Snow Patrol, The 1975, Tribalistas, Troye Sivan, Twenty One Pilots, Years & Years ~

Lollapalooza /ˌlɒləpəˈluːzə/ is an annual 4-day music festival based in Chicago, Illinois at Grant Park. Performances include but are not limited to alternative rock, heavy metal, punk rock, hip hop, and electronic music. Lollapalooza has also provided a platform for non-profit and political groups and various visual artists. The music festival hosts more than 160,000 people each year.

Conceived and created in 1991 by Jane's Addiction singer Perry Farrell as a farewell tour for his band, Lollapalooza ran annually until 1997, and was revived in 2003. From its inception through 1997 and its revival in 2003, the festival toured North America. In 2004, the festival organizers decided to expand the dates to two days per city, but poor ticket sales forced the 2004 tour to be cancelled.

In 2005, Farrell and the William Morris Agency partnered with Austin, Texas–based company Capital Sports Entertainment (now C3 Presents) and retooled it into its current format as a weekend destination festival in Chicago at Grant Park. In 2014, Live Nation Entertainment bought a controlling interest in C3 Presents.

In 2010 it was announced that Lollapalooza would debut outside the United States, with a branch of the festival staged in Chile's capital Santiago on April 2–3, 2011 where they partnered up with Santiago-based company Lotus. In 2011, the company Geo Events confirmed the Brazilian version of the event, which was held at the Jockey Club in São Paulo on 7 and 8 April 2012. In September 2013, Buenos Aires was selected as the third Lollapalooza in South America, starting on April 2014, and in November 2014, the first European Lollapalooza was announced, which was held at the former Tempelhof Airport in Berlin…

~ wiki
Lollapalooza Brazil 2019:


Tracklist 01 - Arctic Monkeys:
Indie Rock | MPEG4 Video (H264) 1920x1080 29.97fps | Dolby AC3 48000Hz 6ch 384kbps / MPEG Audio 48000Hz stereo 192kbps

Do I Wanna Know?
Brianstorm
Snap Out of It
Don't Sit Down 'Cause I've Moved Your Chair
One Point Perspective
I Bet You Look Good on the Dancefloor
Library Pictures
Knee Socks
The Ultracheese
Teddy Picker
Dancing Shoes
Why'd You Only Call Me When You're High?
Cornerstone
505 (With "The Jam of Boston" ("… more )
Tranquility Base Hotel + Casino
Crying Lightning
Pretty Visitors
Four Out of Five

General
ID : 1 (0x1)
Complete name : E:\TR2\URGENT UrGENT\01. VD\Arctic Monkeys - Lollapalooza Brazil 2019.ts
Format : MPEG-TS
File size : 9.33 GiB
Duration : 1h 39mn
Overall bit rate mode : Variable
Overall bit rate : 13.5 Mbps

Video
ID : 1328 (0x530)
Menu ID : 542 (0x21E)
Format : AVC
Format/Info : Advanced Video Codec
Format profile : High@L4.0
Format settings, CABAC : Yes
Format settings, ReFrames : 4 frames
Codec ID : 27
Duration : 1h 39mn
Bit rate : 12.2 Mbps
Width : 1 920 pixels
Height : 1 080 pixels
Display aspect ratio : 16:9
Frame rate : 29.970 fps
Color space : YUV
Chroma subsampling : 4:2:0
Bit depth : 8 bits
Scan type : MBAFF
Bits/(Pixel*Frame) : 0.197
Stream size : 8.46 GiB (91%)

Audio #1
ID : 1329 (0x531)
Menu ID : 542 (0x21E)
Format : AC-3
Format/Info : Audio Coding 3
Mode extension : CM (complete main)
Format settings, Endianness : Big
Codec ID : 129
Duration : 1h 39mn
Bit rate mode : Constant
Bit rate : 384 Kbps
Channel(s) : 6 channels
Channel positions : Front: L C R, Side: L R, LFE
Sampling rate : 48.0 KHz
Bit depth : 16 bits
Compression mode : Lossy
Delay relative to video : -67ms
Stream size : 272 MiB (3%)
Language : Portuguese

Audio #2
ID : 1330 (0x532)
Menu ID : 542 (0x21E)
Format : MPEG Audio
Format version : Version 1
Format profile : Layer 2
Mode : Joint stereo
Mode extension : Intensity Stereo + MS Stereo
Codec ID : 3
Duration : 1h 39mn
Bit rate mode : Constant
Bit rate : 192 Kbps
Channel(s) : 2 channels
Sampling rate : 48.0 KHz
Compression mode : Lossy
Delay relative to video : -67ms
Stream size : 136 MiB (1%)
Language : English



Tracklist 02 - Bring Me The Horizon:
Alternative Metal, Metalcore | MPEG4 Video (H264) 1920x1080 29.97fps | Dolby AC3 48000Hz 6ch 384kbps / MPEG Audio 48000Hz stereo 192kbps

MANTRA
The House of Wolves
Happy Song
Mother Tongue
Shadow Moses
Wonderful Life
Follow You
Can You Feel My Heart
Nihilist Blues
Drown
Medicine
Throne

General
ID : 1 (0x1)
Complete name : E:\TR2\URGENT UrGENT\01. VD\Bring Me The Horizon - Lollapalooza Brazil 2019.ts
Format : MPEG-TS
File size : 4.63 GiB
Duration : 58mn 24s
Overall bit rate mode : Variable
Overall bit rate : 11.3 Mbps

Video
ID : 1328 (0x530)
Menu ID : 542 (0x21E)
Format : AVC
Format/Info : Advanced Video Codec
Format profile : High@L4.0
Format settings, CABAC : Yes
Format settings, ReFrames : 4 frames
Format settings, GOP : M=4, N=32
Codec ID : 27
Duration : 58mn 24s
Bit rate : 10.2 Mbps
Width : 1 920 pixels
Height : 1 080 pixels
Display aspect ratio : 16:9
Frame rate : 29.970 fps
Color space : YUV
Chroma subsampling : 4:2:0
Bit depth : 8 bits
Scan type : MBAFF
Bits/(Pixel*Frame) : 0.164
Stream size : 4.16 GiB (90%)

Audio #1
ID : 1329 (0x531)
Menu ID : 542 (0x21E)
Format : AC-3
Format/Info : Audio Coding 3
Mode extension : CM (complete main)
Format settings, Endianness : Big
Codec ID : 129
Duration : 58mn 24s
Bit rate mode : Constant
Bit rate : 384 Kbps
Channel(s) : 6 channels
Channel positions : Front: L C R, Side: L R, LFE
Sampling rate : 48.0 KHz
Bit depth : 16 bits
Compression mode : Lossy
Stream size : 160 MiB (3%)
Language : Portuguese

Audio #2
ID : 1330 (0x532)
Menu ID : 542 (0x21E)
Format : MPEG Audio
Format version : Version 1
Format profile : Layer 2
Mode : Joint stereo
Mode extension : Intensity Stereo + MS Stereo
Codec ID : 3
Duration : 58mn 24s
Bit rate mode : Constant
Bit rate : 192 Kbps
Channel(s) : 2 channels
Sampling rate : 48.0 KHz
Compression mode : Lossy
Stream size : 80.2 MiB (2%)
Language : English



Tracklist 03 - Foals:
Indie Rock | MPEG4 Video (H264) 1920x1080 29.97fps | MPEG Audio 48000Hz stereo 192kbps

Mountain at My Gates
On the Luna
Olympic Airways
My Number
In Degrees
Spanish Sahara
Syrups
Inhaler
What Went Down
Two Steps, Twice

General
ID : 1 (0x1)
Complete name : E:\TR2\URGENT UrGENT\01. VD\Foals - Lollapalooza Brazil 2019.ts
Format : MPEG-TS
File size : 5.11 GiB
Duration : 53mn 54s
Overall bit rate mode : Variable
Overall bit rate : 13.6 Mbps

Video
ID : 1328 (0x530)
Menu ID : 1336 (0x538)
Format : AVC
Format/Info : Advanced Video Codec
Format profile : High@L4.0
Format settings, CABAC : Yes
Format settings, ReFrames : 4 frames
Codec ID : 27
Duration : 53mn 54s
Bit rate : 12.7 Mbps
Width : 1 920 pixels
Height : 1 080 pixels
Display aspect ratio : 16:9
Frame rate : 29.970 fps
Color space : YUV
Chroma subsampling : 4:2:0
Bit depth : 8 bits
Scan type : MBAFF
Bits/(Pixel*Frame) : 0.204
Stream size : 4.79 GiB (94%)

Audio
ID : 1330 (0x532)
Menu ID : 1336 (0x538)
Format : MPEG Audio
Format version : Version 1
Format profile : Layer 2
Mode : Joint stereo
Mode extension : Intensity Stereo + MS Stereo
Codec ID : 3
Duration : 53mn 54s
Bit rate mode : Constant
Bit rate : 192 Kbps
Channel(s) : 2 channels
Sampling rate : 48.0 KHz
Compression mode : Lossy
Stream size : 74.0 MiB (1%)
Language : English



Tracklist 04 - Greta Van Fleet:
Hard rock, Blues rock | MPEG4 Video (H264) 1920x1080 29.97fps | Dolby AC3 48000Hz 6ch 384kbps / MPEG Audio 48000Hz stereo 192kbps

The Cold Wind
Safari Song
Black Smoke Rising
Flower Power
Watch Me (Labi Siffre cover)
Black Flag Exposition
Watching Over
Edge of Darkness
Highway Tune

General
ID : 1 (0x1)
Complete name : E:\TR2\URGENT UrGENT\01. VD\Greta Van Fleet - Lollapalooza Brazil 2019.ts
Format : MPEG-TS
File size : 5.99 GiB
Duration : 1h 2mn
Overall bit rate mode : Variable
Overall bit rate : 13.7 Mbps

Video
ID : 1328 (0x530)
Menu ID : 542 (0x21E)
Format : AVC
Format/Info : Advanced Video Codec
Format profile : High@L4.0
Format settings, CABAC : Yes
Format settings, ReFrames : 4 frames
Codec ID : 27
Duration : 1h 2mn
Bit rate : 12.4 Mbps
Width : 1 920 pixels
Height : 1 080 pixels
Display aspect ratio : 16:9
Frame rate : 29.970 fps
Color space : YUV
Chroma subsampling : 4:2:0
Bit depth : 8 bits
Scan type : MBAFF
Bits/(Pixel*Frame) : 0.200
Stream size : 5.44 GiB (91%)

Audio #1
ID : 1329 (0x531)
Menu ID : 542 (0x21E)
Format : AC-3
Format/Info : Audio Coding 3
Mode extension : CM (complete main)
Format settings, Endianness : Big
Codec ID : 129
Duration : 1h 2mn
Bit rate mode : Constant
Bit rate : 384 Kbps
Channel(s) : 6 channels
Channel positions : Front: L C R, Side: L R, LFE
Sampling rate : 48.0 KHz
Bit depth : 16 bits
Compression mode : Lossy
Delay relative to video : -67ms
Stream size : 172 MiB (3%)
Language : Portuguese

Audio #2
ID : 1330 (0x532)
Menu ID : 542 (0x21E)
Format : MPEG Audio
Format version : Version 1
Format profile : Layer 2
Mode : Joint stereo
Mode extension : Intensity Stereo + MS Stereo
Codec ID : 3
Duration : 1h 2mn
Bit rate mode : Constant
Bit rate : 192 Kbps
Channel(s) : 2 channels
Sampling rate : 48.0 KHz
Compression mode : Lossy
Delay relative to video : -67ms
Stream size : 86.1 MiB (1%)
Language : English



Tracklist 05 - Portugal. The Man:
Indie, Progressive, Experimental Rock | MPEG4 Video (H264) 1920x1080 29.97fps | MPEG Audio 48000Hz stereo 192kbps
For Whom the Bell Tolls (Metallica cover) (Instrumental Jam)
Purple Yellow Red and Blue (contains elements of "Another… more )
Number One
Live in the Moment
Creep in a T-Shirt (contains elements of "… more )
Atomic Man (contains elements of "Gimme… more )
Modern Jesus
All Your Light (Times Like These) (contains elements of "The… more )
Holy Roller (Hallelujah)
Feel It Still

General
ID : 1 (0x1)
Complete name : E:\TR2\URGENT UrGENT\01. VD\Portugal. The Man - Lollapalooza Brazil 2019.ts
Format : MPEG-TS
File size : 5.38 GiB
Duration : 57mn 41s
Overall bit rate mode : Variable
Overall bit rate : 13.4 Mbps

Video
ID : 1328 (0x530)
Menu ID : 1336 (0x538)
Format : AVC
Format/Info : Advanced Video Codec
Format profile : High@L4.0
Format settings, CABAC : Yes
Format settings, ReFrames : 4 frames
Format settings, GOP : M=4, N=32
Codec ID : 27
Duration : 57mn 41s
Bit rate : 12.5 Mbps
Width : 1 920 pixels
Height : 1 080 pixels
Display aspect ratio : 16:9
Frame rate : 29.970 fps
Color space : YUV
Chroma subsampling : 4:2:0
Bit depth : 8 bits
Scan type : MBAFF
Bits/(Pixel*Frame) : 0.201
Stream size : 5.04 GiB (94%)

Audio
ID : 1330 (0x532)
Menu ID : 1336 (0x538)
Format : MPEG Audio
Format version : Version 1
Format profile : Layer 2
Mode : Joint stereo
Mode extension : Intensity Stereo + MS Stereo
Codec ID : 3
Duration : 57mn 41s
Bit rate mode : Constant
Bit rate : 192 Kbps
Channel(s) : 2 channels
Sampling rate : 48.0 KHz
Compression mode : Lossy
Stream size : 79.2 MiB (1%)
Language : English



Tracklist 06 - Sam Smith:
Pop | MPEG4 Video (H264) 1920x1080 29.97fps | Dolby AC3 48000Hz 6ch 384kbps / MPEG Audio 48000Hz stereo 192kbps

Dancing With a Stranger (Sam Smith & Normani cover)
I'm Not the Only One
Lay Me Down
His Eye Is on the Sparrow (Charles Hutchinson Gabriel cover) (snippet)
Omen (Disclosure cover)
Nirvana
I've Told You Now
Like I Can
Restart (Contain parts of "The Best… more )
Baby, You Make Me Crazy
Say It First
HIM
Money on My Mind
La La La (Naughty Boy cover)
Latch (Disclosure cover)
Too Good at Goodbyes
Promises (Calvin Harris & Sam Smith cover)
Stay With Me
Pray

General
ID : 1 (0x1)
Complete name : E:\TR2\URGENT UrGENT\01. VD\Sam Smith - Lollapalooza Brazil 2019.ts
Format : MPEG-TS
File size : 8.34 GiB
Duration : 1h 26mn
Overall bit rate mode : Variable
Overall bit rate : 13.8 Mbps

Video
ID : 1328 (0x530)
Menu ID : 542 (0x21E)
Format : AVC
Format/Info : Advanced Video Codec
Format profile : High@L4.0
Format settings, CABAC : Yes
Format settings, ReFrames : 4 frames
Codec ID : 27
Duration : 1h 26mn
Bit rate : 12.5 Mbps
Width : 1 920 pixels
Height : 1 080 pixels
Display aspect ratio : 16:9
Frame rate : 29.970 fps
Color space : YUV
Chroma subsampling : 4:2:0
Bit depth : 8 bits
Scan type : MBAFF
Bits/(Pixel*Frame) : 0.202
Stream size : 7.57 GiB (91%)

Audio #1
ID : 1329 (0x531)
Menu ID : 542 (0x21E)
Format : AC-3
Format/Info : Audio Coding 3
Mode extension : CM (complete main)
Format settings, Endianness : Big
Codec ID : 129
Duration : 1h 26mn
Bit rate mode : Constant
Bit rate : 384 Kbps
Channel(s) : 6 channels
Channel positions : Front: L C R, Side: L R, LFE
Sampling rate : 48.0 KHz
Bit depth : 16 bits
Compression mode : Lossy
Stream size : 238 MiB (3%)
Language : Portuguese

Audio #2
ID : 1330 (0x532)
Menu ID : 542 (0x21E)
Format : MPEG Audio
Format version : Version 1
Format profile : Layer 2
Codec ID : 3
Duration : 1h 26mn
Bit rate mode : Constant
Bit rate : 192 Kbps
Channel(s) : 2 channels
Sampling rate : 48.0 KHz
Compression mode : Lossy
Stream size : 119 MiB (1%)
Language : English



Tracklist 07 - Snow Patrol:
Indie Rock | MPEG4 Video (H264) 1920x1080 29.97fps | Dolby AC3 48000Hz 6ch 384kbps / MPEG Audio 48000Hz stereo 192kbps

Open Your Eyes
Run
Heal Me
Called Out in the Dark
Just Say Yes
Chasing Cars

General
ID : 1 (0x1)
Complete name : E:\TR2\URGENT UrGENT\01. VD\Snow Patrol - Lollapalooza Brazil 2019.ts
Format : MPEG-TS
File size : 2.17 GiB
Duration : 29mn 49s
Overall bit rate mode : Variable
Overall bit rate : 10.4 Mbps

Video
ID : 1328 (0x530)
Menu ID : 542 (0x21E)
Format : AVC
Format/Info : Advanced Video Codec
Format profile : High@L4.0
Format settings, CABAC : Yes
Format settings, ReFrames : 4 frames
Codec ID : 27
Duration : 29mn 49s
Bit rate : 9 341 Kbps
Width : 1 920 pixels
Height : 1 080 pixels
Display aspect ratio : 16:9
Frame rate : 29.970 fps
Color space : YUV
Chroma subsampling : 4:2:0
Bit depth : 8 bits
Scan type : MBAFF
Bits/(Pixel*Frame) : 0.150
Stream size : 1.95 GiB (89%)

Audio #1
ID : 1329 (0x531)
Menu ID : 542 (0x21E)
Format : AC-3
Format/Info : Audio Coding 3
Mode extension : CM (complete main)
Format settings, Endianness : Big
Codec ID : 129
Duration : 29mn 49s
Bit rate mode : Constant
Bit rate : 384 Kbps
Channel(s) : 6 channels
Channel positions : Front: L C R, Side: L R, LFE
Sampling rate : 48.0 KHz
Bit depth : 16 bits
Compression mode : Lossy
Stream size : 81.9 MiB (4%)
Language : Portuguese

Audio #2
ID : 1330 (0x532)
Menu ID : 542 (0x21E)
Format : MPEG Audio
Format version : Version 1
Format profile : Layer 2
Mode : Joint stereo
Mode extension : Intensity Stereo + MS Stereo
Codec ID : 3
Duration : 29mn 49s
Bit rate mode : Constant
Bit rate : 192 Kbps
Channel(s) : 2 channels
Sampling rate : 48.0 KHz
Compression mode : Lossy
Stream size : 41.0 MiB (2%)
Language : English



Tracklist 08 - The 1975:
Indie Rock | MPEG4 Video (H264) 1920x1080 29.97fps | Dolby AC3 48000Hz 6ch 384kbps / MPEG Audio 48000Hz stereo 192kbps

Give Yourself a Try
TOOTIMETOOTIMETOOTIME
She's American
Sincerity Is Scary
It's Not Living (If It's Not With You)
Robbers
I Like America & America Likes Me
Somebody Else
I Always Wanna Die (Sometimes)
Love It If We Made It
Chocolate
The Sound
Sex

General
ID : 1 (0x1)
Complete name : E:\TR2\URGENT UrGENT\01. VD\The 1975 - Lollapalooza Brazil 2019.ts
Format : MPEG-TS
File size : 5.87 GiB
Duration : 59mn 45s
Overall bit rate mode : Variable
Overall bit rate : 14.1 Mbps

Video
ID : 1328 (0x530)
Menu ID : 542 (0x21E)
Format : AVC
Format/Info : Advanced Video Codec
Format profile : High@L4.0
Format settings, CABAC : Yes
Format settings, ReFrames : 4 frames
Codec ID : 27
Duration : 59mn 44s
Bit rate : 12.8 Mbps
Width : 1 920 pixels
Height : 1 080 pixels
Display aspect ratio : 16:9
Frame rate : 29.970 fps
Color space : YUV
Chroma subsampling : 4:2:0
Bit depth : 8 bits
Scan type : MBAFF
Bits/(Pixel*Frame) : 0.206
Stream size : 5.34 GiB (91%)

Audio #1
ID : 1329 (0x531)
Menu ID : 542 (0x21E)
Format : AC-3
Format/Info : Audio Coding 3
Mode extension : CM (complete main)
Format settings, Endianness : Big
Codec ID : 129
Duration : 59mn 44s
Bit rate mode : Constant
Bit rate : 384 Kbps
Channel(s) : 6 channels
Channel positions : Front: L C R, Side: L R, LFE
Sampling rate : 48.0 KHz
Bit depth : 16 bits
Compression mode : Lossy
Stream size : 164 MiB (3%)
Language : Portuguese

Audio #2
ID : 1330 (0x532)
Menu ID : 542 (0x21E)
Format : MPEG Audio
Format version : Version 1
Format profile : Layer 2
Mode : Joint stereo
Mode extension : Intensity Stereo + MS Stereo
Codec ID : 3
Duration : 59mn 45s
Bit rate mode : Constant
Bit rate : 192 Kbps
Channel(s) : 2 channels
Sampling rate : 48.0 KHz
Compression mode : Lossy
Stream size : 82.1 MiB (1%)
Language : English



Tracklist 09 - Tribalistas:
MPB, Soft Rock | MPEG4 Video (H264) 1920x1080 29.97fps | Dolby AC3 48000Hz 6ch 384kbps / MPEG Audio 48000Hz stereo 192kbps

Tribalistas
Carnavália
Um só
Vilarejo (Marisa Monte song)
Fora da memória
Diáspora
Um a um
Velha infância
É você
Aliança
Sem você (Arnaldo Antunes song)
Universo ao meu redor (Marisa Monte song)
Infinito particular (Marisa Monte song)
Amor I Love You (Marisa Monte song)
Depois (Marisa Monte song)
Trabalivre
Passe em casa
Não vá embora (Marisa Monte song)
Já sei namorar

General
ID : 1 (0x1)
Complete name : E:\TR2\URGENT UrGENT\01. VD\Tribalistas - Lollapalooza Brazil 2019.ts
Format : MPEG-TS
File size : 7.21 GiB
Duration : 1h 15mn
Overall bit rate mode : Variable
Overall bit rate : 13.7 Mbps

Video
ID : 1328 (0x530)
Menu ID : 542 (0x21E)
Format : AVC
Format/Info : Advanced Video Codec
Format profile : High@L4.0
Format settings, CABAC : Yes
Format settings, ReFrames : 4 frames
Codec ID : 27
Duration : 1h 15mn
Bit rate : 12.4 Mbps
Width : 1 920 pixels
Height : 1 080 pixels
Display aspect ratio : 16:9
Frame rate : 29.970 fps
Color space : YUV
Chroma subsampling : 4:2:0
Bit depth : 8 bits
Scan type : MBAFF
Bits/(Pixel*Frame) : 0.200
Stream size : 6.55 GiB (91%)

Audio #1
ID : 1329 (0x531)
Menu ID : 542 (0x21E)
Format : AC-3
Format/Info : Audio Coding 3
Mode extension : CM (complete main)
Format settings, Endianness : Big
Codec ID : 129
Duration : 1h 15mn
Bit rate mode : Constant
Bit rate : 384 Kbps
Channel(s) : 6 channels
Channel positions : Front: L C R, Side: L R, LFE
Sampling rate : 48.0 KHz
Bit depth : 16 bits
Compression mode : Lossy
Delay relative to video : -67ms
Stream size : 207 MiB (3%)
Language : Portuguese

Audio #2
ID : 1330 (0x532)
Menu ID : 542 (0x21E)
Format : MPEG Audio
Format version : Version 1
Format profile : Layer 2
Mode : Joint stereo
Mode extension : Intensity Stereo + MS Stereo
Codec ID : 3
Duration : 1h 15mn
Bit rate mode : Constant
Bit rate : 192 Kbps
Channel(s) : 2 channels
Sampling rate : 48.0 KHz
Compression mode : Lossy
Delay relative to video : -67ms
Stream size : 104 MiB (1%)
Language : English



Tracklist 10 - Troye Sivan:
Pop | MPEG4 Video (H264) 1920x1080 29.97fps | AAC 48000Hz stereo 217kbps

Seventeen
Bloom
Plum
Heaven
Fools
Lucky Strike
Wild
I'm So Tired… (Lauv & Troye Sivan cover)
Bite
1999 (Charli XCX & Troye Sivan cover)
Dance to This
Animal
Youth
My My My!

General
ID : 1 (0x1)
Complete name : E:\TR2\URGENT UrGENT\01. VD\Troye Sivan - Lollapalooza Brazil 2019.ts
Format : MPEG-TS
File size : 7.27 GiB
Duration : 1h 1mn
Overall bit rate mode : Variable
Overall bit rate : 16.8 Mbps

Video
ID : 256 (0x100)
Menu ID : 1 (0x1)
Format : AVC
Format/Info : Advanced Video Codec
Format profile : High@L4.0
Format settings, CABAC : Yes
Format settings, ReFrames : 2 frames
Codec ID : 27
Duration : 1h 1mn
Width : 1 920 pixels
Height : 1 080 pixels
Display aspect ratio : 16:9
Frame rate : 29.970 fps
Color space : YUV
Chroma subsampling : 4:2:0
Bit depth : 8 bits
Scan type : Progressive
Color primaries : BT.709
Transfer characteristics : BT.709
Matrix coefficients : BT.709

Audio
ID : 257 (0x101)
Menu ID : 1 (0x1)
Format : AAC
Format/Info : Advanced Audio Codec
Format version : Version 4
Format profile : LC
Muxing mode : ADTS
Codec ID : 15
Duration : 1h 1mn
Bit rate mode : Variable
Channel(s) : 2 channels
Channel positions : Front: L R
Sampling rate : 48.0 KHz
Compression mode : Lossy
Delay relative to video : -31ms

Menu
ID : 4096 (0x1000)
Menu ID : 1 (0x1)
Duration : 1h 1mn
List : 256 (0x100) (AVC) / 257 (0x101) (AAC)
Service name : Service01
Service provider : FFmpeg
Service type : digital television



Tracklist 11 - Twenty One Pilots:
Alternative hip hop, electropop | MPEG4 Video (H264) 1920x1080 29.97fps | Dolby AC3 48000Hz 6ch 384kbps / MPEG Audio 48000Hz stereo 192kbps

Jumpsuit
Levitate
Heathens
We Don't Believe What's on TV
Lane Boy
Nico and the Niners
Holding on to You
Ride
Stressed Out
My Blood
Cut My Lip
Crowd Control (Dimitri Vegas & Like Mike song)
Morph
Car Radio
Josh Drum Battle
Chlorine
Trees

General
ID : 1 (0x1)
Complete name : E:\TR2\URGENT UrGENT\01. VD\Twenty One Pilots - Lollapalooza Brazil 2019.ts
Format : MPEG-TS
File size : 7.88 GiB
Duration : 1h 23mn
Overall bit rate mode : Variable
Overall bit rate : 13.5 Mbps

Video
ID : 1328 (0x530)
Menu ID : 542 (0x21E)
Format : AVC
Format/Info : Advanced Video Codec
Format profile : High@L4.0
Format settings, CABAC : Yes
Format settings, ReFrames : 4 frames
Format settings, GOP : M=4, N=32
Codec ID : 27
Duration : 1h 23mn
Bit rate : 12.3 Mbps
Width : 1 920 pixels
Height : 1 080 pixels
Display aspect ratio : 16:9
Frame rate : 29.970 fps
Color space : YUV
Chroma subsampling : 4:2:0
Bit depth : 8 bits
Scan type : MBAFF
Bits/(Pixel*Frame) : 0.197
Stream size : 7.15 GiB (91%)

Audio #1
ID : 1329 (0x531)
Menu ID : 542 (0x21E)
Format : AC-3
Format/Info : Audio Coding 3
Mode extension : CM (complete main)
Format settings, Endianness : Big
Codec ID : 129
Duration : 1h 23mn
Bit rate mode : Constant
Bit rate : 384 Kbps
Channel(s) : 6 channels
Channel positions : Front: L C R, Side: L R, LFE
Sampling rate : 48.0 KHz
Bit depth : 16 bits
Compression mode : Lossy
Stream size : 229 MiB (3%)
Language : Portuguese

Audio #2
ID : 1330 (0x532)
Menu ID : 542 (0x21E)
Format : MPEG Audio
Format version : Version 1
Format profile : Layer 2
Mode : Joint stereo
Mode extension : Intensity Stereo + MS Stereo
Codec ID : 3
Duration : 1h 23mn
Bit rate mode : Constant
Bit rate : 192 Kbps
Channel(s) : 2 channels
Sampling rate : 48.0 KHz
Compression mode : Lossy
Stream size : 115 MiB (1%)
Language : English



Tracklist 12 - Years & Years:
Indie Rock | MPEG4 Video (H264) 1920x1080 29.97fps | AAC 48000Hz stereo 211kbps

Sanctify
Shine
Karma
Meteorite
Lucky Escape
Gold
Desire
Palo Santo
Ties
Hallelujah
Worship
Rendezvous
If You're Over Me
Take Shelter
All for You
Play (Jax Jones & Years & Years cover)
King

General
ID : 1 (0x1)
Complete name : E:\TR2\URGENT UrGENT\01. VD\Years & Years - Lollapalooza Brazil 2019.ts
Format : MPEG-TS
File size : 8.26 GiB
Duration : 1h 10mn
Overall bit rate mode : Variable
Overall bit rate : 16.8 Mbps

Video
ID : 256 (0x100)
Menu ID : 1 (0x1)
Format : AVC
Format/Info : Advanced Video Codec
Format profile : High@L4.0
Format settings, CABAC : Yes
Format settings, ReFrames : 2 frames
Codec ID : 27
Duration : 1h 10mn
Width : 1 920 pixels
Height : 1 080 pixels
Display aspect ratio : 16:9
Frame rate : 29.970 fps
Color space : YUV
Chroma subsampling : 4:2:0
Bit depth : 8 bits
Scan type : Progressive
Color primaries : BT.709
Transfer characteristics : BT.709
Matrix coefficients : BT.709

Audio
ID : 257 (0x101)
Menu ID : 1 (0x1)
Format : AAC
Format/Info : Advanced Audio Codec
Format version : Version 4
Format profile : LC
Muxing mode : ADTS
Codec ID : 15
Duration : 1h 10mn
Bit rate mode : Variable
Channel(s) : 2 channels
Channel positions : Front: L R
Sampling rate : 48.0 KHz
Compression mode : Lossy
Delay relative to video : -14ms

Menu
ID : 4096 (0x1000)
Menu ID : 1 (0x1)
Duration : 1h 10mn
List : 256 (0x100) (AVC) / 257 (0x101) (AAC)
Service name : Service01
Service provider : FFmpeg
Service type : digital television



Lollapalooza Brazil 2019 [12 x HDTV, 1080i/1080p]

Lollapalooza Brazil 2019 [12 x HDTV, 1080i/1080p]

Lollapalooza Brazil 2019 [12 x HDTV, 1080i/1080p]

Lollapalooza Brazil 2019 [12 x HDTV, 1080i/1080p]

Lollapalooza Brazil 2019 [12 x HDTV, 1080i/1080p]

All thanks go to the original releaser

Lollapalooza in my Blog

Download Lollapalooza Brazil 2019: