Subcategories

London Philharmonic Orchestra, David Parry - Vincenzo Bellini: La Straniera (2008) (Repost)

Posted By: tirexiss
London Philharmonic Orchestra, David Parry - Vincenzo Bellini: La Straniera (2008) (Repost)

London Philharmonic Orchestra, David Parry - Vincenzo Bellini: La Straniera (2008)
EAC | FLAC (tracks+.cue, log) | Covers Included | 02:21:19 | 624 MB
Genre: Classical, Opera | Label: Opera Rara | Catalog: 38

La straniera was Bellini’s fourth opera, first performed at La Scala in February 1829. During the composer’s lifetime, and for a few years after his death in 1835, it enjoyed considerable international success, though contemporary reviewers were sometimes hostile, criticising its lack of set-piece arias and complaining of the “continual interruptions” to the musical line. It is this that strikes the modern listener as one of the most interesting aspects of the score. Bellini was experimenting with something, if not exactly through-composed, then sacrificing vocal fireworks for the sake of the dramatic structure.
The libretto concerns the woes of the exiled Queen of France, Agnese, who is obliged to live incognito in Brittany as Alaide – “The Stranger”. She spends the whole opera refusing to tell anyone, including her beloved Arturo, who she really is. When he at last finds out – at his wedding to another woman – he stabs himself to death at the Queen’s feet. Need I go on? It is a blood-and-thunder piece of gothic melodrama, with the inevitable courtroom scene in which the heroine is wrongly accused.
Renata Scotto, Montserrat Caballé and Elena Souliotis have sung the work – pirate recordings of performances with each of them have circulated – but this set is the first studio recording of the work, and Opera Rara has done it proud. David Parry leads the LPO in a gripping account of a tricky piece. Patrizia Ciofi is meltingly pathetic and then imperious when necessary. Dario Schmunck makes a virile and ardent Arturo, and in the crucial role of Valdeburgo (also in disguise, he is Agnese’s brother), Mark Stone is suitably warrior-like. In the rather ungrateful role of the “other woman”, Enkelejda Shkosa gets quite a jolly little rondo towards the end of Act 2. Among the other highlights are a catchy hunters’ chorus and the trio in which the two men fight for the stranger’s affection. The scene in Act 1, when they both end up in the lake apparently drowning, is a rousing finale. The contributions of the Geoffrey Mitchell Choir are splendid. A must for lovers of the bel canto repertory.

London Philharmonic Orchestra, David Parry - Vincenzo Bellini: La Straniera (2008) (Repost)

Track List:

CD 1:
01. Act I - Voga, voga (introd. e coro).
02. Trista, pensosa (rec. e duetto).
03. Io la vidi.
04. Osburgo (rec.).
05. E sgombro il loco.. (scena e romanza).
06. Alaide (scena e duetto).flac
07. Campo ai veltri (coro di cacciatori).
08. Ti trovo alfin.
09. Che mai penso.
10. Ah! non partir (terzetto).
11. Leopoldo!

Exact Audio Copy V1.0 beta 3 from 29. August 2011

EAC extraction logfile from 28. July 2012, 10:38

Patrizia Ciofi, Mark Stone, Dario Schmunck, Enkelejda Shkosa / La Straniera - David Parry CD 1

Used drive : Optiarc DVD RW AD-7561S Adapter: 1 ID: 0

Read mode : Secure
Utilize accurate stream : Yes
Defeat audio cache : Yes
Make use of C2 pointers : No

Read offset correction : 6
Overread into Lead-In and Lead-Out : No
Fill up missing offset samples with silence : Yes
Delete leading and trailing silent blocks : No
Null samples used in CRC calculations : Yes
Used interface : Native Win32 interface for Win NT & 2000
Gap handling : Appended to previous track

Used output format : User Defined Encoder
Selected bitrate : 768 kBit/s
Quality : High
Add ID3 tag : No
Command line compressor : C:\Program Files\Exact Audio Copy\FLAC\FLAC.EXE
Additional command line options : -V -8 -T "Genre=%genre%" -T "Artist=%artist%" -T "Title=%title%" -T "Album=%albumtitle%" -T "Date=%year%" -T "Tracknumber=%tracknr%" -T "Comment=%comment%" %source%


TOC of the extracted CD

Track | Start | Length | Start sector | End sector
––––––––––––––––––––––––––––-
1 | 0:00.00 | 5:22.14 | 0 | 24163
2 | 5:22.14 | 2:36.03 | 24164 | 35866
3 | 7:58.17 | 9:16.13 | 35867 | 77579
4 | 17:14.30 | 1:29.63 | 77580 | 84317
5 | 18:44.18 | 8:09.40 | 84318 | 121032
6 | 26:53.58 | 15:38.50 | 121033 | 191432
7 | 42:32.33 | 4:03.62 | 191433 | 209719
8 | 46:36.20 | 13:59.66 | 209720 | 272710
9 | 60:36.11 | 5:55.31 | 272711 | 299366
10 | 66:31.42 | 3:14.53 | 299367 | 313969
11 | 69:46.20 | 10:04.44 | 313970 | 359313


Track 1

Filename D:\Temp\Беллини - La Straniera - Patrizia Ciofi, Mark Stone, Dario Schmunck, Enkelejda Shkosa - David Parry 2007\La Straniera - David Parry CD 1\01. Act I - Voga, voga (introd. e coro).wav

Pre-gap length 0:00:02.00

Peak level 98.2 %
Extraction speed 1.3 X
Track quality 100.0 %
Test CRC EDE4BEEF
Copy CRC EDE4BEEF
Accurately ripped (confidence 3) [C8FA7038] (AR v1)
Copy OK

Track 2

Filename D:\Temp\Беллини - La Straniera - Patrizia Ciofi, Mark Stone, Dario Schmunck, Enkelejda Shkosa - David Parry 2007\La Straniera - David Parry CD 1\02. Trista, pensosa (rec. e duetto).wav

Peak level 58.9 %
Extraction speed 1.0 X
Track quality 99.9 %
Test CRC 2C05FAE2
Copy CRC 2C05FAE2
Accurately ripped (confidence 3) [6025F319] (AR v1)
Copy OK

Track 3

Filename D:\Temp\Беллини - La Straniera - Patrizia Ciofi, Mark Stone, Dario Schmunck, Enkelejda Shkosa - David Parry 2007\La Straniera - David Parry CD 1\03. Io la vidi.wav

Peak level 98.2 %
Extraction speed 1.6 X
Track quality 100.0 %
Test CRC 864F8D2C
Copy CRC 864F8D2C
Accurately ripped (confidence 3) [ABB37D9D] (AR v1)
Copy OK

Track 4

Filename D:\Temp\Беллини - La Straniera - Patrizia Ciofi, Mark Stone, Dario Schmunck, Enkelejda Shkosa - David Parry 2007\La Straniera - David Parry CD 1\04. Osburgo (rec.).wav

Peak level 38.5 %
Extraction speed 1.3 X
Track quality 100.0 %
Test CRC 63A66E95
Copy CRC 63A66E95
Accurately ripped (confidence 3) [E2BE4F46] (AR v1)
Copy OK

Track 5

Filename D:\Temp\Беллини - La Straniera - Patrizia Ciofi, Mark Stone, Dario Schmunck, Enkelejda Shkosa - David Parry 2007\La Straniera - David Parry CD 1\05. E sgombro il loco.. (scena e romanza).wav

Peak level 66.2 %
Extraction speed 1.8 X
Track quality 100.0 %
Test CRC 37687F9B
Copy CRC 37687F9B
Accurately ripped (confidence 3) [E324F12F] (AR v1)
Copy OK

Track 6

Filename D:\Temp\Беллини - La Straniera - Patrizia Ciofi, Mark Stone, Dario Schmunck, Enkelejda Shkosa - David Parry 2007\La Straniera - David Parry CD 1\06. Alaide (scena e duetto).wav

Peak level 98.2 %
Extraction speed 2.1 X
Track quality 100.0 %
Test CRC 7DC47495
Copy CRC 7DC47495
Accurately ripped (confidence 3) [7B1999A7] (AR v1)
Copy OK

Track 7

Filename D:\Temp\Беллини - La Straniera - Patrizia Ciofi, Mark Stone, Dario Schmunck, Enkelejda Shkosa - David Parry 2007\La Straniera - David Parry CD 1\07. Campo ai veltri (coro di cacciatori).wav

Peak level 98.2 %
Extraction speed 2.1 X
Track quality 100.0 %
Test CRC 1EEE9C07
Copy CRC 1EEE9C07
Accurately ripped (confidence 3) [155B7555] (AR v1)
Copy OK

Track 8

Filename D:\Temp\Беллини - La Straniera - Patrizia Ciofi, Mark Stone, Dario Schmunck, Enkelejda Shkosa - David Parry 2007\La Straniera - David Parry CD 1\08. Ti trovo alfin.wav

Peak level 98.2 %
Extraction speed 2.5 X
Track quality 100.0 %
Test CRC 2F3D8F6E
Copy CRC 2F3D8F6E
Accurately ripped (confidence 3) [86816B1A] (AR v1)
Copy OK

Track 9

Filename D:\Temp\Беллини - La Straniera - Patrizia Ciofi, Mark Stone, Dario Schmunck, Enkelejda Shkosa - David Parry 2007\La Straniera - David Parry CD 1\09. Che mai penso.wav

Peak level 98.2 %
Extraction speed 2.5 X
Track quality 100.0 %
Test CRC 3A863AFD
Copy CRC 3A863AFD
Accurately ripped (confidence 3) [274CFB44] (AR v1)
Copy OK

Track 10

Filename D:\Temp\Беллини - La Straniera - Patrizia Ciofi, Mark Stone, Dario Schmunck, Enkelejda Shkosa - David Parry 2007\La Straniera - David Parry CD 1\10. Ah! non partir (terzetto).wav

Peak level 89.1 %
Extraction speed 2.3 X
Track quality 100.0 %
Test CRC 58746132
Copy CRC 58746132
Accurately ripped (confidence 3) [CAC8F3D6] (AR v1)
Copy OK

Track 11

Filename D:\Temp\Беллини - La Straniera - Patrizia Ciofi, Mark Stone, Dario Schmunck, Enkelejda Shkosa - David Parry 2007\La Straniera - David Parry CD 1\11. Leopoldo!.wav

Peak level 98.2 %
Extraction speed 2.6 X
Track quality 99.9 %
Test CRC E195C460
Copy CRC E195C460
Accurately ripped (confidence 3) [0E2D1548] (AR v1)
Copy OK


All tracks accurately ripped

No errors occurred

End of status report

==== Log checksum 9A7FB6E45D6E4F787FF930D85F13FDBA35663AB8195B01DF00AB1CD2A0B109CA ====

[CUETools log; Date: 25.05.2018 21:27:13; Version: 2.1.5]
[CTDB TOCID: lfGcrZjkrat7DG8S7OJbFeWvNY0-] found.
Track | CTDB Status
1 | (8/8) Accurately ripped
2 | (8/8) Accurately ripped
3 | (8/8) Accurately ripped
4 | (8/8) Accurately ripped
5 | (8/8) Accurately ripped
6 | (8/8) Accurately ripped
7 | (8/8) Accurately ripped
8 | (8/8) Accurately ripped
9 | (8/8) Accurately ripped
10 | (8/8) Accurately ripped
11 | (8/8) Accurately ripped
[AccurateRip ID: 001e5b65-01104c58-a312b60b] found.
Track [ CRC | V2 ] Status
01 [c8fa7038|36757466] (3+4/7) Accurately ripped
02 [6025f319|1b4a89f0] (3+4/7) Accurately ripped
03 [abb37d9d|ae95d1e5] (3+4/7) Accurately ripped
04 [e2be4f46|5ae28091] (3+4/7) Accurately ripped
05 [e324f12f|a7aab8ba] (3+4/7) Accurately ripped
06 [7b1999a7|d31cba58] (3+4/7) Accurately ripped
07 [155b7555|bec38fde] (3+4/7) Accurately ripped
08 [86816b1a|742ccbb3] (3+4/7) Accurately ripped
09 [274cfb44|a41b04ea] (3+4/7) Accurately ripped
10 [cac8f3d6|4d1cf6d4] (3+4/7) Accurately ripped
11 [0e2d1548|66cb00ac] (3+4/7) Accurately ripped

Track Peak [ CRC32 ] [W/O NULL] [ LOG ]
– 98,2 [A85B0138] [FD80AEAF]
01 98,2 [EDE4BEEF] [1E951703] CRC32
02 58,9 [2C05FAE2] [1DA74B01] CRC32
03 98,2 [864F8D2C] [9CE6087E] CRC32
04 38,5 [63A66E95] [8BC92DB5] CRC32
05 66,2 [37687F9B] [5615C446] CRC32
06 98,2 [7DC47495] [2DAF438E] CRC32
07 98,2 [1EEE9C07] [AC3BD2B0] CRC32
08 98,2 [2F3D8F6E] [77BB0D80] CRC32
09 98,2 [3A863AFD] [2DA5DE8D] CRC32
10 89,1 [58746132] [748408DF] CRC32
11 98,2 [E195C460] [288CF5EB] CRC32

CD 2:
01. Act II - Udimmo. Il tuo racconto (scena ed aria).
02. Tu che osasti mentir (scena).
03. A tempo io giungo.
04. Ne alcun ritorna….
05. E dolce la vergine (coro).
06. Valdeburgo! (scena e quartetto).
07. Sono all'ara… (scena, coro ed aria finale).

Exact Audio Copy V1.0 beta 3 from 29. August 2011

EAC extraction logfile from 28. July 2012, 12:01

Patrizia Ciofi, Mark Stone, Dario Schmunck, Enkelejda Shkosa / La Straniera - David Parry CD 2

Used drive : Optiarc DVD RW AD-7561S Adapter: 1 ID: 0

Read mode : Secure
Utilize accurate stream : Yes
Defeat audio cache : Yes
Make use of C2 pointers : No

Read offset correction : 6
Overread into Lead-In and Lead-Out : No
Fill up missing offset samples with silence : Yes
Delete leading and trailing silent blocks : No
Null samples used in CRC calculations : Yes
Used interface : Native Win32 interface for Win NT & 2000
Gap handling : Appended to previous track

Used output format : User Defined Encoder
Selected bitrate : 768 kBit/s
Quality : High
Add ID3 tag : No
Command line compressor : C:\Program Files\Exact Audio Copy\FLAC\FLAC.EXE
Additional command line options : -V -8 -T "Genre=%genre%" -T "Artist=%artist%" -T "Title=%title%" -T "Album=%albumtitle%" -T "Date=%year%" -T "Tracknumber=%tracknr%" -T "Comment=%comment%" %source%


TOC of the extracted CD

Track | Start | Length | Start sector | End sector
––––––––––––––––––––––––––––-
1 | 0:00.00 | 15:04.27 | 0 | 67826
2 | 15:04.27 | 1:34.37 | 67827 | 74913
3 | 16:38.64 | 11:34.63 | 74914 | 127026
4 | 28:13.52 | 10:32.62 | 127027 | 174488
5 | 38:46.39 | 3:07.13 | 174489 | 188526
6 | 41:53.52 | 7:58.52 | 188527 | 224428
7 | 49:52.29 | 11:37.30 | 224429 | 276733


Track 1

Filename D:\Temp\Беллини - La Straniera - Patrizia Ciofi, Mark Stone, Dario Schmunck, Enkelejda Shkosa - David Parry 2007\La Straniera - David Parry CD 2\01. Act II - Udimmo. Il tuo racconto (scena ed aria).wav

Pre-gap length 0:00:02.00

Peak level 98.2 %
Extraction speed 1.3 X
Track quality 99.9 %
Test CRC 56956775
Copy CRC 56956775
Accurately ripped (confidence 2) [68660F81] (AR v1)
Copy OK

Track 2

Filename D:\Temp\Беллини - La Straniera - Patrizia Ciofi, Mark Stone, Dario Schmunck, Enkelejda Shkosa - David Parry 2007\La Straniera - David Parry CD 2\02. Tu che osasti mentir (scena).wav

Peak level 67.3 %
Extraction speed 1.2 X
Track quality 100.0 %
Test CRC AEB4562B
Copy CRC AEB4562B
Accurately ripped (confidence 2) [9D06D9B5] (AR v1)
Copy OK

Track 3

Filename D:\Temp\Беллини - La Straniera - Patrizia Ciofi, Mark Stone, Dario Schmunck, Enkelejda Shkosa - David Parry 2007\La Straniera - David Parry CD 2\03. A tempo io giungo.wav

Peak level 98.2 %
Extraction speed 1.7 X
Track quality 99.9 %
Test CRC FD1BD774
Copy CRC FD1BD774
Accurately ripped (confidence 2) [6DAF36F2] (AR v1)
Copy OK

Track 4

Filename D:\Temp\Беллини - La Straniera - Patrizia Ciofi, Mark Stone, Dario Schmunck, Enkelejda Shkosa - David Parry 2007\La Straniera - David Parry CD 2\04. Ne alcun ritorna….wav

Peak level 98.2 %
Extraction speed 2.0 X
Track quality 100.0 %
Test CRC E7ABBBBB
Copy CRC E7ABBBBB
Accurately ripped (confidence 2) [DCD3A3C0] (AR v1)
Copy OK

Track 5

Filename D:\Temp\Беллини - La Straniera - Patrizia Ciofi, Mark Stone, Dario Schmunck, Enkelejda Shkosa - David Parry 2007\La Straniera - David Parry CD 2\05. E dolce la vergine (coro).wav

Peak level 98.2 %
Extraction speed 1.9 X
Track quality 100.0 %
Test CRC 0D6D3029
Copy CRC 0D6D3029
Accurately ripped (confidence 2) [C8A06BCC] (AR v1)
Copy OK

Track 6

Filename D:\Temp\Беллини - La Straniera - Patrizia Ciofi, Mark Stone, Dario Schmunck, Enkelejda Shkosa - David Parry 2007\La Straniera - David Parry CD 2\06. Valdeburgo! (scena e quartetto).wav

Peak level 98.2 %
Extraction speed 2.0 X
Track quality 99.9 %
Test CRC FA01E91A
Copy CRC FA01E91A
Accurately ripped (confidence 2) [DBC23DE3] (AR v1)
Copy OK

Track 7

Filename D:\Temp\Беллини - La Straniera - Patrizia Ciofi, Mark Stone, Dario Schmunck, Enkelejda Shkosa - David Parry 2007\La Straniera - David Parry CD 2\07. Sono all'ara… (scena, coro ed aria finale).wav

Peak level 98.2 %
Extraction speed 2.4 X
Track quality 100.0 %
Test CRC 2F6A0D87
Copy CRC 2F6A0D87
Accurately ripped (confidence 2) [1512538B] (AR v1)
Copy OK


All tracks accurately ripped

No errors occurred

End of status report

==== Log checksum 519CEAFEF108A076AAE914F9AC092C080EF9EA2E119F8B5AFA4ED5F8D6D99E4D ====

[CUETools log; Date: 25.05.2018 21:27:37; Version: 2.1.5]
[CTDB TOCID: AGNzJMX8FB2jteEnbIH8yUYXnu0-] found.
Track | CTDB Status
1 | (8/8) Accurately ripped
2 | (8/8) Accurately ripped
3 | (8/8) Accurately ripped
4 | (8/8) Accurately ripped
5 | (8/8) Accurately ripped
6 | (8/8) Accurately ripped
7 | (8/8) Accurately ripped
[AccurateRip ID: 00114d7b-006593db-5b0e6907] found.
Track [ CRC | V2 ] Status
01 [68660f81|e2ee545f] (2+4/6) Accurately ripped
02 [9d06d9b5|4dd03ec2] (2+4/6) Accurately ripped
03 [6daf36f2|493bc593] (2+4/6) Accurately ripped
04 [dcd3a3c0|21b74c0c] (2+4/6) Accurately ripped
05 [c8a06bcc|efc24b1e] (2+4/6) Accurately ripped
06 [dbc23de3|c8939d7f] (2+4/6) Accurately ripped
07 [1512538b|30809bef] (2+4/6) Accurately ripped

Track Peak [ CRC32 ] [W/O NULL] [ LOG ]
– 98,2 [211C958C] [849D498C]
01 98,2 [56956775] [00F7B453] CRC32
02 67,3 [AEB4562B] [8B8FADC3] CRC32
03 98,2 [FD1BD774] [4B7017D9] CRC32
04 98,2 [E7ABBBBB] [17AA3427] CRC32
05 98,2 [0D6D3029] [4A350C89] CRC32
06 98,2 [FA01E91A] [7675A84F] CRC32
07 98,2 [2F6A0D87] [CBC75877] CRC32

Performers:
Patrizia Ciofi (Alaide, l'Etrangere)
Mark Stone (Baron de Valdeburgo)
Dario Schmunck (Comte Arturo di Ravenstel)
Enkelejda Shkosa (Isoletta, fille du Seigneur de Montolino et fiancee d'Arturo)
Graeme Broadbent (Prieur de l'ordre Hospitalier)
Roland Wood (Seigneur de Montolino)
Aled Hall (Osburgo, confident d'Arturo)
Geoffrey Mitchell Choir
London Philharmonic Orchestra
Direction David Parry

Thanks to the Original ripper этиламин!

Download: