Subcategories

Longpigs - On And On (The Anthology) (2013) {3 Loop Music}

Posted By: shamanicus
Longpigs - On And On (The Anthology) (2013) {3 Loop Music}

Longpigs - On And On (The Anthology) (2013)
EAC Rip | FLAC (tracks+.cue, log) | Covers | 904 mb | MP3 CBR 320kbps | RAR | 328 mb
Brit Pop, Indie Rock, Pop Rock | Label: 3 Loop Music - 3RANGE-7

Longpigs were swept up in the whole Britpop movement, yet they were somehow always more intelligent, more classy than their counterparts.

The Sheffield band's debut album, ‘The Sun Is Often Out’, remains a modern classic creation some 17 years on from its original release. Disappointingly, they only produced one more album.
This wonderful compilation gathers most of what Longpigs released, including all bar one track from that classic debut. The singles 'Lost Myself', 'She Said' and 'On And On' (video below) naturally make the cut.
It's a lush, beautiful, enchanting and passionately delivered set of songs, leaving us in further wonder as to why we were denied more.
clashmusic.com


Tracklist:

Disc 1

Longpigs - On And On (The Anthology) (2013) {3 Loop Music}


01. She Said
02. Jesus Christ
03. Far
04. On And On
05. Lost Myself
06. Sally Dances
07. Happy Again
08. All Hype
09. Dozen Wicked Words
10. Blue Skies
11. The Frank Sonata
12. Gangsters
13. I Lied I Love You
14. Free Toy
15. (The Man Who Found) Elvis
16. In The Snow
17. Dance Baby Dance
18. Miss Believer

Disc 2

Longpigs - On And On (The Anthology) (2013) {3 Loop Music}


01. Tendresse
02. Sweetness
03. Vagina Song
04. Blah Blah Blah
05. Far (Sheffield Version)
06. Your Face
07. When You're Alone
08. Floss
09. (The Man Who Found) Elvis (Radio One Session 16.8.1995)
10. All Hype (Radio One Session 16.8.1995)
11. Headaches
12. New York
13. The Frank Sonata (Rae & Christian Mix)
14. Free Toy (Radio One Session 7.9.1999)
15. Gangsters (Radio One Session 7.9.1999)

Longpigs - On And On (The Anthology) (2013) {3 Loop Music}


Exact Audio Copy V1.0 beta 6 from 9. April 2015

EAC extraction logfile from 27. April 2015, 21:29

Longpigs / On And On The Anthology

Used drive : HL-DT-STDVD+-RW GH30N Adapter: 1 ID: 0

Read mode : Secure
Utilize accurate stream : Yes
Defeat audio cache : Yes
Make use of C2 pointers : No

Read offset correction : 102
Overread into Lead-In and Lead-Out : No
Fill up missing offset samples with silence : Yes
Delete leading and trailing silent blocks : No
Null samples used in CRC calculations : Yes
Used interface : Native Win32 interface for Win NT & 2000
Gap handling : Appended to previous track

Used output format : User Defined Encoder
Selected bitrate : 1024 kBit/s
Quality : High
Add ID3 tag : No
Command line compressor : C:\Program Files (x86)\Exact Audio Copy\Flac\flac.exe
Additional command line options : -8 -V -T "ARTIST=%artist%" -T "TITLE=%title%" -T "ALBUM=%albumtitle%" -T "DATE=%year%" -T "TRACKNUMBER=%tracknr%" -T "GENRE=%genre%" -T "PERFORMER=%albuminterpret%" -T "COMPOSER=%composer%" %haslyrics%–tag-from-file=LYRICS="%lyricsfile%"%haslyrics% -T "ALBUMARTIST=%albumartist%" -T "DISCNUMBER=%cdnumber%" -T "TOTALDISCS=%totalcds%" -T "TOTALTRACKS=%numtracks%" -T "COMMENT=%comment%" %source% -o %dest%


TOC of the extracted CD

Track | Start | Length | Start sector | End sector
––––––––––––––––––––––––––––-
1 | 0:00.00 | 4:24.47 | 0 | 19846
2 | 4:24.47 | 3:58.29 | 19847 | 37725
3 | 8:23.01 | 3:43.66 | 37726 | 54516
4 | 12:06.67 | 4:10.57 | 54517 | 73323
5 | 16:17.49 | 4:56.30 | 73324 | 95553
6 | 21:14.04 | 3:45.24 | 95554 | 112452
7 | 24:59.28 | 4:16.48 | 112453 | 131700
8 | 29:16.01 | 3:23.60 | 131701 | 146985
9 | 32:39.61 | 4:58.74 | 146986 | 169409
10 | 37:38.60 | 3:59.32 | 169410 | 187366
11 | 41:38.17 | 3:53.39 | 187367 | 204880
12 | 45:31.56 | 4:57.67 | 204881 | 227222
13 | 50:29.48 | 4:43.72 | 227223 | 248519
14 | 55:13.45 | 4:43.11 | 248520 | 269755
15 | 59:56.56 | 4:23.31 | 269756 | 289511
16 | 64:20.12 | 4:30.74 | 289512 | 309835
17 | 68:51.11 | 4:14.14 | 309836 | 328899
18 | 73:05.25 | 4:23.05 | 328900 | 348629


Track 1

Filename C:\Program Files (x86)\Exact Audio Copy\Flac\01 - She Said.wav

Pre-gap length 0:00:02.00

Peak level 86.9 %
Extraction speed 1.6 X
Track quality 99.9 %
Test CRC 27BF9712
Copy CRC 27BF9712
Accurately ripped (confidence 2) [DAFB4747] (AR v2)
Copy OK

Track 2

Filename C:\Program Files (x86)\Exact Audio Copy\Flac\02 - Jesus Christ.wav

Pre-gap length 0:00:00.29

Peak level 99.0 %
Extraction speed 1.7 X
Track quality 99.9 %
Test CRC 607EABDE
Copy CRC 607EABDE
Accurately ripped (confidence 2) [6D76E299] (AR v2)
Copy OK

Track 3

Filename C:\Program Files (x86)\Exact Audio Copy\Flac\03 - Far.wav

Pre-gap length 0:00:00.29

Peak level 99.0 %
Extraction speed 2.1 X
Track quality 100.0 %
Test CRC D954A502
Copy CRC D954A502
Accurately ripped (confidence 2) [351BFB37] (AR v2)
Copy OK

Track 4

Filename C:\Program Files (x86)\Exact Audio Copy\Flac\04 - On And On.wav

Pre-gap length 0:00:00.29

Peak level 100.0 %
Extraction speed 2.3 X
Track quality 100.0 %
Test CRC 4122476C
Copy CRC 4122476C
Accurately ripped (confidence 2) [7B60D5A0] (AR v2)
Copy OK

Track 5

Filename C:\Program Files (x86)\Exact Audio Copy\Flac\05 - Lost Myself.wav

Pre-gap length 0:00:00.29

Peak level 86.1 %
Extraction speed 2.5 X
Track quality 100.0 %
Test CRC 7A71DC48
Copy CRC 7A71DC48
Accurately ripped (confidence 2) [EF79110F] (AR v2)
Copy OK

Track 6

Filename C:\Program Files (x86)\Exact Audio Copy\Flac\06 - Sally Dances.wav

Pre-gap length 0:00:00.29

Peak level 100.0 %
Extraction speed 2.5 X
Track quality 100.0 %
Test CRC 03E5101A
Copy CRC 03E5101A
Accurately ripped (confidence 2) [9CAF25B0] (AR v2)
Copy OK

Track 7

Filename C:\Program Files (x86)\Exact Audio Copy\Flac\07 - Happy Again.wav

Pre-gap length 0:00:00.29

Peak level 99.1 %
Extraction speed 2.3 X
Track quality 99.9 %
Test CRC 1D47C152
Copy CRC 1D47C152
Accurately ripped (confidence 2) [EB0B748F] (AR v2)
Copy OK

Track 8

Filename C:\Program Files (x86)\Exact Audio Copy\Flac\08 - All Hype.wav

Pre-gap length 0:00:00.29

Peak level 98.6 %
Extraction speed 2.7 X
Track quality 100.0 %
Test CRC B9FC13F8
Copy CRC B9FC13F8
Accurately ripped (confidence 2) [360D2CF7] (AR v2)
Copy OK

Track 9

Filename C:\Program Files (x86)\Exact Audio Copy\Flac\09 - Dozen Wicked Words.wav

Pre-gap length 0:00:00.29

Peak level 99.2 %
Extraction speed 2.9 X
Track quality 100.0 %
Test CRC 6E941179
Copy CRC 6E941179
Accurately ripped (confidence 2) [4C8BC01E] (AR v2)
Copy OK

Track 10

Filename C:\Program Files (x86)\Exact Audio Copy\Flac\10 - Blue Skies.wav

Pre-gap length 0:00:00.29

Peak level 98.0 %
Extraction speed 2.9 X
Track quality 100.0 %
Test CRC 88C82AF3
Copy CRC 88C82AF3
Accurately ripped (confidence 2) [62EBF25B] (AR v2)
Copy OK

Track 11

Filename C:\Program Files (x86)\Exact Audio Copy\Flac\11 - The Frank Sonata.wav

Pre-gap length 0:00:00.29

Peak level 98.0 %
Extraction speed 3.0 X
Track quality 100.0 %
Test CRC A81F9803
Copy CRC A81F9803
Accurately ripped (confidence 2) [AA937276] (AR v2)
Copy OK

Track 12

Filename C:\Program Files (x86)\Exact Audio Copy\Flac\12 - Gangsters.wav

Pre-gap length 0:00:00.29

Peak level 98.0 %
Extraction speed 3.2 X
Track quality 100.0 %
Test CRC 62D9EAF4
Copy CRC 62D9EAF4
Accurately ripped (confidence 2) [54C98911] (AR v2)
Copy OK

Track 13

Filename C:\Program Files (x86)\Exact Audio Copy\Flac\13 - I Lied I Love You.wav

Pre-gap length 0:00:00.29

Peak level 98.0 %
Extraction speed 3.4 X
Track quality 100.0 %
Test CRC 3B6041F2
Copy CRC 3B6041F2
Accurately ripped (confidence 2) [6E5570ED] (AR v2)
Copy OK

Track 14

Filename C:\Program Files (x86)\Exact Audio Copy\Flac\14 - Free Toy.wav

Pre-gap length 0:00:00.29

Peak level 98.0 %
Extraction speed 3.4 X
Track quality 100.0 %
Test CRC 0B2BA5D5
Copy CRC 0B2BA5D5
Accurately ripped (confidence 2) [4AE2CFA0] (AR v2)
Copy OK

Track 15

Filename C:\Program Files (x86)\Exact Audio Copy\Flac\15 - (The Man Who Found) Elvis.wav

Pre-gap length 0:00:00.29

Peak level 99.3 %
Extraction speed 3.5 X
Track quality 100.0 %
Test CRC B7F5B7B6
Copy CRC B7F5B7B6
Accurately ripped (confidence 2) [275E9E04] (AR v2)
Copy OK

Track 16

Filename C:\Program Files (x86)\Exact Audio Copy\Flac\16 - In The Snow.wav

Pre-gap length 0:00:00.29

Peak level 98.0 %
Extraction speed 3.6 X
Track quality 100.0 %
Test CRC 4DBB3296
Copy CRC 4DBB3296
Accurately ripped (confidence 2) [7889D9F6] (AR v2)
Copy OK

Track 17

Filename C:\Program Files (x86)\Exact Audio Copy\Flac\17 - Dance Baby Dance.wav

Pre-gap length 0:00:00.29

Peak level 98.0 %
Extraction speed 3.7 X
Track quality 100.0 %
Test CRC 65A72B34
Copy CRC 65A72B34
Accurately ripped (confidence 2) [554C10EF] (AR v2)
Copy OK

Track 18

Filename C:\Program Files (x86)\Exact Audio Copy\Flac\18 - Miss Believer.wav

Pre-gap length 0:00:00.29

Peak level 98.0 %
Extraction speed 3.8 X
Track quality 100.0 %
Test CRC DF41A4AC
Copy CRC DF41A4AC
Accurately ripped (confidence 2) [26EA0832] (AR v2)
Copy OK


All tracks accurately ripped

No errors occurred

End of status report

–– CUETools DB Plugin V2.1.6

[CTDB TOCID: a5kU13HSL_IqjGHfdlorHENez7w-] disk not present in database
Submit result: a5kU13HSL_IqjGHfdlorHENez7w- has been uploaded


==== Log checksum 74B00EC1F1241C23FEB1C18910378A073D19A6246F3B5F503499B1A309DE4B52 ====

Exact Audio Copy V1.0 beta 6 from 9. April 2015

EAC extraction logfile from 28. April 2015, 7:29

Longpigs / On And On The Anthology (CD2)

Used drive : HL-DT-STDVD+-RW GH30N Adapter: 1 ID: 0

Read mode : Secure
Utilize accurate stream : Yes
Defeat audio cache : Yes
Make use of C2 pointers : No

Read offset correction : 102
Overread into Lead-In and Lead-Out : No
Fill up missing offset samples with silence : Yes
Delete leading and trailing silent blocks : No
Null samples used in CRC calculations : Yes
Used interface : Native Win32 interface for Win NT & 2000
Gap handling : Appended to previous track

Used output format : User Defined Encoder
Selected bitrate : 1024 kBit/s
Quality : High
Add ID3 tag : No
Command line compressor : C:\Program Files (x86)\Exact Audio Copy\Flac\flac.exe
Additional command line options : -8 -V -T "ARTIST=%artist%" -T "TITLE=%title%" -T "ALBUM=%albumtitle%" -T "DATE=%year%" -T "TRACKNUMBER=%tracknr%" -T "GENRE=%genre%" -T "PERFORMER=%albuminterpret%" -T "COMPOSER=%composer%" %haslyrics%–tag-from-file=LYRICS="%lyricsfile%"%haslyrics% -T "ALBUMARTIST=%albumartist%" -T "DISCNUMBER=%cdnumber%" -T "TOTALDISCS=%totalcds%" -T "TOTALTRACKS=%numtracks%" -T "COMMENT=%comment%" %source% -o %dest%


TOC of the extracted CD

Track | Start | Length | Start sector | End sector
––––––––––––––––––––––––––––-
1 | 0:00.00 | 3:26.53 | 0 | 15502
2 | 3:26.53 | 4:08.35 | 15503 | 34137
3 | 7:35.13 | 2:38.09 | 34138 | 45996
4 | 10:13.22 | 4:20.00 | 45997 | 65496
5 | 14:33.22 | 3:35.10 | 65497 | 81631
6 | 18:08.32 | 4:45.47 | 81632 | 103053
7 | 22:54.04 | 2:21.28 | 103054 | 113656
8 | 25:15.32 | 2:38.68 | 113657 | 125574
9 | 27:54.25 | 5:39.66 | 125575 | 151065
10 | 33:34.16 | 3:20.30 | 151066 | 166095
11 | 36:54.46 | 3:07.19 | 166096 | 180139
12 | 40:01.65 | 4:39.13 | 180140 | 201077
13 | 44:41.03 | 5:27.04 | 201078 | 225606
14 | 50:08.07 | 4:47.04 | 225607 | 247135
15 | 54:55.11 | 5:27.04 | 247136 | 271664


Track 1

Filename E:\Rips\Longpigs - On And On\CD2\01 - Tendresse.wav

Pre-gap length 0:00:02.00

Peak level 98.8 %
Extraction speed 1.4 X
Track quality 100.0 %
Test CRC FF7A07BA
Copy CRC FF7A07BA
Accurately ripped (confidence 2) [AD119856] (AR v2)
Copy OK

Track 2

Filename E:\Rips\Longpigs - On And On\CD2\02 - Sweetness.wav

Pre-gap length 0:00:00.29

Peak level 100.0 %
Extraction speed 1.7 X
Track quality 100.0 %
Test CRC 0F272553
Copy CRC 0F272553
Accurately ripped (confidence 2) [0B7977CE] (AR v2)
Copy OK

Track 3

Filename E:\Rips\Longpigs - On And On\CD2\03 - Vagina Song.wav

Pre-gap length 0:00:00.29

Peak level 93.4 %
Extraction speed 1.7 X
Track quality 100.0 %
Test CRC 057FB7B6
Copy CRC 057FB7B6
Accurately ripped (confidence 2) [F0DF9BD2] (AR v2)
Copy OK

Track 4

Filename E:\Rips\Longpigs - On And On\CD2\04 - Blah Blah Blah.wav

Pre-gap length 0:00:00.29

Peak level 85.1 %
Extraction speed 1.9 X
Track quality 100.0 %
Test CRC 49F7EC6C
Copy CRC 49F7EC6C
Accurately ripped (confidence 2) [A6BF72F2] (AR v2)
Copy OK

Track 5

Filename E:\Rips\Longpigs - On And On\CD2\05 - Far (Sheffield Version).wav

Pre-gap length 0:00:00.29

Peak level 100.0 %
Extraction speed 1.8 X
Track quality 99.9 %
Test CRC 74F9E9B4
Copy CRC 74F9E9B4
Accurately ripped (confidence 2) [ECE114E3] (AR v2)
Copy OK

Track 6

Filename E:\Rips\Longpigs - On And On\CD2\06 - Your Face.wav

Pre-gap length 0:00:00.29

Peak level 94.4 %
Extraction speed 2.3 X
Track quality 100.0 %
Test CRC FF94AF6E
Copy CRC FF94AF6E
Accurately ripped (confidence 2) [4757373E] (AR v2)
Copy OK

Track 7

Filename E:\Rips\Longpigs - On And On\CD2\07 - When You're Alone.wav

Pre-gap length 0:00:00.29

Peak level 98.8 %
Extraction speed 2.1 X
Track quality 100.0 %
Test CRC 8C57DE91
Copy CRC 8C57DE91
Accurately ripped (confidence 2) [780FBB55] (AR v2)
Copy OK

Track 8

Filename E:\Rips\Longpigs - On And On\CD2\08 - Floss.wav

Pre-gap length 0:00:00.29

Peak level 98.8 %
Extraction speed 2.2 X
Track quality 100.0 %
Test CRC B4692BBA
Copy CRC B4692BBA
Accurately ripped (confidence 2) [96345AE1] (AR v2)
Copy OK

Track 9

Filename E:\Rips\Longpigs - On And On\CD2\09 - (The Man Who Found) Elvis - Radio1 Session 16-8-95.wav

Pre-gap length 0:00:00.29

Peak level 100.0 %
Extraction speed 2.6 X
Track quality 100.0 %
Test CRC 72DEB148
Copy CRC 72DEB148
Accurately ripped (confidence 2) [E1845D03] (AR v2)
Copy OK

Track 10

Filename E:\Rips\Longpigs - On And On\CD2\10 - All Hype - Radio1 Session 16-8-95.wav

Pre-gap length 0:00:00.29

Peak level 100.0 %
Extraction speed 2.5 X
Track quality 100.0 %
Test CRC 8766DC0F
Copy CRC 8766DC0F
Accurately ripped (confidence 2) [2C213E91] (AR v2)
Copy OK

Track 11

Filename E:\Rips\Longpigs - On And On\CD2\11 - Headaches.wav

Pre-gap length 0:00:00.29

Peak level 100.0 %
Extraction speed 2.2 X
Track quality 99.9 %
Test CRC A2189FEA
Copy CRC A2189FEA
Accurately ripped (confidence 2) [53CF0E8F] (AR v2)
Copy OK

Track 12

Filename E:\Rips\Longpigs - On And On\CD2\12 - New York.wav

Pre-gap length 0:00:00.29

Peak level 97.9 %
Extraction speed 2.8 X
Track quality 100.0 %
Test CRC 9D5EA48B
Copy CRC 9D5EA48B
Accurately ripped (confidence 2) [6C3511C8] (AR v2)
Copy OK

Track 13

Filename E:\Rips\Longpigs - On And On\CD2\13 - The Frank Sonata (Rae & Chrsitian Mix).wav

Pre-gap length 0:00:00.29

Peak level 100.0 %
Extraction speed 3.0 X
Track quality 100.0 %
Test CRC 3F4A4B56
Copy CRC 3F4A4B56
Accurately ripped (confidence 2) [EC3CF87D] (AR v2)
Copy OK

Track 14

Filename E:\Rips\Longpigs - On And On\CD2\14 - Free Toy - Radio1 Session 7-9-99.wav

Pre-gap length 0:00:00.29

Peak level 100.0 %
Extraction speed 3.0 X
Track quality 100.0 %
Test CRC D30F4A33
Copy CRC D30F4A33
Accurately ripped (confidence 2) [BB0281ED] (AR v2)
Copy OK

Track 15

Filename E:\Rips\Longpigs - On And On\CD2\15 - Gangsters - Radio1 Session 7-9-99.wav

Pre-gap length 0:00:00.29

Peak level 100.0 %
Extraction speed 3.2 X
Track quality 100.0 %
Test CRC D490187D
Copy CRC D490187D
Accurately ripped (confidence 2) [1E7B5614] (AR v2)
Copy OK


All tracks accurately ripped

No errors occurred

End of status report

–– CUETools DB Plugin V2.1.6

[CTDB TOCID: C.NLvIYDnOUIoezlk.cBpcIgxwg-] found
Submit result: already submitted
Track | CTDB Status
1 | (1/1) Accurately ripped
2 | (1/1) Accurately ripped
3 | (1/1) Accurately ripped
4 | (1/1) Accurately ripped
5 | (1/1) Accurately ripped
6 | (1/1) Accurately ripped
7 | (1/1) Accurately ripped
8 | (1/1) Accurately ripped
9 | (1/1) Accurately ripped
10 | (1/1) Accurately ripped
11 | (1/1) Accurately ripped
12 | (1/1) Accurately ripped
13 | (1/1) Accurately ripped
14 | (1/1) Accurately ripped
15 | (1/1) Accurately ripped


==== Log checksum 7156523A31692E1F8669127D7990BD82FB43EF7D724F0C04DDE6AB54E2ACA2EA ====



Thanks to the Original customer.