Subcategories

Lonnie Brooks - Bayou Lightning (1979)

Posted By: Designol
Lonnie Brooks - Bayou Lightning (1979)

Lonnie Brooks - Bayou Lightning (1979)
EAC | FLAC | Image (Cue&Log) ~ 227 Mb | Mp3 (CBR320) ~ 95 Mb | Scans ~ 106 Mb
Modern Electric Chicago Blues | Label: Alligator | # ALCD 4714 | Time: 00:41:29

All the promise that Lonnie Brooks possessed was realized on this album, his finest and most consistent to date. The churning bayou groove of "Voodoo Daddy," and a soul-steeped "Watch What You Got," a bone-chilling remake of Junior Parker's "In the Dark," rollicking covers of Tommy Tucker's "Alimony" and Brooks' own "Figure Head," and the swaggering originals "You Know What My Body Needs" and "Watchdog" are among the set's many incendiary highlights.

Review by Bill Dahl, Allmusic.com

Lonnie Brooks - Bayou Lightning (1979)



Tracklist:

01. Voodoo Daddy (4:44)
02. Figure Head (4:16)
03. Watchdog (3:43)
04. Breakfast In Bed (3:31)
05. In The Dark (5:23)
06. Worked Up Woman (3:26)
07. Alimony (4:01)
08. Watch What You Got (4:13)
09. I Ain't Superstitious (2:54)
10. You Know What My Body Needs (5:19)


Exact Audio Copy V1.0 beta 6 from 9. April 2015

EAC extraction logfile from 12. June 2018, 20:01

Lonnie Brooks / Bayou Lightning

Used drive : PLEXTOR DVDR PX-891SA Adapter: 0 ID: 2

Read mode : Secure
Utilize accurate stream : Yes
Defeat audio cache : Yes
Make use of C2 pointers : No

Read offset correction : 6
Overread into Lead-In and Lead-Out : No
Fill up missing offset samples with silence : Yes
Delete leading and trailing silent blocks : No
Null samples used in CRC calculations : Yes
Used interface : Installed external ASPI interface

Used output format : User Defined Encoder
Selected bitrate : 320 kBit/s
Quality : High
Add ID3 tag : No
Command line compressor : C:\Program Files\Exact Audio Copy 1.b6\Exact Audio Copy\Flac\flac.exe
Additional command line options : -V -8 -T "Genre=%genre%" -T "Artist=%artist%" -T "Title=%title%" -T "Album=%albumtitle%" -T "Date=%year%" -T "Tracknumber=%tracknr%" -T "Comment=%comment%" %source%


TOC of the extracted CD

Track | Start | Length | Start sector | End sector
––––––––––––––––––––––––––––-
1 | 0:00.00 | 4:44.10 | 0 | 21309
2 | 4:44.10 | 4:15.70 | 21310 | 40504
3 | 9:00.05 | 3:42.63 | 40505 | 57217
4 | 12:42.68 | 3:30.45 | 57218 | 73012
5 | 16:13.38 | 5:22.57 | 73013 | 97219
6 | 21:36.20 | 3:25.73 | 97220 | 112667
7 | 25:02.18 | 4:00.67 | 112668 | 130734
8 | 29:03.10 | 4:13.25 | 130735 | 149734
9 | 33:16.35 | 2:53.48 | 149735 | 162757
10 | 36:10.08 | 5:18.45 | 162758 | 186652


Range status and errors

Selected range

Filename L:\Audio\SWF\CD\Lonnie Brooks\1979. Lonnie Brooks - Bayou Lightning (Alligator, ALCD 4714, USA)\Lonnie Brooks - Bayou Lightning.wav

Peak level 100.0 %
Extraction speed 7.3 X
Range quality 99.9 %
Test CRC 55CDD5F4
Copy CRC 55CDD5F4
Copy OK

No errors occurred


AccurateRip summary

Track 1 cannot be verified as accurate (confidence 3) [A929558B], AccurateRip returned [8110085C] (AR v2)
Track 2 cannot be verified as accurate (confidence 3) [7F1F97C5], AccurateRip returned [0C6B5995] (AR v2)
Track 3 cannot be verified as accurate (confidence 3) [5ECCCAFE], AccurateRip returned [53D2DA26] (AR v2)
Track 4 cannot be verified as accurate (confidence 3) [630EFD85], AccurateRip returned [46DC16C7] (AR v2)
Track 5 cannot be verified as accurate (confidence 3) [941F58A6], AccurateRip returned [C62E773D] (AR v2)
Track 6 cannot be verified as accurate (confidence 3) [0E574B8B], AccurateRip returned [3B92B03A] (AR v2)
Track 7 cannot be verified as accurate (confidence 3) [783EF911], AccurateRip returned [E9941435] (AR v2)
Track 8 cannot be verified as accurate (confidence 3) [9542AC49], AccurateRip returned [1F1D98FD] (AR v2)
Track 9 cannot be verified as accurate (confidence 3) [E3E9FB2D], AccurateRip returned [C300EFF5] (AR v2)
Track 10 cannot be verified as accurate (confidence 3) [1D63EE5B], AccurateRip returned [8E75CEB0] (AR v2)

No tracks could be verified as accurate
You may have a different pressing from the one(s) in the database

End of status report

–– CUETools DB Plugin V2.1.6

[CTDB TOCID: g6CKG9n8aTMn6x2Ve52mBsjUtB8-] found
Submit result: g6CKG9n8aTMn6x2Ve52mBsjUtB8- has been confirmed
Track | CTDB Status
1 | (10/12) Accurately ripped
2 | (10/12) Accurately ripped
3 | ( 9/12) Accurately ripped
4 | ( 9/12) Accurately ripped
5 | (10/12) Accurately ripped
6 | (10/12) Accurately ripped
7 | (10/12) Accurately ripped
8 | (10/12) Accurately ripped
9 | (10/12) Accurately ripped
10 | (10/12) Accurately ripped


==== Log checksum 2DF802308F133DE5670CEABDF6B0EF519515617E6D5CB6B34E1667D663D6C867 ====

foobar2000 1.2 / Dynamic Range Meter 1.1.1
log date: 2018-06-12 23:24:19

––––––––––––––––––––––––––––––––––––––––
Analyzed: Lonnie Brooks / Bayou Lightning
––––––––––––––––––––––––––––––––––––––––

DR Peak RMS Duration Track
––––––––––––––––––––––––––––––––––––––––
DR14 -0.60 dB -16.68 dB 4:44 01-Voodoo Daddy
DR14 -2.99 dB -19.86 dB 4:16 02-Figure Head
DR15 -0.25 dB -17.01 dB 3:43 03-Watchdog
DR18 0.00 dB -22.38 dB 3:31 04-Breakfast In Bed
DR14 -2.58 dB -21.81 dB 5:23 05-In The Dark
DR14 -0.44 dB -17.30 dB 3:26 06-Worked Up Woman
DR14 -1.84 dB -18.08 dB 4:01 07-Alimony
DR15 -0.69 dB -19.67 dB 4:13 08-Watch What You Got
DR15 -0.43 dB -18.13 dB 2:54 09-I Ain't Superstitious
DR14 -0.75 dB -17.63 dB 5:19 10-You Know What My Body Needs
––––––––––––––––––––––––––––––––––––––––

Number of tracks: 10
Official DR value: DR15

Samplerate: 44100 Hz
Channels: 2
Bits per sample: 16
Bitrate: 765 kbps
Codec: FLAC
================================================================================

Lonnie Brooks - Bayou Lightning (1979)

Lonnie Brooks - Bayou Lightning (1979)