Subcategories

Loris Tjeknavorian, National Philharmonic Orchestra - Alexander Borodin: Symphonies Nos. 1-3 (2004)

Posted By: Designol
Loris Tjeknavorian, National Philharmonic Orchestra - Alexander Borodin: Symphonies Nos. 1-3 (2004)

Alexander Borodin - Symphonies Nos. 1-3 (2004)
National Philharmonic Orchestra, conducted by Loris Tjeknavorian

EAC | FLAC | Tracks (Cue&Log) ~ 410 Mb (incl 5%) | Mp3 (CBR320) ~ 211 Mb (incl 5%) | Scans included
Genre: Classical | Label: RCA Red Seal | # 82876-62321-2 | Time: 01:18:58

Borodin’s First Symphony isn’t especially interesting, but his Second is a masterpiece, tightly constructed, brilliantly orchestrated, and tunefully delightful. It’s really the only work of its period to rank with the symphonies of Tchaikovsky (along with, possibly, Balakirev’s First), and Tjeknavorian’s performance of it, indeed of all three works, is outstanding. He doesn’t fuss with or manipulate tempos or textures, preferring instead to keep the music moving energetically and allowing the musicians of the National Philharmonic to inject as much color and vitality as possible. The scherzo flashes by like lightning, the slow movement is aptly seductive, and the finale dazzles. As I suggested, the other two works are less obviously successful, but the performances are no less adept. Produced by Charles Gerhardt, we can expect fine sonics, and that’s just what RCA delivers. In this music, you won’t find better.

Review by David Hurwitz, Classics Today

This is classic Borodin. Tjeknavorian’s vision of these works is neither tame nor picturesque. He directs performances that are virile and pumped up with a peculiar excitement whether in the quicker more passionate music or in the dreamy steppe reflections of the No. 1’s andantino, No. 2’s andante and No. 3’s lovingly shaped moderato assai.

Tjeknavorian is aided by a world class orchestra of freelances hand-picked by its leader Sidney Sax. That exceptionally gifted conductor and producer Charles Gerhardt oversaw the sessions in London’s Kingsway Hall. Kenneth E. Wilkinson (assisted by Martin Atkinson) worked his control-board magic over the proceedings. The hall’s fabled acoustics again come into their own even if we have to make the occasional trivial concession when the low rumble of London traffic can be heard in some quiet moments when setting the volume at close to full blast. Speaking of which listen to the extraordinary crashingly rumbustious full tilt tumult at 5.50 onwards in the finale of the Second Symphony.

Time has made few inroads into the splendid sound secured for those original analogue-captured sessions. A steely glare obtrudes at moments of climactic oration by massed violins. Otherwise the sound, though not as ‘drenched’ as ASV’s for the Tjeknavorian’s Yerevan sessions, is full of colour and life with a specially gripping bass extension and forward voicing for the solo woodwind. Listen to the prominently growling and barking trombones at the end of the first and final movements of the First Symphony. The bright-eyed woodwind can be sampled in the second movement of No. 1 and also throughout the Third Symphony - a work of infectious and eager pleasures. The robustly chesty playing of the full string body in the First Symphony’s andantino is impressively weighted. As for the finale Tjeknavorian surprised me by reminding me of Beethoven’s Seventh perhaps as whipped to frenzy by Carlos Kleiber (DG). Nothing is on autopilot, accents and emphases are part of the conductor’s stock-in-trade yet it does not feel as if the work is being pulled about.

These recordings were first issued as part of a 3 LP set in August 1977. I still have that RCA box (RL25098). These were later reissued in part on two RCA LPs: RL25322; RL25225. Despite the excellence of the recordings and performances the set has never been reissued complete on CD. In 1991 RCA issued the Second Symphony, Central Asia and the Prince Igor orchestral-choral ‘plums’ on Silver Seal 9026-60535-2. I know about that disc because of the open-handed kindness of one of the many friends I have met through this site. Apart from that there has been nothing else at all. Here after pleadings to BMG in the UK appear all three symphonies in a package that you should snap up very quickly indeed. We now need to extend our pleas for reissues of Tjeknavorian’s complete Khachaturian Gayaneh. Please BMG do not even think of issuing highlights; we need the full ballet. I should also commend his Sibelius 4 and 5. I hope that the success of this handsome disc will also cause the companies to take Tjeknavorian back into the studio again.

The capable and informative notes are by Richard Freed. At 79 minutes you can hardly ask for more music and on top of which the coupling is the ultimate in logic: all three Borodin symphonies performed with affection and passion - all in one package. Tjeknavorian is an extraordinary musician blending the hothouse heritages of Golovanov and Svetlanov on the one hand and on the other Silvestri and Stokowski on their best days. Be sure to add this to your must-have list.

Review by Rob Barnett, MusicWeb-International.com

Recorded in 1977 and reissued in 2004, this album of Borodin's three symphonies merits serious attention for its solid interpretations, warm performances, and fine sound, and proves its worth on repeated listening. Loris Tjeknavorian and the National Philharmonic Orchestra devote considerable energy to the rugged Symphony No. 1 in E flat, an optimistic work that features some of the orientalism that would later become Borodin's hallmark. The orchestra is muscular and confident, and Tjeknavorian brings out the work's exoticism while maintaining formal structure through vigorous pacing. Best-known of the three symphonies, the Symphony No. 2 in B minor may sound familiar from its use in the musical Kismet. Its bold opening reveals the mature composer's taste for Asian motives and sudden contrasts of mood, and both contribute significantly to the work's excitement and charm. Conductor and orchestra are at their most vibrant in this full-blooded performance, and Borodin's sumptuous music bursts with dazzling color. The unfinished Symphony No. 3 in A minor may be the least satisfying work of the disc, even though the Scherzo has an impressive ending by Glazunov. But its lush orchestration and tender melodies make it an appealing treat, in spite of its truncation, and the musicians bring it off with great panache.

Review by Blair Sanderson, Allmusic.com

Loris Tjeknavorian, National Philharmonic Orchestra - Alexander Borodin: Symphonies Nos. 1-3 (2004)



Loris Tjeknavorian, National Philharmonic Orchestra - Alexander Borodin: Symphonies Nos. 1-3 (2004)



Tracklist:

01. No.1 - Adagio - Allegro - Andantino (12:51)
02. No.1 - Scherzo: Prestissimo - Trio: Allegro (07:28)
03. No.1 - Andantino (06:45)
04. No.1 - Allegro molto vivo (06:13)

05. No.2 - Allegro (07:05)
06. No.2 - Scherzo: Prestissimo - Trio: Allegretto (04:33)
07. No.2 - Andante (08:34)
08. No.2 - Finale: Allegro (06:28)

09. No.3 - Moderato assai (09:19)
10. No.3 - Scherzo: Vivo - Trio: Moderato (09:37)


Exact Audio Copy V1.1 from 23. June 2015

EAC extraction logfile from 27. March 2016, 20:59

Borodin, Alexander / Symphonies - National Philharmonic Orchestra, Loris Tjeknavorian

Used drive : PLEXTOR CD-R PREMIUM2 Adapter: 5 ID: 1

Read mode : Secure
Utilize accurate stream : Yes
Defeat audio cache : Yes
Make use of C2 pointers : No

Read offset correction : 30
Overread into Lead-In and Lead-Out : Yes
Fill up missing offset samples with silence : Yes
Delete leading and trailing silent blocks : No
Null samples used in CRC calculations : Yes
Used interface : Installed external ASPI interface
Gap handling : Appended to previous track

Used output format : User Defined Encoder
Selected bitrate : 896 kBit/s
Quality : High
Add ID3 tag : No
Command line compressor : C:\Program Files\Exact Audio Copy\Flac\flac.exe
Additional command line options : -6 -V -T "ARTIST=%artist%" -T "TITLE=%title%" -T "ALBUM=%albumtitle%" -T "DATE=%year%" -T "PERFORMER=%albuminterpret%" -T "TRACKNUMBER=%tracknr%" -T "TOTALTRACKS=%numtracks%" -T "GENRE=%genre%" -T "COMPOSER=%composer%" -T "ALBUMARTIST=%albumartist%" -T "ALBUM ARTIST=%albumartist%" -T "COMMENT=EAC Secure Mode, Test & Copy, AccurateRip, FLAC -6" %source%


TOC of the extracted CD

Track | Start | Length | Start sector | End sector
––––––––––––––––––––––––––––-
1 | 0:00.00 | 12:51.60 | 0 | 57884
2 | 12:51.60 | 7:28.35 | 57885 | 91519
3 | 20:20.20 | 6:45.55 | 91520 | 121949
4 | 27:06.00 | 6:13.32 | 121950 | 149956
5 | 33:19.32 | 7:05.28 | 149957 | 181859
6 | 40:24.60 | 4:33.45 | 181860 | 202379
7 | 44:58.30 | 8:34.25 | 202380 | 240954
8 | 53:32.55 | 6:28.57 | 240955 | 270111
9 | 60:01.37 | 9:19.25 | 270112 | 312061
10 | 69:20.62 | 9:37.55 | 312062 | 355391


Track 1

Filename D:\EAC extraction\01 - No.1 - Adagio - Allegro - Andantino.wav

Pre-gap length 0:00:02.00

Peak level 98.4 %
Extraction speed 1.9 X
Track quality 100.0 %
Test CRC 12655787
Copy CRC 12655787
Accurately ripped (confidence 5) [724952A8] (AR v2)
Copy OK

Track 2

Filename D:\EAC extraction\02 - No.1 - Scherzo; Prestissimo - Trio; Allegro.wav

Pre-gap length 0:00:04.68

Peak level 98.8 %
Extraction speed 1.9 X
Track quality 100.0 %
Test CRC 64E980A5
Copy CRC 64E980A5
Accurately ripped (confidence 5) [6BD9A10C] (AR v2)
Copy OK

Track 3

Filename D:\EAC extraction\03 - No.1 - Andantino.wav

Pre-gap length 0:00:04.63

Peak level 75.9 %
Extraction speed 1.9 X
Track quality 100.0 %
Test CRC 3A258D18
Copy CRC 3A258D18
Accurately ripped (confidence 5) [1DFAE9C7] (AR v2)
Copy OK

Track 4

Filename D:\EAC extraction\04 - No.1 - Allegro molto vivo.wav

Pre-gap length 0:00:04.55

Peak level 94.4 %
Extraction speed 1.9 X
Track quality 100.0 %
Test CRC ECC80B7C
Copy CRC ECC80B7C
Accurately ripped (confidence 5) [DEE5ED7F] (AR v2)
Copy OK

Track 5

Filename D:\EAC extraction\05 - No.2 - Allegro.wav

Pre-gap length 0:00:04.05

Peak level 96.8 %
Extraction speed 1.9 X
Track quality 100.0 %
Test CRC C45D02DE
Copy CRC C45D02DE
Accurately ripped (confidence 5) [1525DBCE] (AR v2)
Copy OK

Track 6

Filename D:\EAC extraction\06 - No.2 - Scherzo; Prestissimo - Trio; Allegretto.wav

Pre-gap length 0:00:04.28

Peak level 88.5 %
Extraction speed 1.8 X
Track quality 100.0 %
Test CRC 2ECA22AD
Copy CRC 2ECA22AD
Accurately ripped (confidence 5) [13A8BA0D] (AR v2)
Copy OK

Track 7

Filename D:\EAC extraction\07 - No.2 - Andante.wav

Pre-gap length 0:00:05.10

Peak level 89.7 %
Extraction speed 1.9 X
Track quality 100.0 %
Test CRC 9AD6E879
Copy CRC 9AD6E879
Accurately ripped (confidence 5) [477845B3] (AR v2)
Copy OK

Track 8

Filename D:\EAC extraction\08 - No.2 - Finale; Allegro.wav

Peak level 98.8 %
Extraction speed 1.8 X
Track quality 99.9 %
Test CRC F6505782
Copy CRC F6505782
Accurately ripped (confidence 5) [8ED28205] (AR v2)
Copy OK

Track 9

Filename D:\EAC extraction\09 - No.3 - Moderato assai.wav

Pre-gap length 0:00:03.45

Peak level 89.8 %
Extraction speed 1.9 X
Track quality 100.0 %
Test CRC 2EECAB4A
Copy CRC 2EECAB4A
Accurately ripped (confidence 5) [4E272433] (AR v2)
Copy OK

Track 10

Filename D:\EAC extraction\10 - No.3 - Scherzo; Vivo - Trio; Moderato.wav

Pre-gap length 0:00:03.47

Peak level 91.9 %
Extraction speed 1.9 X
Track quality 100.0 %
Test CRC 96EF0DA8
Copy CRC 96EF0DA8
Accurately ripped (confidence 5) [8AFCD467] (AR v2)
Copy OK


All tracks accurately ripped

No errors occurred

End of status report

–– CUETools DB Plugin V2.1.6

[CTDB TOCID: OlYKLMe5bmf7L8pmFJnQQuhG98g-] found
Submit result: OlYKLMe5bmf7L8pmFJnQQuhG98g- has been confirmed
Track | CTDB Status
1 | (10/10) Accurately ripped
2 | (10/10) Accurately ripped
3 | (10/10) Accurately ripped
4 | (10/10) Accurately ripped
5 | (10/10) Accurately ripped
6 | (10/10) Accurately ripped
7 | (10/10) Accurately ripped
8 | (10/10) Accurately ripped
9 | (10/10) Accurately ripped
10 | (10/10) Accurately ripped


==== Log checksum B7067FB918C51D3388F5A1C96C09B3B3A2F3672CD107861FF6CB6E1A998524E5 ====

foobar2000 1.2 / Dynamic Range Meter 1.1.1
log date: 2016-04-05 15:02:26

––––––––––––––––––––––––––––––––––––––––
Analyzed: Borodin, Alexander / Symphonies - National Philharmonic Orchestra, Loris Tjeknavorian
––––––––––––––––––––––––––––––––––––––––

DR Peak RMS Duration Track
––––––––––––––––––––––––––––––––––––––––
DR14 -0.13 dB -19.39 dB 12:52 01-No.1 - Adagio - Allegro - Andantino
DR14 -0.10 dB -20.21 dB 7:28 02-No.1 - Scherzo: Prestissimo - Trio: Allegro
DR12 -2.39 dB -20.90 dB 6:46 03-No.1 - Andantino
DR13 -0.50 dB -17.46 dB 6:13 04-No.1 - Allegro molto vivo
DR12 -0.28 dB -17.61 dB 7:05 05-No.2 - Allegro
DR14 -1.05 dB -20.95 dB 4:34 06-No.2 - Scherzo: Prestissimo - Trio: Allegretto
DR13 -0.94 dB -20.15 dB 8:34 07-No.2 - Andante
DR13 -0.10 dB -17.65 dB 6:29 08-No.2 - Finale: Allegro
DR13 -0.93 dB -19.48 dB 9:19 09-No.3 - Moderato assai
DR13 -0.72 dB -19.81 dB 9:38 10-No.3 - Scherzo: Vivo - Trio: Moderato
––––––––––––––––––––––––––––––––––––––––

Number of tracks: 10
Official DR value: DR13

Samplerate: 44100 Hz
Channels: 2
Bits per sample: 16
Bitrate: 660 kbps
Codec: FLAC
================================================================================

Loris Tjeknavorian, National Philharmonic Orchestra - Alexander Borodin: Symphonies Nos. 1-3 (2004)

Loris Tjeknavorian, National Philharmonic Orchestra - Alexander Borodin: Symphonies Nos. 1-3 (2004)

All thanks to original releaser - quivive

More interesting music in My Blog