Subcategories

Riverside - Lost 'N' Found: Live In Tilburg (2017)

Posted By: SERTiL
Riverside - Lost 'N' Found: Live In Tilburg (2017)

Riverside - Lost 'N' Found: Live In Tilburg
EAC Rip | FLAC (tracks)+cue, log, m3u, front cover | 103:45 min | 664 MB
Label: Self-released | Tracks: 13 | Rls.date: 2017
Progressive Rock

Once every 10 years we add an exclusive concert release to our discography. It is our pleasure to let you know that soon we'll add another one."Lost 'n' Found - Live in Tilburg" is a recording of our show in a Dutch club 013 in Tilburg, which took place in the autumn of 2015. The double CD with graphics designed by Travis Smith will be available only at our this year's shows of "Towards the Blue Horizon Tour".

TRACKLIST

CD1
1. Lost
2. Feel Like Falling
3. Hyperactive
4. Conceiving You
5. Panic Room
6. Under The Pillow
7. The Depth Of Self-Delusion
8. Saturate Me

Exact Audio Copy V1.3 from 2. September 2016

EAC extraction logfile from 28. May 2017, 11:47

Riverside / Lost 'n' Found - Live In Tilburg

Used drive : HL-DT-STDVDRAM GP57ES40 Adapter: 1 ID: 0

Read mode : Secure
Utilize accurate stream : Yes
Defeat audio cache : Yes
Make use of C2 pointers : No

Read offset correction : 6
Overread into Lead-In and Lead-Out : No
Fill up missing offset samples with silence : Yes
Delete leading and trailing silent blocks : No
Null samples used in CRC calculations : Yes
Used interface : Native Win32 interface for Win NT & 2000
Gap handling : Appended to previous track

Used output format : User Defined Encoder
Selected bitrate : 1024 kBit/s
Quality : High
Add ID3 tag : No
Command line compressor : C:\Program Files (x86)\Exact Audio Copy\FLAC\FLAC.EXE
Additional command line options : -8 -e -p -V -T "ARTIST=%artist%" -T "TITLE=%title%" -T "ALBUM=%albumtitle%" -T "DATE=%year%" -T "TRACKNUMBER=%tracknr%" -T "GENRE=%genre%" -T "PERFORMER=%albuminterpret%" -T "COMPOSER=%composer%" %haslyrics%–tag-from-file=LYRICS="%lyricsfile%"%haslyrics% -T "ALBUMARTIST=%albumartist%" -T "DISCNUMBER=%cdnumber%" -T "TOTALDISCS=%totalcds%" -T "TOTALTRACKS=%numtracks%" -T "COMMENT=%comment%" %source% -o %dest%


TOC of the extracted CD

Track | Start | Length | Start sector | End sector
––––––––––––––––––––––––––––-
1 | 0:00.00 | 7:56.20 | 0 | 35719
2 | 7:56.20 | 5:36.16 | 35720 | 60935
3 | 13:32.36 | 5:29.30 | 60936 | 85640
4 | 19:01.66 | 5:04.74 | 85641 | 108514
5 | 24:06.65 | 5:43.49 | 108515 | 134288
6 | 29:50.39 | 6:48.12 | 134289 | 164900
7 | 36:38.51 | 7:32.37 | 164901 | 198837
8 | 44:11.13 | 7:22.71 | 198838 | 232058


Track 1

Filename D:\Riverside - Lost 'n' Found - Live In Tilburg\CD1\01 - Lost.wav

Pre-gap length 0:00:02.00

Peak level 95.8 %
Extraction speed 2.8 X
Track quality 100.0 %
Test CRC 3C45E1AC
Copy CRC 3C45E1AC
Track not present in AccurateRip database
Copy OK

Track 2

Filename D:\Riverside - Lost 'n' Found - Live In Tilburg\CD1\02 - Feel Like Falling.wav

Peak level 95.8 %
Extraction speed 3.2 X
Track quality 100.0 %
Test CRC EDF37027
Copy CRC EDF37027
Track not present in AccurateRip database
Copy OK

Track 3

Filename D:\Riverside - Lost 'n' Found - Live In Tilburg\CD1\03 - Hyperactive.wav

Peak level 95.8 %
Extraction speed 3.4 X
Track quality 100.0 %
Test CRC 4FDA3164
Copy CRC 4FDA3164
Track not present in AccurateRip database
Copy OK

Track 4

Filename D:\Riverside - Lost 'n' Found - Live In Tilburg\CD1\04 - Conceiving You.wav

Peak level 96.0 %
Extraction speed 3.7 X
Track quality 100.0 %
Test CRC 391FC1A2
Copy CRC 391FC1A2
Track not present in AccurateRip database
Copy OK

Track 5

Filename D:\Riverside - Lost 'n' Found - Live In Tilburg\CD1\05 - Panic Room.wav

Peak level 96.3 %
Extraction speed 4.0 X
Track quality 100.0 %
Test CRC 734245B8
Copy CRC 734245B8
Track not present in AccurateRip database
Copy OK

Track 6

Filename D:\Riverside - Lost 'n' Found - Live In Tilburg\CD1\06 - Under The Pillow.wav

Peak level 95.6 %
Extraction speed 4.4 X
Track quality 100.0 %
Test CRC 31EAC177
Copy CRC 31EAC177
Track not present in AccurateRip database
Copy OK

Track 7

Filename D:\Riverside - Lost 'n' Found - Live In Tilburg\CD1\07 - The Depth of Self-Delusion.wav

Peak level 96.2 %
Extraction speed 4.4 X
Track quality 99.9 %
Test CRC 26080F19
Copy CRC 26080F19
Track not present in AccurateRip database
Copy OK

Track 8

Filename D:\Riverside - Lost 'n' Found - Live In Tilburg\CD1\08 - Saturate Me.wav

Peak level 95.7 %
Extraction speed 5.1 X
Track quality 100.0 %
Test CRC 62AC4E2B
Copy CRC 62AC4E2B
Track not present in AccurateRip database
Copy OK


None of the tracks are present in the AccurateRip database

No errors occurred

End of status report

–– CUETools DB Plugin V2.1.6

[CTDB TOCID: EotkTLaPUV2sQ.Al7wOrHEQK_BI-] found
Submit result: already submitted
Track | CTDB Status
1 | (26/27) Accurately ripped
2 | (27/27) Accurately ripped
3 | (27/27) Accurately ripped
4 | (27/27) Accurately ripped
5 | (27/27) Accurately ripped
6 | (27/27) Accurately ripped
7 | (27/27) Accurately ripped
8 | (27/27) Accurately ripped


==== Log checksum E0E2821E81D06EE377D75EB518F295A124FEA7FBBA2A763967EAB48F518A7B96 ====


CD2
1. Egoist Hedonist
2. We Got Used To Us
3. Escalator Shrine
4. The Same River
5. Found

Exact Audio Copy V1.3 from 2. September 2016

EAC extraction logfile from 28. May 2017, 13:01

Riverside / Lost 'n' Found - Live In Tilburg

Used drive : HL-DT-STDVDRAM GP57ES40 Adapter: 1 ID: 0

Read mode : Secure
Utilize accurate stream : Yes
Defeat audio cache : Yes
Make use of C2 pointers : No

Read offset correction : 6
Overread into Lead-In and Lead-Out : No
Fill up missing offset samples with silence : Yes
Delete leading and trailing silent blocks : No
Null samples used in CRC calculations : Yes
Used interface : Native Win32 interface for Win NT & 2000
Gap handling : Appended to previous track

Used output format : User Defined Encoder
Selected bitrate : 1024 kBit/s
Quality : High
Add ID3 tag : No
Command line compressor : C:\Program Files (x86)\Exact Audio Copy\FLAC\FLAC.EXE
Additional command line options : -8 -e -p -V -T "ARTIST=%artist%" -T "TITLE=%title%" -T "ALBUM=%albumtitle%" -T "DATE=%year%" -T "TRACKNUMBER=%tracknr%" -T "GENRE=%genre%" -T "PERFORMER=%albuminterpret%" -T "COMPOSER=%composer%" %haslyrics%–tag-from-file=LYRICS="%lyricsfile%"%haslyrics% -T "ALBUMARTIST=%albumartist%" -T "DISCNUMBER=%cdnumber%" -T "TOTALDISCS=%totalcds%" -T "TOTALTRACKS=%numtracks%" -T "COMMENT=%comment%" %source% -o %dest%


TOC of the extracted CD

Track | Start | Length | Start sector | End sector
––––––––––––––––––––––––––––-
1 | 0:00.00 | 7:22.33 | 0 | 33182
2 | 7:22.33 | 5:37.10 | 33183 | 58467
3 | 12:59.43 | 20:25.59 | 58468 | 150401
4 | 33:25.27 | 13:03.48 | 150402 | 209174
5 | 46:29.00 | 5:48.58 | 209175 | 235332


Track 1

Filename D:\Riverside - Lost 'n' Found - Live In Tilburg\CD2\01 - Egoist Hedonist.wav

Pre-gap length 0:00:02.00

Peak level 95.7 %
Extraction speed 1.2 X
Track quality 100.0 %
Test CRC CA07FCFF
Copy CRC CA07FCFF
Track not present in AccurateRip database
Copy OK

Track 2

Filename D:\Riverside - Lost 'n' Found - Live In Tilburg\CD2\02 - We Got Used To Us.wav

Peak level 95.2 %
Extraction speed 1.4 X
Track quality 100.0 %
Test CRC 31E463AB
Copy CRC 31E463AB
Track not present in AccurateRip database
Copy OK

Track 3

Filename D:\Riverside - Lost 'n' Found - Live In Tilburg\CD2\03 - Escalator Shrine.wav

Peak level 95.5 %
Extraction speed 1.9 X
Track quality 100.0 %
Test CRC 75C000F2
Copy CRC 75C000F2
Track not present in AccurateRip database
Copy OK

Track 4

Filename D:\Riverside - Lost 'n' Found - Live In Tilburg\CD2\04 - The Same River.wav

Peak level 97.0 %
Extraction speed 2.2 X
Track quality 100.0 %
Test CRC B5DE3E8C
Copy CRC B5DE3E8C
Track not present in AccurateRip database
Copy OK

Track 5

Filename D:\Riverside - Lost 'n' Found - Live In Tilburg\CD2\05 - Found.wav

Peak level 95.2 %
Extraction speed 2.3 X
Track quality 100.0 %
Test CRC 7407B20B
Copy CRC 7407B20B
Track not present in AccurateRip database
Copy OK


None of the tracks are present in the AccurateRip database

No errors occurred

End of status report

–– CUETools DB Plugin V2.1.6

[CTDB TOCID: O8yceHR8jentbp5k8pPnihS8Oqk-] found
Submit result: already submitted
Track | CTDB Status
1 | (24/24) Accurately ripped
2 | (24/24) Accurately ripped
3 | (24/24) Accurately ripped
4 | (24/24) Accurately ripped
5 | (24/24) Accurately ripped


==== Log checksum ACD13A6478C9600E159E2D132A9DF459CA9D86394C2B2C3A4A68143E5484FF90 ====


Thanks to the Original customer.