Subcategories

Lou Donaldson - Swing And Soul (1957) {Blue Note}

Posted By: tiburon
Lou Donaldson - Swing And Soul (1957) {Blue Note}

Lou Donaldson - Swing And Soul (1957) {Blue Note}
EAC 0.99pb5 | FLAC tracks level 8 | Cue+Log+M3U | Scans | 206MB + 5% Recovery
MP3 CBR 320 Kbps | 88MB + 5% Recovery
Genre: Bop

Swing and Soul is an album by jazz saxophonist Lou Donaldson recorded for the Blue Note label and performed by Donaldson's Quintet with Herman Foster, Peck Morrison, Dave Bailey, and Ray Barretto.
Track List
01. Dorothy (5:24)
02. I Won't Cry Any More (4:22)
03. Herman's Mambo (4:55)
04. Peck Time (5:21)
05. There Will Never Be Another You (5:06)
06. Groove Junction (6:18)
07. Grits And Gravy (6:17)

musicians
Lou Donaldson - alto sax
Herman Foster - piano
Peck Morrison - bass
Dave Bailey - drums
Ray Barretto - conga

Produced by Alfred Lion


Exact Audio Copy V0.99 prebeta 5 from 4. May 2009

EAC extraction logfile from 6. March 2011, 17:13

Lou Donaldson / Swing and Soul

Used drive : PHILIPS SPD2519T Adapter: 1 ID: 0

Read mode : Secure
Utilize accurate stream : Yes
Defeat audio cache : Yes
Make use of C2 pointers : No

Read offset correction : 6
Overread into Lead-In and Lead-Out : No
Fill up missing offset samples with silence : Yes
Delete leading and trailing silent blocks : No
Null samples used in CRC calculations : Yes
Used interface : Installed external ASPI interface
Gap handling : Appended to previous track

Used output format : User Defined Encoder
Selected bitrate : 1024 kBit/s
Quality : High
Add ID3 tag : No
Command line compressor : C:\Program Files\FLAC\flac.exe
Additional command line options : -8 -V -T "ARTIST=%a" -T "TITLE=%t" -T "ALBUM=%g" -T "DATE=%y" -T "TRACKNUMBER=%n" -T "GENRE=%m" -T "COMMENT=EAC FLAC -8" %s


TOC of the extracted CD

Track | Start | Length | Start sector | End sector
––––––––––––––––––––––––––––-
1 | 0:00.00 | 5:24.27 | 0 | 24326
2 | 5:24.27 | 4:22.36 | 24327 | 44012
3 | 9:46.63 | 4:54.67 | 44013 | 66129
4 | 14:41.55 | 5:20.42 | 66130 | 90171
5 | 20:02.22 | 5:06.13 | 90172 | 113134
6 | 25:08.35 | 6:18.12 | 113135 | 141496
7 | 31:26.47 | 6:17.37 | 141497 | 169808


Track 1

Filename O:\Blue Note\Lou Donaldson\Lou Donaldson - Swing and Soul (1957 - TOCJ 9192)\01 - Dorothy.wav

Pre-gap length 0:00:02.00

Peak level 97.9 %
Track quality 100.0 %
Test CRC B3E7B5DA
Copy CRC B3E7B5DA
Cannot be verified as accurate (confidence 1) [75E503A7], AccurateRip returned [87AA0317]
Copy OK

Track 2

Filename O:\Blue Note\Lou Donaldson\Lou Donaldson - Swing and Soul (1957 - TOCJ 9192)\02 - I Won't Cry Any More.wav

Peak level 97.9 %
Track quality 100.0 %
Test CRC 34E26A0D
Copy CRC 34E26A0D
Cannot be verified as accurate (confidence 1) [3E345423], AccurateRip returned [E958EFED]
Copy OK

Track 3

Filename O:\Blue Note\Lou Donaldson\Lou Donaldson - Swing and Soul (1957 - TOCJ 9192)\03 - Herman's Mambo.wav

Peak level 97.9 %
Track quality 100.0 %
Test CRC 23E753BD
Copy CRC 23E753BD
Cannot be verified as accurate (confidence 1) [84DCEA50], AccurateRip returned [498E6686]
Copy OK

Track 4

Filename O:\Blue Note\Lou Donaldson\Lou Donaldson - Swing and Soul (1957 - TOCJ 9192)\04 - Peck Time.wav

Peak level 97.9 %
Track quality 100.0 %
Test CRC BF7D034F
Copy CRC BF7D034F
Cannot be verified as accurate (confidence 1) [A90A118E], AccurateRip returned [E8520B42]
Copy OK

Track 5

Filename O:\Blue Note\Lou Donaldson\Lou Donaldson - Swing and Soul (1957 - TOCJ 9192)\05 - There Will Never Be Another You.wav

Peak level 97.9 %
Track quality 99.9 %
Test CRC 33243AC2
Copy CRC 33243AC2
Cannot be verified as accurate (confidence 1) [CBEAA909], AccurateRip returned [7C08EFA7]
Copy OK

Track 6

Filename O:\Blue Note\Lou Donaldson\Lou Donaldson - Swing and Soul (1957 - TOCJ 9192)\06 - Groove Junction.wav

Peak level 97.9 %
Track quality 100.0 %
Test CRC 3C789B4E
Copy CRC 3C789B4E
Cannot be verified as accurate (confidence 1) [5B9FDCF8], AccurateRip returned [4977577E]
Copy OK

Track 7

Filename O:\Blue Note\Lou Donaldson\Lou Donaldson - Swing and Soul (1957 - TOCJ 9192)\07 - Grits And Gravy.wav

Peak level 97.9 %
Track quality 99.9 %
Test CRC 5B7CECB6
Copy CRC 5B7CECB6
Cannot be verified as accurate (confidence 1) [AF75682C], AccurateRip returned [D627DFFA]
Copy OK


No tracks could be verified as accurate
You may have a different pressing from the one(s) in the database

No errors occurred

End of status report


––––––––––––––––––––––––––––––––––––––––
Analyzed: Lou Donaldson / Swing And Soul
––––––––––––––––––––––––––––––––––––––––

DR Peak RMS Duration Track
––––––––––––––––––––––––––––––––––––––––
DR9 -0.18 dB -11.46 dB 5:24 01-Dorothy
DR9 -0.18 dB -10.92 dB 4:22 02-I Won't Cry Any More
DR12 -0.18 dB -13.50 dB 4:55 03-Herman's Mambo
DR12 -0.18 dB -13.61 dB 5:21 04-Peck Time
DR11 -0.18 dB -13.30 dB 5:06 05-There Will Never Be Another You
DR11 -0.18 dB -12.41 dB 6:18 06-Groove Junction
DR11 -0.18 dB -13.32 dB 6:17 07-Grits And Gravy
––––––––––––––––––––––––––––––––––––––––

Number of tracks: 7
Official DR value: DR11

Samplerate: 44100 Hz
Channels: 2
Bits per sample: 16
Bitrate: 728 kbps
Codec: FLAC
================================================================================

Lou Donaldson - Swing And Soul (1957) {Blue Note}
Lou Donaldson - Swing And Soul (1957) {Blue Note}


Thanks to the original ripper